osu file format v14

[General]
AudioFilename: audio.mp3
AudioLeadIn: 0
PreviewTime: 209854
Countdown: 0
SampleSet: Normal
StackLeniency: 0.7
Mode: 1
LetterboxInBreaks: 0
WidescreenStoryboard: 0

[Editor]
Bookmarks: 410,30886,53743,84219,116600,148981,179457,237317
DistanceSpacing: 0.1
BeatDivisor: 4
GridSize: 32
TimelineZoom: 3.1

[Metadata]
Title:Smile of Split
TitleUnicode:Smile of Split
Artist:Nekomata Master
ArtistUnicode:猫叉Master
Creator:_DUSK_
Version:Fissure
Source:
Tags:Naoyuki Sato raindrops
BeatmapID:2067860
BeatmapSetID:988553

[Difficulty]
HPDrainRate:6
CircleSize:4
OverallDifficulty:6
ApproachRate:9
SliderMultiplier:1.4
SliderTickRate:1

[Events]
//Background and Video events
0,0,"sos2.jpg",0,0
//Break Periods
//Storyboard Layer 0 (Background)
//Storyboard Layer 1 (Fail)
//Storyboard Layer 2 (Pass)
//Storyboard Layer 3 (Foreground)
//Storyboard Layer 4 (Overlay)
//Storyboard Sound Samples

[TimingPoints]
410,476.190476190476,4,1,0,30,1,0
410,-142.857142857143,4,1,0,30,0,0
886,-140.845070422535,4,1,0,30,0,0
1124,-138.888888888889,4,1,0,30,0,0
1243,-136.986301369863,4,1,0,30,0,0
1481,-135.135135135135,4,1,0,30,0,0
1600,-133.333333333333,4,1,0,30,0,0
1838,-131.578947368421,4,1,0,30,0,0
2076,-129.87012987013,4,1,0,30,0,0
2314,-128.205128205128,4,1,0,30,0,0
2790,-126.582278481013,4,1,0,30,0,0
3029,-125,4,1,0,30,0,0
3148,-123.456790123457,4,1,0,30,0,0
3267,-121.951219512195,4,1,0,30,0,0
3326,-120.481927710843,4,1,0,30,0,0
3386,-119.047619047619,4,1,0,30,0,0
3505,-117.647058823529,4,1,0,30,0,0
3624,-116.279069767442,4,1,0,30,0,0
3743,-114.942528735632,4,1,0,30,0,0
3981,-113.636363636364,4,1,0,30,0,0
4219,-112.359550561798,4,1,0,30,0,0
4695,-111.111111111111,4,1,0,30,0,0
4933,-109.89010989011,4,1,0,30,0,0
5052,-108.695652173913,4,1,0,30,0,0
5171,-107.52688172043,4,1,0,30,0,0
5290,-106.382978723404,4,1,0,30,0,0
5409,-105.263157894737,4,1,0,30,0,0
5648,-104.166666666667,4,1,0,30,0,0
5886,-103.092783505155,4,1,0,30,0,0
6124,-102.040816326531,4,1,0,30,0,0
6600,-101.010101010101,4,1,0,30,0,0
6838,-100,4,1,0,30,0,0
6997,-99.009900990099,4,1,0,30,0,0
7076,-98.0392156862745,4,1,0,30,0,0
7235,-97.0873786407767,4,1,0,30,0,0
7314,-96.1538461538461,4,1,0,30,0,0
7552,-95.2380952380952,4,1,0,30,0,0
7790,-94.3396226415094,4,1,0,30,0,0
7949,-93.4579439252336,4,1,0,30,0,0
8029,-92.5925925925926,4,1,0,30,0,0
8505,-91.743119266055,4,1,0,30,0,0
8743,-90.9090909090909,4,1,0,30,0,0
8902,-90.0900900900901,4,1,0,30,0,0
8981,-89.2857142857143,4,1,0,30,0,0
9140,-88.4955752212389,4,1,0,30,0,0
9219,-87.719298245614,4,1,0,30,0,0
9457,-86.9565217391304,4,1,0,30,0,0
9695,-86.2068965517241,4,1,0,30,0,0
9933,-85.4700854700855,4,1,0,30,0,0
10409,-84.7457627118644,4,1,0,30,0,0
10648,-84.0336134453781,4,1,0,30,0,0
10707,-83.3333333333333,4,1,0,30,0,0
10767,-82.6446280991736,4,1,0,30,0,0
10886,-81.9672131147541,4,1,0,30,0,0
11005,-81.3008130081301,4,1,0,30,0,0
11124,-80.6451612903226,4,1,0,30,0,0
11243,-80,4,1,0,30,0,0
11362,-79.3650793650794,4,1,0,30,0,0
11600,-78.7401574803149,4,1,0,30,0,0
11838,-78.125,4,1,0,30,0,0
12314,-77.5193798449612,4,1,0,30,0,0
12552,-76.9230769230769,4,1,0,30,0,0
12671,-76.3358778625954,4,1,0,30,0,0
12909,-75.7575757575758,4,1,0,30,0,0
13029,-75.187969924812,4,1,0,30,0,0
13267,-74.6268656716418,4,1,0,30,0,0
13425,-74.0740740740741,4,1,0,30,0,0
13663,-73.5294117647059,4,1,0,30,0,0
13743,-72.992700729927,4,1,0,30,0,0
13902,-72.463768115942,4,1,0,30,0,0
13981,-71.9424460431655,4,1,0,30,0,0
14219,-71.4285714285714,4,1,0,30,0,0
14457,-70.9219858156028,4,1,0,30,0,0
14616,-70.4225352112676,4,1,0,30,0,0
14695,-69.9300699300699,4,1,0,30,0,0
15171,-76.9230769230769,4,1,0,30,0,0
31749,-100,4,1,0,30,0,0
38505,-90.9090909090909,4,1,0,30,0,0
46243,-93.4579439252336,4,1,0,30,0,0
46481,-96.1538461538461,4,1,0,30,0,0
46838,-99.009900990099,4,1,0,30,0,0
48892,-111.111111111111,4,1,0,30,0,0
49933,-109.89010989011,4,1,0,30,0,0
50052,-108.695652173913,4,1,0,30,0,0
50290,-107.52688172043,4,1,0,30,0,0
50409,-106.382978723404,4,1,0,30,0,0
50648,-105.263157894737,4,1,0,30,0,0
50806,-104.166666666667,4,1,0,30,0,0
50886,-103.092783505155,4,1,0,30,0,0
51124,-102.040816326531,4,1,0,30,0,0
51203,-101.010101010101,4,1,0,30,0,0
51283,-100,4,1,0,30,0,0
51362,-99.009900990099,4,1,0,30,0,0
51521,-98.0392156862745,4,1,0,30,0,0
51600,-97.0873786407767,4,1,0,30,0,0
51679,-96.1538461538461,4,1,0,30,0,0
51759,-95.2380952380952,4,1,0,30,0,0
51838,-94.3396226415094,4,1,0,30,0,0
52076,-93.4579439252336,4,1,0,30,0,0
52156,-92.5925925925926,4,1,0,30,0,0
52235,-91.743119266055,4,1,0,30,0,0
52314,-90.9090909090909,4,1,0,30,0,0
52394,-90.0900900900901,4,1,0,30,0,0
52473,-89.2857142857143,4,1,0,30,0,0
52552,-88.4955752212389,4,1,0,30,0,0
52632,-87.719298245614,4,1,0,30,0,0
52711,-86.9565217391304,4,1,0,30,0,0
52790,-86.2068965517241,4,1,0,30,0,0
53029,-87.719298245614,4,1,0,30,0,0
53108,-86.9565217391304,4,1,0,30,0,0
53187,-86.2068965517241,4,1,0,30,0,0
53267,-85.4700854700855,4,1,0,30,0,0
53425,-84.7457627118644,4,1,0,30,0,0
53505,-84.0336134453781,4,1,0,30,0,0
53663,-83.3333333333333,4,1,0,30,0,0
53743,-82.6446280991736,4,1,0,40,0,0
60886,-81.9672131147541,4,1,0,40,0,0
61124,-81.3008130081301,4,1,0,40,0,0
61283,-80.6451612903226,4,1,0,40,0,0
61362,-80,4,1,0,40,0,0
68663,-79.3650793650794,4,1,0,40,0,0
68743,-78.7401574803149,4,1,0,40,0,0
68822,-78.125,4,1,0,40,0,0
68902,-77.5193798449612,4,1,0,40,0,0
68981,-76.9230769230769,4,1,0,40,0,0
84695,-77.5193798449612,4,1,0,30,0,0
85082,-78.125,4,1,0,30,0,0
85648,-78.7401574803149,4,1,0,30,0,0
86034,-79.3650793650794,4,1,0,30,0,0
86600,-80,4,1,0,30,0,0
86987,-80.6451612903226,4,1,0,30,0,0
87552,-81.3008130081301,4,1,0,30,0,0
88029,-81.9672131147541,4,1,0,30,0,0
88505,-82.6446280991736,4,1,0,30,0,0
88654,-83.3333333333333,4,1,0,30,0,0
88892,-84.0336134453781,4,1,0,30,0,0
89457,-84.7457627118644,4,1,0,30,0,0
89844,-85.4700854700855,4,1,0,30,0,0
90409,-86.2068965517241,4,1,0,30,0,0
90796,-86.9565217391304,4,1,0,30,0,0
91362,-87.719298245614,4,1,0,30,0,0
91838,-88.4955752212389,4,1,0,30,0,0
92701,-90.0900900900901,4,1,0,30,0,0
93654,-91.743119266055,4,1,0,30,0,0
94606,-93.4579439252336,4,1,0,30,0,0
95558,-95.2380952380952,4,1,0,30,0,0
96511,-97.0873786407767,4,1,0,30,0,0
97463,-99.009900990099,4,1,0,30,0,0
98415,-101.010101010101,4,1,0,30,0,0
98981,-103.092783505155,4,1,0,30,0,0
99814,-103.092783505155,4,1,0,10,0,0
101362,-95.2380952380952,4,1,0,30,0,0
116600,-90.9090909090909,4,1,0,50,0,0
130171,-90.0900900900901,4,1,0,50,0,0
130330,-89.2857142857143,4,1,0,50,0,0
130409,-88.4955752212389,4,1,0,50,0,0
130648,-87.719298245614,4,1,0,50,0,0
130727,-86.9565217391304,4,1,0,50,0,0
130806,-86.2068965517241,4,1,0,50,0,0
130886,-85.4700854700855,4,1,0,50,0,0
131044,-84.7457627118644,4,1,0,50,0,0
131283,-84.0336134453781,4,1,0,50,0,0
131362,-83.3333333333333,4,1,0,50,0,0
131600,-82.6446280991736,4,1,0,50,0,0
131838,-81.9672131147541,4,1,0,50,0,0
145171,-81.3008130081301,4,1,0,50,0,0
145409,-80.6451612903226,4,1,0,50,0,0
145568,-80,4,1,0,50,0,0
145648,-79.3650793650794,4,1,0,50,0,0
145886,-78.7401574803149,4,1,0,50,0,0
146044,-78.125,4,1,0,50,0,0
146124,-77.5193798449612,4,1,0,50,0,0
146283,-76.9230769230769,4,1,0,50,0,0
146521,-76.3358778625954,4,1,0,50,0,0
146600,-75.7575757575758,4,1,0,50,0,0
146838,-75.187969924812,4,1,0,50,0,0
148029,-100,4,1,0,50,0,0
148981,-86.9565217391304,4,1,0,60,0,0
163267,-86.2068965517241,4,1,0,60,0,0
163663,-85.4700854700855,4,1,0,60,0,0
163743,-84.7457627118644,4,1,0,60,0,0
163981,-84.0336134453781,4,1,0,60,0,0
164219,-80,4,1,0,60,0,0
170806,-79.3650793650794,4,1,0,60,0,0
170886,-78.7401574803149,4,1,0,60,0,0
170965,-78.125,4,1,0,60,0,0
171044,-77.5193798449612,4,1,0,60,0,0
171124,-76.9230769230769,4,1,0,60,0,0
171203,-76.3358778625954,4,1,0,60,0,0
171283,-75.7575757575758,4,1,0,60,0,0
171362,-75.187969924812,4,1,0,60,0,0
171441,-74.6268656716418,4,1,0,60,0,0
171521,-74.0740740740741,4,1,0,60,0,0
171600,-73.5294117647059,4,1,0,60,0,0
171679,-72.992700729927,4,1,0,60,0,0
171759,-72.463768115942,4,1,0,60,0,0
171838,-71.9424460431655,4,1,0,60,0,0
178029,-76.9230769230769,4,1,0,60,0,0
178505,-76.3358778625954,4,1,0,60,0,0
178584,-75.7575757575758,4,1,0,60,0,0
178663,-75.187969924812,4,1,0,60,0,0
178743,-74.6268656716418,4,1,0,60,0,0
178822,-74.0740740740741,4,1,0,60,0,0
178902,-73.5294117647059,4,1,0,60,0,0
178981,-72.463768115942,4,1,0,60,0,0
179219,-71.9424460431655,4,1,0,60,0,0
179457,-71.4285714285714,4,1,0,60,0,0
190806,-68.9655172413793,4,1,0,60,0,0
191838,-71.4285714285714,4,1,0,60,0,0
194695,-66.6666666666667,4,1,0,60,0,0
201838,-66.2251655629139,4,1,0,60,0,0
201957,-65.7894736842105,4,1,0,60,0,0
202076,-65.359477124183,4,1,0,60,0,0
202195,-64.9350649350649,4,1,0,60,0,0
202314,-64.5161290322581,4,1,0,60,0,0
206044,-66.6666666666667,4,1,0,60,0,0
206283,-68.9655172413793,4,1,0,60,0,0
206521,-71.4285714285714,4,1,0,60,0,0
206838,-64.5161290322581,4,1,0,60,0,0
209933,-66.6666666666667,4,1,0,50,0,0
225558,-71.4285714285714,4,1,0,30,0,0
225886,-76.9230769230769,4,1,0,30,0,0
227076,-142.857142857143,4,1,0,30,0,0
237433,-142.857142857143,4,1,0,5,0,0

[HitObjects]
256,192,410,5,0,0:0:0:0:
256,192,886,1,8,0:0:0:0:
256,192,1124,1,0,0:0:0:0:
256,192,1243,1,8,0:0:0:0:
256,192,1481,1,8,0:0:0:0:
256,192,1600,1,0,0:0:0:0:
256,192,1838,1,8,0:0:0:0:
256,192,2076,1,0,0:0:0:0:
256,192,2314,1,0,0:0:0:0:
256,192,2790,1,8,0:0:0:0:
256,192,3029,1,8,0:0:0:0:
256,192,3148,1,8,0:0:0:0:
256,192,3267,1,0,0:0:0:0:
256,192,3326,1,0,0:0:0:0:
256,192,3386,1,0,0:0:0:0:
256,192,3505,1,8,0:0:0:0:
256,192,3624,1,0,0:0:0:0:
256,192,3743,1,8,0:0:0:0:
256,192,3981,1,0,0:0:0:0:
256,192,4219,1,0,0:0:0:0:
256,192,4695,1,8,0:0:0:0:
256,192,4933,1,8,0:0:0:0:
256,192,5052,1,0,0:0:0:0:
256,192,5171,1,8,0:0:0:0:
256,192,5290,1,0,0:0:0:0:
256,192,5409,1,0,0:0:0:0:
256,192,5648,1,8,0:0:0:0:
256,192,5886,1,0,0:0:0:0:
256,192,6124,1,0,0:0:0:0:
256,192,6600,1,8,0:0:0:0:
256,192,6838,1,8,0:0:0:0:
256,192,6997,1,8,0:0:0:0:
256,192,7076,1,0,0:0:0:0:
256,192,7235,1,0,0:0:0:0:
256,192,7314,1,8,0:0:0:0:
256,192,7552,1,8,0:0:0:0:
256,192,7790,1,0,0:0:0:0:
256,192,7949,1,0,0:0:0:0:
256,192,8029,1,0,0:0:0:0:
256,192,8505,1,8,0:0:0:0:
256,192,8743,1,0,0:0:0:0:
256,192,8902,1,0,0:0:0:0:
256,192,8981,1,8,0:0:0:0:
256,192,9140,1,8,0:0:0:0:
256,192,9219,1,0,0:0:0:0:
256,192,9457,1,8,0:0:0:0:
256,192,9695,1,0,0:0:0:0:
256,192,9933,1,0,0:0:0:0:
256,192,10409,1,8,0:0:0:0:
256,192,10648,1,0,0:0:0:0:
256,192,10707,1,0,0:0:0:0:
256,192,10767,1,0,0:0:0:0:
256,192,10886,1,0,0:0:0:0:
256,192,11005,1,8,0:0:0:0:
256,192,11124,1,0,0:0:0:0:
256,192,11243,1,0,0:0:0:0:
256,192,11362,1,8,0:0:0:0:
256,192,11600,1,0,0:0:0:0:
256,192,11838,1,0,0:0:0:0:
256,192,12314,1,8,0:0:0:0:
256,192,12552,1,0,0:0:0:0:
256,192,12671,1,8,0:0:0:0:
256,192,12909,1,8,0:0:0:0:
256,192,13029,1,0,0:0:0:0:
256,192,13267,1,8,0:0:0:0:
256,192,13425,1,0,0:0:0:0:
256,192,13663,1,8,0:0:0:0:
256,192,13743,1,0,0:0:0:0:
256,192,13902,1,0,0:0:0:0:
256,192,13981,1,0,0:0:0:0:
256,192,14219,1,8,0:0:0:0:
256,192,14457,1,8,0:0:0:0:
256,192,14616,1,8,0:0:0:0:
256,192,14695,1,0,0:0:0:0:
256,192,15171,1,8,0:0:0:0:
256,192,15330,1,8,0:0:0:0:
256,192,15409,1,0,0:0:0:0:
256,192,15648,1,12,0:0:0:0:
256,192,16124,1,8,0:0:0:0:
256,192,16362,1,8,0:0:0:0:
256,192,16441,1,8,0:0:0:0:
256,192,16521,1,8,0:0:0:0:
256,192,16600,1,0,0:0:0:0:
256,192,16759,1,8,0:0:0:0:
256,192,16838,1,0,0:0:0:0:
256,192,17076,1,8,0:0:0:0:
256,192,17314,1,0,0:0:0:0:
256,192,17473,1,8,0:0:0:0:
256,192,17552,1,0,0:0:0:0:
256,192,17790,1,0,0:0:0:0:
256,192,18029,1,8,0:0:0:0:
256,192,18267,1,0,0:0:0:0:
256,192,18346,1,0,0:0:0:0:
256,192,18425,1,0,0:0:0:0:
256,192,18505,1,8,0:0:0:0:
256,192,18663,1,8,0:0:0:0:
256,192,18743,1,0,0:0:0:0:
256,192,18981,1,8,0:0:0:0:
256,192,19219,1,0,0:0:0:0:
256,192,19378,1,8,0:0:0:0:
256,192,19457,1,0,0:0:0:0:
256,192,19536,1,8,0:0:0:0:
256,192,19616,1,8,0:0:0:0:
256,192,19695,1,0,0:0:0:0:
256,192,19933,1,8,0:0:0:0:
256,192,20171,1,8,0:0:0:0:
256,192,20251,1,8,0:0:0:0:
256,192,20330,1,8,0:0:0:0:
256,192,20409,1,0,0:0:0:0:
256,192,20568,1,8,0:0:0:0:
256,192,20648,1,0,0:0:0:0:
256,192,20886,1,8,0:0:0:0:
256,192,21124,1,0,0:0:0:0:
256,192,21283,1,8,0:0:0:0:
256,192,21362,1,0,0:0:0:0:
256,192,21600,1,0,0:0:0:0:
256,192,21838,1,8,0:0:0:0:
256,192,22076,1,8,0:0:0:0:
256,192,22156,1,8,0:0:0:0:
256,192,22235,1,8,0:0:0:0:
256,192,22314,1,0,0:0:0:0:
256,192,22473,1,8,0:0:0:0:
256,192,22552,1,8,0:0:0:0:
256,192,22790,1,8,0:0:0:0:
256,192,23029,1,0,0:0:0:0:
256,192,23267,1,12,0:0:0:0:
256,192,23505,1,8,0:0:0:0:
256,192,23663,1,0,0:0:0:0:
256,192,23743,1,8,0:0:0:0:
256,192,23981,1,8,0:0:0:0:
256,192,24060,1,8,0:0:0:0:
256,192,24140,1,8,0:0:0:0:
256,192,24219,1,0,0:0:0:0:
256,192,24378,1,8,0:0:0:0:
256,192,24457,1,8,0:0:0:0:
256,192,24695,1,8,0:0:0:0:
256,192,24933,1,8,0:0:0:0:
256,192,25092,1,8,0:0:0:0:
256,192,25171,1,0,0:0:0:0:
256,192,25409,1,0,0:0:0:0:
256,192,25648,1,8,0:0:0:0:
256,192,25886,1,0,0:0:0:0:
256,192,25965,1,0,0:0:0:0:
256,192,26044,1,0,0:0:0:0:
256,192,26124,1,0,0:0:0:0:
256,192,26283,1,8,0:0:0:0:
256,192,26362,1,0,0:0:0:0:
256,192,26600,1,8,0:0:0:0:
256,192,26838,1,8,0:0:0:0:
256,192,27076,1,0,0:0:0:0:
256,192,27156,1,8,0:0:0:0:
256,192,27235,1,8,0:0:0:0:
256,192,27314,1,0,0:0:0:0:
256,192,27473,1,0,0:0:0:0:
256,192,27552,1,8,0:0:0:0:
256,192,27790,1,8,0:0:0:0:
256,192,27870,1,8,0:0:0:0:
256,192,27949,1,8,0:0:0:0:
256,192,28029,1,0,0:0:0:0:
256,192,28187,1,8,0:0:0:0:
256,192,28267,1,0,0:0:0:0:
256,192,28505,1,8,0:0:0:0:
256,192,28743,1,8,0:0:0:0:
256,192,28902,1,8,0:0:0:0:
256,192,28981,1,0,0:0:0:0:
256,192,29219,1,8,0:0:0:0:
256,192,29457,1,8,0:0:0:0:
256,192,29695,1,0,0:0:0:0:
256,192,29775,1,0,0:0:0:0:
256,192,29854,1,0,0:0:0:0:
256,192,29933,1,8,0:0:0:0:
256,192,30092,1,8,0:0:0:0:
256,192,30171,1,0,0:0:0:0:
256,192,30330,1,0,0:0:0:0:
256,192,30409,1,8,0:0:0:0:
256,192,30648,1,8,0:0:0:0:
256,192,30886,5,12,0:0:0:0:
256,192,31749,1,0,0:0:0:0:
256,192,32701,1,0,0:0:0:0:
256,192,33654,1,0,0:0:0:0:
256,192,34219,1,8,0:0:0:0:
256,192,34695,1,0,0:0:0:0:
256,192,35558,1,0,0:0:0:0:
256,192,36511,1,0,0:0:0:0:
256,192,37463,1,8,0:0:0:0:
256,192,38029,1,0,0:0:0:0:
256,192,38505,1,8,0:0:0:0:
256,192,38743,1,0,0:0:0:0:
256,192,38981,1,8,0:0:0:0:
256,192,39140,1,0,0:0:0:0:
256,192,39219,1,8,0:0:0:0:
256,192,39378,1,8,0:0:0:0:
256,192,39457,1,0,0:0:0:0:
256,192,39695,1,0,0:0:0:0:
256,192,39933,1,8,0:0:0:0:
256,192,40409,1,0,0:0:0:0:
256,192,40648,1,0,0:0:0:0:
256,192,40886,1,8,0:0:0:0:
256,192,41044,1,0,0:0:0:0:
256,192,41124,1,0,0:0:0:0:
256,192,41283,1,8,0:0:0:0:
256,192,41362,1,0,0:0:0:0:
256,192,41521,1,0,0:0:0:0:
256,192,41600,1,8,0:0:0:0:
256,192,41838,1,8,0:0:0:0:
256,192,42314,1,8,0:0:0:0:
256,192,42552,1,0,0:0:0:0:
256,192,42790,1,8,0:0:0:0:
256,192,42949,1,0,0:0:0:0:
256,192,43028,1,8,0:0:0:0:
256,192,43187,1,8,0:0:0:0:
256,192,43266,1,0,0:0:0:0:
256,192,43504,1,0,0:0:0:0:
256,192,43742,1,8,0:0:0:0:
256,192,44218,1,0,0:0:0:0:
256,192,44457,1,0,0:0:0:0:
256,192,44695,1,8,0:0:0:0:
256,192,44853,1,0,0:0:0:0:
256,192,44933,1,0,0:0:0:0:
256,192,45092,1,8,0:0:0:0:
256,192,45171,1,0,0:0:0:0:
256,192,45330,1,0,0:0:0:0:
256,192,45409,1,8,0:0:0:0:
256,192,45647,1,8,0:0:0:0:
256,192,46124,1,8,0:0:0:0:
256,192,46243,1,8,0:0:0:0:
256,192,46481,1,0,0:0:0:0:
256,192,46838,1,0,0:0:0:0:
256,192,48892,1,0,0:0:0:0:
256,192,49457,1,8,0:0:0:0:
256,192,49933,1,8,0:0:0:0:
256,192,50052,1,8,0:0:0:0:
256,192,50290,1,0,0:0:0:0:
256,192,50409,1,0,0:0:0:0:
256,192,50648,1,8,0:0:0:0:
256,192,50806,1,8,0:0:0:0:
256,192,50886,1,0,0:0:0:0:
256,192,51124,1,8,0:0:0:0:
256,192,51203,1,8,0:0:0:0:
256,192,51283,1,8,0:0:0:0:
256,192,51362,1,0,0:0:0:0:
256,192,51521,1,0,0:0:0:0:
256,192,51600,1,8,0:0:0:0:
256,192,51679,1,8,0:0:0:0:
256,192,51759,1,8,0:0:0:0:
256,192,51838,1,0,0:0:0:0:
256,192,52076,1,8,0:0:0:0:
256,192,52156,1,8,0:0:0:0:
256,192,52235,1,8,0:0:0:0:
256,192,52314,1,0,0:0:0:0:
256,192,52394,1,0,0:0:0:0:
256,192,52473,1,0,0:0:0:0:
256,192,52552,1,8,0:0:0:0:
256,192,52632,1,8,0:0:0:0:
256,192,52711,1,0,0:0:0:0:
256,192,52790,1,8,0:0:0:0:
256,192,53029,1,0,0:0:0:0:
256,192,53108,1,0,0:0:0:0:
256,192,53187,1,0,0:0:0:0:
256,192,53267,1,8,0:0:0:0:
256,192,53425,1,8,0:0:0:0:
256,192,53505,1,0,0:0:0:0:
256,192,53663,1,0,0:0:0:0:
256,192,53743,1,8,0:0:0:0:
256,192,53981,1,0,0:0:0:0:
256,192,54219,1,0,0:0:0:0:
256,192,54378,1,0,0:0:0:0:
256,192,54457,1,8,0:0:0:0:
256,192,54536,1,8,0:0:0:0:
256,192,54616,1,8,0:0:0:0:
256,192,54695,1,0,0:0:0:0:
256,192,54933,1,8,0:0:0:0:
256,192,55171,1,0,0:0:0:0:
256,192,55409,1,8,0:0:0:0:
256,192,55568,1,8,0:0:0:0:
256,192,55648,1,0,0:0:0:0:
256,192,55886,1,8,0:0:0:0:
256,192,56124,1,0,0:0:0:0:
256,192,56273,1,8,0:0:0:0:
256,192,56521,1,8,0:0:0:0:
256,192,56600,1,0,0:0:0:0:
256,192,56759,1,0,0:0:0:0:
256,192,56838,1,8,0:0:0:0:
256,192,57076,1,8,0:0:0:0:
256,192,57314,1,8,0:0:0:0:
256,192,57394,1,8,0:0:0:0:
256,192,57473,1,8,0:0:0:0:
256,192,57552,1,0,0:0:0:0:
256,192,57632,1,0,0:0:0:0:
256,192,57711,1,0,0:0:0:0:
256,192,57790,1,8,0:0:0:0:
256,192,57949,1,0,0:0:0:0:
256,192,58029,1,8,0:0:0:0:
256,192,58187,1,8,0:0:0:0:
256,192,58267,1,0,0:0:0:0:
256,192,58346,1,8,0:0:0:0:
256,192,58425,1,8,0:0:0:0:
256,192,58505,1,0,0:0:0:0:
256,192,58663,1,0,0:0:0:0:
256,192,58743,1,8,0:0:0:0:
256,192,58981,1,8,0:0:0:0:
256,192,59140,1,0,0:0:0:0:
256,192,59219,1,8,0:0:0:0:
256,192,59378,1,8,0:0:0:0:
256,192,59457,1,0,0:0:0:0:
256,192,59695,1,8,0:0:0:0:
256,192,59933,1,0,0:0:0:0:
256,192,60082,1,8,0:0:0:0:
256,192,60330,1,8,0:0:0:0:
256,192,60409,1,0,0:0:0:0:
256,192,60568,1,0,0:0:0:0:
256,192,60648,1,8,0:0:0:0:
256,192,60727,1,8,0:0:0:0:
256,192,60806,1,8,0:0:0:0:
256,192,60886,1,0,0:0:0:0:
256,192,61124,1,8,0:0:0:0:
256,192,61283,1,8,0:0:0:0:
256,192,61362,1,0,0:0:0:0:
256,192,61600,1,8,0:0:0:0:
256,192,61838,1,0,0:0:0:0:
256,192,61997,1,8,0:0:0:0:
256,192,62076,1,0,0:0:0:0:
256,192,62156,1,8,0:0:0:0:
256,192,62235,1,8,0:0:0:0:
256,192,62314,1,0,0:0:0:0:
256,192,62473,1,0,0:0:0:0:
256,192,62552,1,8,0:0:0:0:
256,192,62790,1,0,0:0:0:0:
256,192,63029,1,8,0:0:0:0:
256,192,63187,1,8,0:0:0:0:
256,192,63267,1,0,0:0:0:0:
256,192,63505,1,8,0:0:0:0:
256,192,63743,1,0,0:0:0:0:
256,192,63981,1,8,0:0:0:0:
256,192,64140,1,8,0:0:0:0:
256,192,64219,1,0,0:0:0:0:
256,192,64378,1,0,0:0:0:0:
256,192,64457,1,8,0:0:0:0:
256,192,64695,1,8,0:0:0:0:
256,192,64933,1,8,0:0:0:0:
256,192,65092,1,8,0:0:0:0:
256,192,65171,1,0,0:0:0:0:
256,192,65251,1,8,0:0:0:0:
256,192,65330,1,8,0:0:0:0:
256,192,65409,1,0,0:0:0:0:
256,192,65568,1,0,0:0:0:0:
256,192,65648,1,8,0:0:0:0:
256,192,65806,1,0,0:0:0:0:
256,192,65886,1,0,0:0:0:0:
256,192,65965,1,8,0:0:0:0:
256,192,66044,1,8,0:0:0:0:
256,192,66124,1,0,0:0:0:0:
256,192,66283,1,0,0:0:0:0:
256,192,66362,1,8,0:0:0:0:
256,192,66600,1,8,0:0:0:0:
256,192,66838,1,0,0:0:0:0:
256,192,66997,1,8,0:0:0:0:
256,192,67076,1,0,0:0:0:0:
256,192,67314,1,8,0:0:0:0:
256,192,67552,1,0,0:0:0:0:
256,192,67701,1,8,0:0:0:0:
256,192,67949,1,8,0:0:0:0:
256,192,68029,1,0,0:0:0:0:
256,192,68187,1,0,0:0:0:0:
256,192,68267,1,8,0:0:0:0:
256,192,68505,1,0,0:0:0:0:
256,192,68663,1,0,0:0:0:0:
256,192,68743,1,8,0:0:0:0:
256,192,68822,1,8,0:0:0:0:
256,192,68902,1,8,0:0:0:0:
256,192,68981,1,0,0:0:0:0:
256,192,69219,1,8,0:0:0:0:
256,192,69457,1,0,0:0:0:0:
256,192,69606,1,8,0:0:0:0:
256,192,69844,1,8,0:0:0:0:
256,192,70171,1,8,0:0:0:0:
256,192,70409,1,0,0:0:0:0:
256,192,70489,1,8,0:0:0:0:
256,192,70568,1,8,0:0:0:0:
256,192,70648,1,0,0:0:0:0:
256,192,70806,1,0,0:0:0:0:
256,192,71124,1,8,0:0:0:0:
256,192,71362,1,0,0:0:0:0:
256,192,71511,1,8,0:0:0:0:
256,192,71759,1,8,0:0:0:0:
256,192,71838,1,0,0:0:0:0:
256,192,71997,1,0,0:0:0:0:
256,192,72076,1,8,0:0:0:0:
256,192,72314,1,8,0:0:0:0:
256,192,72552,1,8,0:0:0:0:
256,192,72632,1,0,0:0:0:0:
256,192,72711,1,0,0:0:0:0:
256,192,72790,1,8,0:0:0:0:
256,192,72949,1,0,0:0:0:0:
256,192,73029,1,8,0:0:0:0:
256,192,73267,1,8,0:0:0:0:
256,192,73425,1,8,0:0:0:0:
256,192,73505,1,0,0:0:0:0:
256,192,73584,1,8,0:0:0:0:
256,192,73663,1,8,0:0:0:0:
256,192,73743,1,0,0:0:0:0:
256,192,73902,1,0,0:0:0:0:
256,192,73981,1,8,0:0:0:0:
256,192,74219,1,8,0:0:0:0:
256,192,74298,1,0,0:0:0:0:
256,192,74378,1,8,0:0:0:0:
256,192,74457,1,8,0:0:0:0:
256,192,74616,1,8,0:0:0:0:
256,192,74695,1,0,0:0:0:0:
256,192,74933,1,8,0:0:0:0:
256,192,75171,1,0,0:0:0:0:
256,192,75320,1,8,0:0:0:0:
256,192,75568,1,8,0:0:0:0:
256,192,75648,1,0,0:0:0:0:
256,192,75806,1,0,0:0:0:0:
256,192,75886,1,8,0:0:0:0:
256,192,76124,1,8,0:0:0:0:
256,192,76283,1,8,0:0:0:0:
256,192,76362,1,0,0:0:0:0:
256,192,76441,1,8,0:0:0:0:
256,192,76521,1,8,0:0:0:0:
256,192,76600,1,0,0:0:0:0:
256,192,76838,1,8,0:0:0:0:
256,192,77076,1,0,0:0:0:0:
256,192,77235,1,0,0:0:0:0:
256,192,77314,1,8,0:0:0:0:
256,192,77394,1,8,0:0:0:0:
256,192,77473,1,8,0:0:0:0:
256,192,77552,1,0,0:0:0:0:
256,192,77711,1,0,0:0:0:0:
256,192,77790,1,8,0:0:0:0:
256,192,78029,1,0,0:0:0:0:
256,192,78108,1,0,0:0:0:0:
256,192,78187,1,8,0:0:0:0:
256,192,78267,1,0,0:0:0:0:
256,192,78425,1,8,0:0:0:0:
256,192,78505,1,0,0:0:0:0:
256,192,78743,1,0,0:0:0:0:
256,192,78981,1,8,0:0:0:0:
256,192,79219,1,0,0:0:0:0:
256,192,79378,1,8,0:0:0:0:
256,192,79457,1,0,0:0:0:0:
256,192,79616,1,0,0:0:0:0:
256,192,79695,1,8,0:0:0:0:
256,192,79933,1,8,0:0:0:0:
256,192,80171,1,8,0:0:0:0:
256,192,80330,1,8,0:0:0:0:
256,192,80409,1,0,0:0:0:0:
256,192,80489,1,0,0:0:0:0:
256,192,80568,1,8,0:0:0:0:
256,192,80648,1,0,0:0:0:0:
256,192,80806,1,0,0:0:0:0:
256,192,80886,1,8,0:0:0:0:
256,192,81124,1,8,0:0:0:0:
256,192,81203,1,8,0:0:0:0:
256,192,81283,1,8,0:0:0:0:
256,192,81362,1,0,0:0:0:0:
256,192,81521,1,0,0:0:0:0:
256,192,81600,1,8,0:0:0:0:
256,192,81838,1,0,0:0:0:0:
256,192,82076,1,8,0:0:0:0:
256,192,82235,1,8,0:0:0:0:
256,192,82314,1,0,0:0:0:0:
256,192,82552,1,8,0:0:0:0:
256,192,82790,1,0,0:0:0:0:
256,192,82939,1,8,0:0:0:0:
256,192,83187,1,8,0:0:0:0:
256,192,83267,1,0,0:0:0:0:
256,192,83505,1,8,0:0:0:0:
256,192,83743,1,0,0:0:0:0:
256,192,83981,1,8,0:0:0:0:
256,192,84060,1,8,0:0:0:0:
256,192,84140,1,8,0:0:0:0:
256,192,84219,1,0,0:0:0:0:
256,192,84695,1,8,0:0:0:0:
256,192,85082,1,0,0:0:0:0:
256,192,85648,1,0,0:0:0:0:
256,192,86034,1,8,0:0:0:0:
256,192,86600,1,0,0:0:0:0:
256,192,86987,1,8,0:0:0:0:
256,192,87552,1,8,0:0:0:0:
256,192,88029,1,0,0:0:0:0:
256,192,88505,1,8,0:0:0:0:
256,192,88654,1,0,0:0:0:0:
256,192,88892,1,0,0:0:0:0:
256,192,89457,1,0,0:0:0:0:
256,192,89844,1,8,0:0:0:0:
256,192,90409,1,8,0:0:0:0:
256,192,90796,1,0,0:0:0:0:
256,192,91362,1,8,0:0:0:0:
256,192,91838,1,0,0:0:0:0:
256,192,92701,1,0,0:0:0:0:
256,192,93654,1,0,0:0:0:0:
256,192,94606,1,8,0:0:0:0:
256,192,95558,1,0,0:0:0:0:
256,192,96511,1,8,0:0:0:0:
256,192,97463,1,0,0:0:0:0:
256,192,98415,1,8,0:0:0:0:
256,192,98981,1,8,0:0:0:0:
256,192,99933,12,0,101124,0:0:0:0:
256,192,101362,5,8,0:0:0:0:
256,192,101521,1,8,0:0:0:0:
256,192,101719,1,8,0:0:0:0:
256,192,101838,1,0,0:0:0:0:
256,192,101957,1,8,0:0:0:0:
256,192,102195,1,8,0:0:0:0:
256,192,102433,1,8,0:0:0:0:
256,192,102552,1,0,0:0:0:0:
256,192,102671,1,8,0:0:0:0:
256,192,102790,1,0,0:0:0:0:
256,192,102909,1,8,0:0:0:0:
256,192,103267,1,8,0:0:0:0:
256,192,103425,1,8,0:0:0:0:
256,192,103624,1,8,0:0:0:0:
256,192,103743,1,0,0:0:0:0:
256,192,103862,1,8,0:0:0:0:
256,192,104100,1,8,0:0:0:0:
256,192,104219,1,0,0:0:0:0:
256,192,104338,1,8,0:0:0:0:
256,192,104576,1,8,0:0:0:0:
256,192,104695,1,0,0:0:0:0:
256,192,104933,1,8,0:0:0:0:
256,192,105052,1,0,0:0:0:0:
256,192,105171,1,8,0:0:0:0:
256,192,105330,1,8,0:0:0:0:
256,192,105529,1,8,0:0:0:0:
256,192,105648,1,0,0:0:0:0:
256,192,105767,1,8,0:0:0:0:
256,192,106005,1,8,0:0:0:0:
256,192,106243,1,8,0:0:0:0:
256,192,106362,1,0,0:0:0:0:
256,192,106481,1,8,0:0:0:0:
256,192,106600,1,0,0:0:0:0:
256,192,106719,1,8,0:0:0:0:
256,192,107076,1,8,0:0:0:0:
256,192,107235,1,8,0:0:0:0:
256,192,107433,1,8,0:0:0:0:
256,192,107552,1,0,0:0:0:0:
256,192,107671,1,8,0:0:0:0:
256,192,107909,1,8,0:0:0:0:
256,192,108029,1,0,0:0:0:0:
256,192,108148,1,8,0:0:0:0:
256,192,108386,1,8,0:0:0:0:
256,192,108505,1,0,0:0:0:0:
256,192,108743,1,8,0:0:0:0:
256,192,108862,1,0,0:0:0:0:
256,192,108981,1,8,0:0:0:0:
256,192,109140,1,8,0:0:0:0:
256,192,109338,1,8,0:0:0:0:
256,192,109457,1,0,0:0:0:0:
256,192,109576,1,8,0:0:0:0:
256,192,109814,1,8,0:0:0:0:
256,192,110052,1,8,0:0:0:0:
256,192,110171,1,0,0:0:0:0:
256,192,110290,1,8,0:0:0:0:
256,192,110409,1,0,0:0:0:0:
256,192,110529,1,8,0:0:0:0:
256,192,110886,1,8,0:0:0:0:
256,192,111044,1,8,0:0:0:0:
256,192,111243,1,8,0:0:0:0:
256,192,111362,1,0,0:0:0:0:
256,192,111481,1,8,0:0:0:0:
256,192,111719,1,8,0:0:0:0:
256,192,111838,1,0,0:0:0:0:
256,192,111957,1,8,0:0:0:0:
256,192,112076,1,8,0:0:0:0:
256,192,112195,1,8,0:0:0:0:
256,192,112433,1,0,0:0:0:0:
256,192,112552,1,8,0:0:0:0:
256,192,112671,1,0,0:0:0:0:
256,192,112790,1,8,0:0:0:0:
256,192,112949,1,8,0:0:0:0:
256,192,113148,1,8,0:0:0:0:
256,192,113267,1,0,0:0:0:0:
256,192,113386,1,8,0:0:0:0:
256,192,113624,1,8,0:0:0:0:
256,192,113862,1,8,0:0:0:0:
256,192,113981,1,0,0:0:0:0:
256,192,114100,1,8,0:0:0:0:
256,192,114219,1,0,0:0:0:0:
256,192,114338,1,8,0:0:0:0:
256,192,114695,1,8,0:0:0:0:
256,192,114854,1,8,0:0:0:0:
256,192,115052,1,8,0:0:0:0:
256,192,115171,1,0,0:0:0:0:
256,192,115290,1,8,0:0:0:0:
256,192,115529,1,8,0:0:0:0:
256,192,115648,1,0,0:0:0:0:
256,192,115767,1,8,0:0:0:0:
256,192,116005,1,8,0:0:0:0:
256,192,116124,1,0,0:0:0:0:
256,192,116362,1,8,0:0:0:0:
256,192,116600,1,12,0:0:0:0:
256,192,117076,1,0,0:0:0:0:
256,192,117433,1,8,0:0:0:0:
256,192,117552,1,0,0:0:0:0:
256,192,117790,1,8,0:0:0:0:
256,192,117949,1,0,0:0:0:0:
256,192,118267,1,0,0:0:0:0:
256,192,118505,1,0,0:0:0:0:
256,192,118902,1,8,0:0:0:0:
256,192,118981,1,0,0:0:0:0:
256,192,119338,1,8,0:0:0:0:
256,192,119457,1,0,0:0:0:0:
256,192,119616,1,0,0:0:0:0:
256,192,119695,1,8,0:0:0:0:
256,192,119854,1,0,0:0:0:0:
256,192,120092,1,0,0:0:0:0:
256,192,120171,1,8,0:0:0:0:
256,192,120409,1,0,0:0:0:0:
256,192,120806,1,8,0:0:0:0:
256,192,120886,1,0,0:0:0:0:
256,192,121243,1,8,0:0:0:0:
256,192,121362,1,0,0:0:0:0:
256,192,121600,1,8,0:0:0:0:
256,192,121759,1,0,0:0:0:0:
256,192,122076,1,0,0:0:0:0:
256,192,122314,1,0,0:0:0:0:
256,192,122711,1,8,0:0:0:0:
256,192,122790,1,0,0:0:0:0:
256,192,123148,1,8,0:0:0:0:
256,192,123267,1,0,0:0:0:0:
256,192,123425,1,0,0:0:0:0:
256,192,123505,1,8,0:0:0:0:
256,192,123663,1,0,0:0:0:0:
256,192,123902,1,0,0:0:0:0:
256,192,123981,1,8,0:0:0:0:
256,192,124219,1,0,0:0:0:0:
256,192,124457,1,8,0:0:0:0:
256,192,124616,1,8,0:0:0:0:
256,192,124695,1,0,0:0:0:0:
256,192,124933,1,8,0:0:0:0:
256,192,125052,1,0,0:0:0:0:
256,192,125171,1,0,0:0:0:0:
256,192,125330,1,8,0:0:0:0:
256,192,125568,1,0,0:0:0:0:
256,192,125886,1,0,0:0:0:0:
256,192,126124,1,0,0:0:0:0:
256,192,126362,1,8,0:0:0:0:
256,192,126521,1,8,0:0:0:0:
256,192,126600,1,0,0:0:0:0:
256,192,126838,1,8,0:0:0:0:
256,192,126997,1,8,0:0:0:0:
256,192,127076,1,0,0:0:0:0:
256,192,127235,1,8,0:0:0:0:
256,192,127473,1,0,0:0:0:0:
256,192,127711,1,0,0:0:0:0:
256,192,127790,1,8,0:0:0:0:
256,192,127949,1,8,0:0:0:0:
256,192,128029,1,0,0:0:0:0:
256,192,128267,1,8,0:0:0:0:
256,192,128425,1,8,0:0:0:0:
256,192,128505,1,0,0:0:0:0:
256,192,128743,1,8,0:0:0:0:
256,192,128902,1,8,0:0:0:0:
256,192,128981,1,0,0:0:0:0:
256,192,129140,1,8,0:0:0:0:
256,192,129219,1,8,0:0:0:0:
256,192,129378,1,0,0:0:0:0:
256,192,129695,1,0,0:0:0:0:
256,192,129933,1,0,0:0:0:0:
256,192,130171,1,8,0:0:0:0:
256,192,130330,1,8,0:0:0:0:
256,192,130409,1,0,0:0:0:0:
256,192,130648,1,8,0:0:0:0:
256,192,130727,1,8,0:0:0:0:
256,192,130806,1,8,0:0:0:0:
256,192,130886,1,0,0:0:0:0:
256,192,131044,1,8,0:0:0:0:
256,192,131283,1,0,0:0:0:0:
256,192,131362,1,8,0:0:0:0:
256,192,131600,1,0,0:0:0:0:
256,192,131838,1,12,0:0:0:0:
256,192,132314,1,0,0:0:0:0:
256,192,132433,1,8,0:0:0:0:
256,192,132790,1,0,0:0:0:0:
256,192,132949,1,8,0:0:0:0:
256,192,133029,1,8,0:0:0:0:
256,192,133187,1,0,0:0:0:0:
256,192,133425,1,8,0:0:0:0:
256,192,133505,1,0,0:0:0:0:
256,192,133743,1,0,0:0:0:0:
256,192,133902,1,8,0:0:0:0:
256,192,133981,1,8,0:0:0:0:
256,192,134140,1,8,0:0:0:0:
256,192,134219,1,0,0:0:0:0:
256,192,134378,1,0,0:0:0:0:
256,192,134457,1,8,0:0:0:0:
256,192,134695,1,0,0:0:0:0:
256,192,134854,1,8,0:0:0:0:
256,192,134933,1,8,0:0:0:0:
256,192,135092,1,0,0:0:0:0:
256,192,135330,1,0,0:0:0:0:
256,192,135409,1,8,0:0:0:0:
256,192,135648,1,0,0:0:0:0:
256,192,136124,1,0,0:0:0:0:
256,192,136243,1,8,0:0:0:0:
256,192,136600,1,0,0:0:0:0:
256,192,136759,1,8,0:0:0:0:
256,192,136838,1,8,0:0:0:0:
256,192,136997,1,0,0:0:0:0:
256,192,137314,1,0,0:0:0:0:
256,192,137552,1,0,0:0:0:0:
256,192,137790,1,8,0:0:0:0:
256,192,137949,1,8,0:0:0:0:
256,192,138029,1,0,0:0:0:0:
256,192,138267,1,8,0:0:0:0:
256,192,138425,1,8,0:0:0:0:
256,192,138505,1,0,0:0:0:0:
256,192,138663,1,8,0:0:0:0:
256,192,138902,1,0,0:0:0:0:
256,192,138981,1,8,0:0:0:0:
256,192,139219,1,0,0:0:0:0:
256,192,139378,1,8,0:0:0:0:
256,192,139457,1,0,0:0:0:0:
256,192,139616,1,8,0:0:0:0:
256,192,139854,1,8,0:0:0:0:
256,192,139933,1,0,0:0:0:0:
256,192,140092,1,8,0:0:0:0:
256,192,140290,1,0,0:0:0:0:
256,192,140409,1,0,0:0:0:0:
256,192,140568,1,8,0:0:0:0:
256,192,140648,1,8,0:0:0:0:
256,192,140806,1,0,0:0:0:0:
256,192,141044,1,0,0:0:0:0:
256,192,141124,1,8,0:0:0:0:
256,192,141203,1,8,0:0:0:0:
256,192,141283,1,8,0:0:0:0:
256,192,141362,1,0,0:0:0:0:
256,192,141600,1,8,0:0:0:0:
256,192,141759,1,8,0:0:0:0:
256,192,141838,1,0,0:0:0:0:
256,192,142076,1,8,0:0:0:0:
256,192,142235,1,8,0:0:0:0:
256,192,142314,1,0,0:0:0:0:
256,192,142473,1,8,0:0:0:0:
256,192,142711,1,0,0:0:0:0:
256,192,142790,1,8,0:0:0:0:
256,192,143029,1,0,0:0:0:0:
256,192,143108,1,8,0:0:0:0:
256,192,143187,1,8,0:0:0:0:
256,192,143267,1,0,0:0:0:0:
256,192,143425,1,8,0:0:0:0:
256,192,143663,1,8,0:0:0:0:
256,192,143743,1,0,0:0:0:0:
256,192,143902,1,8,0:0:0:0:
256,192,144140,1,8,0:0:0:0:
256,192,144219,1,0,0:0:0:0:
256,192,144378,1,8,0:0:0:0:
256,192,144457,1,8,0:0:0:0:
256,192,144616,1,0,0:0:0:0:
256,192,144854,1,8,0:0:0:0:
256,192,144933,1,0,0:0:0:0:
256,192,145171,1,0,0:0:0:0:
256,192,145409,1,8,0:0:0:0:
256,192,145568,1,8,0:0:0:0:
256,192,145648,1,0,0:0:0:0:
256,192,145886,1,8,0:0:0:0:
256,192,146044,1,8,0:0:0:0:
256,192,146124,1,0,0:0:0:0:
256,192,146283,1,8,0:0:0:0:
256,192,146521,1,0,0:0:0:0:
256,192,146600,1,8,0:0:0:0:
256,192,146838,1,8,0:0:0:0:
256,192,148029,1,0,0:0:0:0:
256,192,148981,1,12,0:0:0:0:
256,192,149219,1,0,0:0:0:0:
256,192,149457,1,8,0:0:0:0:
256,192,149616,1,0,0:0:0:0:
256,192,149695,1,0,0:0:0:0:
256,192,149854,1,8,0:0:0:0:
256,192,150092,1,0,0:0:0:0:
256,192,150171,1,8,0:0:0:0:
256,192,150409,1,8,0:0:0:0:
256,192,150568,1,0,0:0:0:0:
256,192,150648,1,0,0:0:0:0:
256,192,150806,1,8,0:0:0:0:
256,192,151044,1,0,0:0:0:0:
256,192,151124,1,8,0:0:0:0:
256,192,151362,1,8,0:0:0:0:
256,192,151521,1,0,0:0:0:0:
256,192,151600,1,0,0:0:0:0:
256,192,151759,1,8,0:0:0:0:
256,192,151838,1,0,0:0:0:0:
256,192,151997,1,0,0:0:0:0:
256,192,152076,1,8,0:0:0:0:
256,192,152314,1,8,0:0:0:0:
256,192,152552,1,0,0:0:0:0:
256,192,152790,1,0,0:0:0:0:
256,192,153029,1,8,0:0:0:0:
256,192,153187,1,8,0:0:0:0:
256,192,153267,1,0,0:0:0:0:
256,192,153425,1,0,0:0:0:0:
256,192,153505,1,0,0:0:0:0:
256,192,153584,1,8,0:0:0:0:
256,192,153663,1,8,0:0:0:0:
256,192,153743,1,0,0:0:0:0:
256,192,153902,1,0,0:0:0:0:
256,192,153981,1,8,0:0:0:0:
256,192,154219,1,8,0:0:0:0:
256,192,154378,1,0,0:0:0:0:
256,192,154457,1,0,0:0:0:0:
256,192,154616,1,8,0:0:0:0:
256,192,154854,1,0,0:0:0:0:
256,192,154933,1,8,0:0:0:0:
256,192,155171,1,8,0:0:0:0:
256,192,155330,1,0,0:0:0:0:
256,192,155409,1,0,0:0:0:0:
256,192,155568,1,8,0:0:0:0:
256,192,155648,1,0,0:0:0:0:
256,192,155806,1,0,0:0:0:0:
256,192,155886,1,8,0:0:0:0:
256,192,156044,1,0,0:0:0:0:
256,192,156283,1,0,0:0:0:0:
256,192,156362,1,8,0:0:0:0:
256,192,156600,1,12,0:0:0:0:
256,192,156997,1,0,0:0:0:0:
256,192,157076,1,8,0:0:0:0:
256,192,157235,1,0,0:0:0:0:
256,192,157314,1,0,0:0:0:0:
256,192,157473,1,8,0:0:0:0:
256,192,157711,1,0,0:0:0:0:
256,192,157790,1,8,0:0:0:0:
256,192,158029,1,8,0:0:0:0:
256,192,158187,1,0,0:0:0:0:
256,192,158267,1,0,0:0:0:0:
256,192,158425,1,8,0:0:0:0:
256,192,158505,1,0,0:0:0:0:
256,192,158663,1,0,0:0:0:0:
256,192,158743,1,8,0:0:0:0:
256,192,158981,1,8,0:0:0:0:
256,192,159140,1,0,0:0:0:0:
256,192,159219,1,0,0:0:0:0:
256,192,159378,1,8,0:0:0:0:
256,192,159457,1,0,0:0:0:0:
256,192,159616,1,0,0:0:0:0:
256,192,159695,1,8,0:0:0:0:
256,192,159854,1,8,0:0:0:0:
256,192,160092,1,0,0:0:0:0:
256,192,160171,1,8,0:0:0:0:
256,192,160409,1,0,0:0:0:0:
256,192,160648,1,0,0:0:0:0:
256,192,160806,1,0,0:0:0:0:
256,192,160886,1,8,0:0:0:0:
256,192,161044,1,0,0:0:0:0:
256,192,161124,1,0,0:0:0:0:
256,192,161283,1,8,0:0:0:0:
256,192,161521,1,0,0:0:0:0:
256,192,161600,1,8,0:0:0:0:
256,192,161838,1,8,0:0:0:0:
256,192,161997,1,0,0:0:0:0:
256,192,162076,1,0,0:0:0:0:
256,192,162235,1,8,0:0:0:0:
256,192,162314,1,8,0:0:0:0:
256,192,162552,1,0,0:0:0:0:
256,192,162790,1,8,0:0:0:0:
256,192,163187,1,8,0:0:0:0:
256,192,163267,1,0,0:0:0:0:
256,192,163663,1,0,0:0:0:0:
256,192,163743,1,8,0:0:0:0:
256,192,163981,1,0,0:0:0:0:
256,192,164219,1,12,0:0:0:0:
256,192,164457,1,8,0:0:0:0:
256,192,164616,1,8,0:0:0:0:
256,192,164695,1,0,0:0:0:0:
256,192,164933,1,8,0:0:0:0:
256,192,165171,1,0,0:0:0:0:
256,192,165330,1,0,0:0:0:0:
256,192,165409,1,8,0:0:0:0:
256,192,165568,1,8,0:0:0:0:
256,192,165648,1,0,0:0:0:0:
256,192,165886,1,8,0:0:0:0:
256,192,166124,1,0,0:0:0:0:
256,192,166362,1,8,0:0:0:0:
256,192,166521,1,0,0:0:0:0:
256,192,166600,1,0,0:0:0:0:
256,192,166838,1,8,0:0:0:0:
256,192,167076,1,0,0:0:0:0:
256,192,167235,1,0,0:0:0:0:
256,192,167314,1,8,0:0:0:0:
256,192,167473,1,8,0:0:0:0:
256,192,167552,1,0,0:0:0:0:
256,192,167711,1,0,0:0:0:0:
256,192,167790,1,0,0:0:0:0:
256,192,167949,1,0,0:0:0:0:
256,192,168029,1,8,0:0:0:0:
256,192,168267,1,8,0:0:0:0:
256,192,168425,1,8,0:0:0:0:
256,192,168505,1,0,0:0:0:0:
256,192,168743,1,8,0:0:0:0:
256,192,168981,1,0,0:0:0:0:
256,192,169219,1,8,0:0:0:0:
256,192,169378,1,0,0:0:0:0:
256,192,169457,1,8,0:0:0:0:
256,192,169695,1,8,0:0:0:0:
256,192,169854,1,8,0:0:0:0:
256,192,169933,1,0,0:0:0:0:
256,192,170092,1,8,0:0:0:0:
256,192,170171,1,8,0:0:0:0:
256,192,170330,1,0,0:0:0:0:
256,192,170409,1,0,0:0:0:0:
256,192,170648,1,0,0:0:0:0:
256,192,170806,1,0,0:0:0:0:
256,192,170886,1,8,0:0:0:0:
256,192,170965,1,0,0:0:0:0:
256,192,171044,1,0,0:0:0:0:
256,192,171124,1,8,0:0:0:0:
256,192,171203,1,0,0:0:0:0:
256,192,171283,1,8,0:0:0:0:
256,192,171362,1,0,0:0:0:0:
256,192,171441,1,8,0:0:0:0:
256,192,171521,1,8,0:0:0:0:
256,192,171600,1,0,0:0:0:0:
256,192,171679,1,0,0:0:0:0:
256,192,171759,1,0,0:0:0:0:
256,192,171838,1,8,0:0:0:0:
256,192,172076,1,8,0:0:0:0:
256,192,172235,1,8,0:0:0:0:
256,192,172314,1,0,0:0:0:0:
256,192,172552,1,8,0:0:0:0:
256,192,172790,1,0,0:0:0:0:
256,192,172949,1,0,0:0:0:0:
256,192,173029,1,8,0:0:0:0:
256,192,173187,1,8,0:0:0:0:
256,192,173267,1,0,0:0:0:0:
256,192,173505,1,8,0:0:0:0:
256,192,173743,1,0,0:0:0:0:
256,192,173981,1,8,0:0:0:0:
256,192,174140,1,0,0:0:0:0:
256,192,174219,1,0,0:0:0:0:
256,192,174378,1,0,0:0:0:0:
256,192,174457,1,8,0:0:0:0:
256,192,174616,1,8,0:0:0:0:
256,192,174695,1,0,0:0:0:0:
256,192,174854,1,0,0:0:0:0:
256,192,174933,1,8,0:0:0:0:
256,192,175092,1,8,0:0:0:0:
256,192,175171,1,0,0:0:0:0:
256,192,175409,1,8,0:0:0:0:
256,192,175648,1,0,0:0:0:0:
256,192,175886,1,8,0:0:0:0:
256,192,176044,1,8,0:0:0:0:
256,192,176124,1,0,0:0:0:0:
256,192,176362,1,8,0:0:0:0:
256,192,176521,1,0,0:0:0:0:
256,192,176600,1,8,0:0:0:0:
256,192,176759,1,8,0:0:0:0:
256,192,176838,1,8,0:0:0:0:
256,192,176997,1,8,0:0:0:0:
256,192,177076,1,0,0:0:0:0:
256,192,177314,1,0,0:0:0:0:
256,192,177473,5,8,0:0:0:0:
256,192,177552,1,0,0:0:0:0:
256,192,178029,1,8,0:0:0:0:
256,192,178505,1,0,0:0:0:0:
256,192,178584,1,0,0:0:0:0:
256,192,178663,1,0,0:0:0:0:
256,192,178743,1,8,0:0:0:0:
256,192,178822,1,8,0:0:0:0:
256,192,178902,1,0,0:0:0:0:
256,192,178981,1,8,0:0:0:0:
256,192,179219,1,8,0:0:0:0:
256,192,179457,1,12,0:0:0:0:
256,192,179854,1,8,0:0:0:0:
256,192,179933,1,0,0:0:0:0:
256,192,180171,1,0,0:0:0:0:
256,192,180251,1,8,0:0:0:0:
256,192,180330,1,8,0:0:0:0:
256,192,180409,1,0,0:0:0:0:
256,192,180568,1,0,0:0:0:0:
256,192,180648,1,8,0:0:0:0:
256,192,180886,1,0,0:0:0:0:
256,192,181124,1,0,0:0:0:0:
256,192,181283,1,8,0:0:0:0:
256,192,181362,1,0,0:0:0:0:
256,192,181600,1,8,0:0:0:0:
256,192,181838,1,0,0:0:0:0:
256,192,181997,1,0,0:0:0:0:
256,192,182076,1,8,0:0:0:0:
256,192,182235,1,8,0:0:0:0:
256,192,182314,1,0,0:0:0:0:
256,192,182473,1,8,0:0:0:0:
256,192,182552,1,8,0:0:0:0:
256,192,182711,1,0,0:0:0:0:
256,192,182790,1,8,0:0:0:0:
256,192,183029,1,8,0:0:0:0:
256,192,183108,1,8,0:0:0:0:
256,192,183187,1,8,0:0:0:0:
256,192,183267,1,0,0:0:0:0:
256,192,183425,1,8,0:0:0:0:
256,192,183663,1,8,0:0:0:0:
256,192,183743,1,0,0:0:0:0:
256,192,183981,1,0,0:0:0:0:
256,192,184060,1,8,0:0:0:0:
256,192,184140,1,8,0:0:0:0:
256,192,184219,1,0,0:0:0:0:
256,192,184378,1,0,0:0:0:0:
256,192,184457,1,8,0:0:0:0:
256,192,184616,1,8,0:0:0:0:
256,192,184695,1,0,0:0:0:0:
256,192,184933,1,8,0:0:0:0:
256,192,185092,1,8,0:0:0:0:
256,192,185171,1,0,0:0:0:0:
256,192,185330,1,0,0:0:0:0:
256,192,185409,1,8,0:0:0:0:
256,192,185648,1,0,0:0:0:0:
256,192,185806,1,8,0:0:0:0:
256,192,186044,1,8,0:0:0:0:
256,192,186124,1,0,0:0:0:0:
256,192,186283,1,0,0:0:0:0:
256,192,186362,1,8,0:0:0:0:
256,192,186521,1,8,0:0:0:0:
256,192,186600,1,0,0:0:0:0:
256,192,186838,1,8,0:0:0:0:
256,192,186997,1,8,0:0:0:0:
256,192,187076,1,0,0:0:0:0:
256,192,187235,1,8,0:0:0:0:
256,192,187473,1,8,0:0:0:0:
256,192,187552,1,0,0:0:0:0:
256,192,187711,1,0,0:0:0:0:
256,192,187790,1,8,0:0:0:0:
256,192,187870,1,8,0:0:0:0:
256,192,187949,1,8,0:0:0:0:
256,192,188029,1,0,0:0:0:0:
256,192,188267,1,8,0:0:0:0:
256,192,188425,1,0,0:0:0:0:
256,192,188505,1,0,0:0:0:0:
256,192,188663,1,0,0:0:0:0:
256,192,188743,1,8,0:0:0:0:
256,192,188981,1,0,0:0:0:0:
256,192,189140,1,0,0:0:0:0:
256,192,189219,1,8,0:0:0:0:
256,192,189378,1,8,0:0:0:0:
256,192,189457,1,0,0:0:0:0:
256,192,189695,1,8,0:0:0:0:
256,192,189854,1,8,0:0:0:0:
256,192,189933,1,0,0:0:0:0:
256,192,190092,1,0,0:0:0:0:
256,192,190171,1,8,0:0:0:0:
256,192,190330,1,8,0:0:0:0:
256,192,190409,1,0,0:0:0:0:
256,192,190806,1,12,0:0:0:0:
256,192,191044,1,4,0:0:0:0:
256,192,191283,1,4,0:0:0:0:
256,192,191600,1,12,0:0:0:0:
256,192,191838,1,0,0:0:0:0:
256,192,192076,1,8,0:0:0:0:
256,192,192235,1,8,0:0:0:0:
256,192,192314,1,0,0:0:0:0:
256,192,192473,1,0,0:0:0:0:
256,192,192552,1,8,0:0:0:0:
256,192,192711,1,8,0:0:0:0:
256,192,192790,1,0,0:0:0:0:
256,192,193029,1,8,0:0:0:0:
256,192,193187,1,0,0:0:0:0:
256,192,193267,1,8,0:0:0:0:
256,192,193425,1,8,0:0:0:0:
256,192,193505,1,0,0:0:0:0:
256,192,193663,1,8,0:0:0:0:
256,192,193902,1,0,0:0:0:0:
256,192,193981,1,8,0:0:0:0:
256,192,194140,1,8,0:0:0:0:
256,192,194219,1,0,0:0:0:0:
256,192,194378,1,0,0:0:0:0:
256,192,194457,1,8,0:0:0:0:
256,192,194695,1,4,0:0:0:0:
256,192,194933,1,0,0:0:0:0:
256,192,195092,1,8,0:0:0:0:
256,192,195171,1,0,0:0:0:0:
256,192,195330,1,0,0:0:0:0:
256,192,195409,1,8,0:0:0:0:
256,192,195489,1,8,0:0:0:0:
256,192,195568,1,8,0:0:0:0:
256,192,195648,1,0,0:0:0:0:
256,192,195886,1,8,0:0:0:0:
256,192,196044,1,8,0:0:0:0:
256,192,196124,1,0,0:0:0:0:
256,192,196283,1,0,0:0:0:0:
256,192,196362,1,8,0:0:0:0:
256,192,196521,1,8,0:0:0:0:
256,192,196600,1,0,0:0:0:0:
256,192,196838,1,8,0:0:0:0:
256,192,196997,1,0,0:0:0:0:
256,192,197076,1,8,0:0:0:0:
256,192,197235,1,8,0:0:0:0:
256,192,197314,1,0,0:0:0:0:
256,192,197473,1,8,0:0:0:0:
256,192,197552,1,0,0:0:0:0:
256,192,197711,1,0,0:0:0:0:
256,192,197790,1,0,0:0:0:0:
256,192,197949,1,0,0:0:0:0:
256,192,198029,1,8,0:0:0:0:
256,192,198187,1,8,0:0:0:0:
256,192,198267,1,0,0:0:0:0:
256,192,198346,1,8,0:0:0:0:
256,192,198425,1,8,0:0:0:0:
256,192,198505,1,0,0:0:0:0:
256,192,198584,1,8,0:0:0:0:
256,192,198663,1,8,0:0:0:0:
256,192,198743,1,8,0:0:0:0:
256,192,198822,1,0,0:0:0:0:
256,192,198902,1,8,0:0:0:0:
256,192,198981,1,0,0:0:0:0:
256,192,199140,1,0,0:0:0:0:
256,192,199219,1,8,0:0:0:0:
256,192,199298,1,8,0:0:0:0:
256,192,199378,1,8,0:0:0:0:
256,192,199457,1,0,0:0:0:0:
256,192,199616,1,8,0:0:0:0:
256,192,199695,1,0,0:0:0:0:
256,192,199933,1,0,0:0:0:0:
256,192,200092,1,8,0:0:0:0:
256,192,200171,1,8,0:0:0:0:
256,192,200330,1,8,0:0:0:0:
256,192,200409,1,0,0:0:0:0:
256,192,200568,1,0,0:0:0:0:
256,192,200648,1,8,0:0:0:0:
256,192,200886,1,0,0:0:0:0:
256,192,201044,1,0,0:0:0:0:
256,192,201124,1,8,0:0:0:0:
256,192,201283,1,0,0:0:0:0:
256,192,201362,1,0,0:0:0:0:
256,192,201521,1,8,0:0:0:0:
256,192,201600,1,0,0:0:0:0:
256,192,201759,1,0,0:0:0:0:
256,192,201838,1,8,0:0:0:0:
256,192,201957,1,0,0:0:0:0:
256,192,202076,1,8,0:0:0:0:
256,192,202195,1,0,0:0:0:0:
256,192,202314,1,12,0:0:0:0:
256,192,202552,1,0,0:0:0:0:
256,192,202711,1,8,0:0:0:0:
256,192,202790,1,0,0:0:0:0:
256,192,202949,1,0,0:0:0:0:
256,192,203029,1,8,0:0:0:0:
256,192,203108,1,8,0:0:0:0:
256,192,203187,1,8,0:0:0:0:
256,192,203267,1,0,0:0:0:0:
256,192,203425,1,8,0:0:0:0:
256,192,203505,1,8,0:0:0:0:
256,192,203663,1,0,0:0:0:0:
256,192,203743,1,0,0:0:0:0:
256,192,203902,1,0,0:0:0:0:
256,192,203981,1,8,0:0:0:0:
256,192,204140,1,8,0:0:0:0:
256,192,204219,1,0,0:0:0:0:
256,192,204457,1,0,0:0:0:0:
256,192,204616,1,0,0:0:0:0:
256,192,204695,1,8,0:0:0:0:
256,192,204854,1,0,0:0:0:0:
256,192,204933,1,8,0:0:0:0:
256,192,205092,1,8,0:0:0:0:
256,192,205171,1,0,0:0:0:0:
256,192,205330,1,8,0:0:0:0:
256,192,205409,1,8,0:0:0:0:
256,192,205568,1,0,0:0:0:0:
256,192,205648,1,8,0:0:0:0:
256,192,206044,1,12,0:0:0:0:
256,192,206283,1,0,0:0:0:0:
256,192,206521,1,0,0:0:0:0:
256,192,206838,1,12,0:0:0:0:
256,192,207076,1,0,0:0:0:0:
256,192,207156,1,8,0:0:0:0:
256,192,207235,1,8,0:0:0:0:
256,192,207314,1,8,0:0:0:0:
256,192,207473,1,8,0:0:0:0:
256,192,207552,1,0,0:0:0:0:
256,192,207711,1,0,0:0:0:0:
256,192,207790,1,8,0:0:0:0:
256,192,207949,1,8,0:0:0:0:
256,192,208029,1,0,0:0:0:0:
256,192,208267,1,8,0:0:0:0:
256,192,208425,1,0,0:0:0:0:
256,192,208505,1,0,0:0:0:0:
256,192,208663,1,0,0:0:0:0:
256,192,208743,1,8,0:0:0:0:
256,192,208902,1,8,0:0:0:0:
256,192,208981,1,0,0:0:0:0:
256,192,209140,1,0,0:0:0:0:
256,192,209219,1,8,0:0:0:0:
256,192,209457,1,8,0:0:0:0:
256,192,209616,1,0,0:0:0:0:
256,192,209695,1,8,0:0:0:0:
256,192,209933,5,4,0:0:0:0:
256,192,210171,1,8,0:0:0:0:
256,192,210409,1,0,0:0:0:0:
256,192,210568,1,0,0:0:0:0:
256,192,210648,1,8,0:0:0:0:
256,192,210727,1,0,0:0:0:0:
256,192,210806,1,0,0:0:0:0:
256,192,210886,1,8,0:0:0:0:
256,192,211044,1,0,0:0:0:0:
256,192,211124,1,8,0:0:0:0:
256,192,211283,1,8,0:0:0:0:
256,192,211362,1,0,0:0:0:0:
256,192,211600,1,8,0:0:0:0:
256,192,211759,1,8,0:0:0:0:
256,192,211838,1,0,0:0:0:0:
256,192,212076,1,8,0:0:0:0:
256,192,212314,1,0,0:0:0:0:
256,192,212394,1,0,0:0:0:0:
256,192,212473,1,0,0:0:0:0:
256,192,212552,1,8,0:0:0:0:
256,192,212632,1,0,0:0:0:0:
256,192,212711,1,0,0:0:0:0:
256,192,212790,1,8,0:0:0:0:
256,192,212949,1,0,0:0:0:0:
256,192,213029,1,8,0:0:0:0:
256,192,213108,1,0,0:0:0:0:
256,192,213187,1,0,0:0:0:0:
256,192,213267,1,8,0:0:0:0:
256,192,213425,1,0,0:0:0:0:
256,192,213505,1,8,0:0:0:0:
256,192,213584,1,8,0:0:0:0:
256,192,213663,1,0,0:0:0:0:
256,192,213743,1,8,0:0:0:0:
256,192,213902,1,0,0:0:0:0:
256,192,213981,1,8,0:0:0:0:
256,192,214219,1,0,0:0:0:0:
256,192,214378,1,0,0:0:0:0:
256,192,214457,1,8,0:0:0:0:
256,192,214695,1,0,0:0:0:0:
256,192,214854,1,0,0:0:0:0:
256,192,214933,1,8,0:0:0:0:
256,192,215092,1,0,0:0:0:0:
256,192,215171,1,0,0:0:0:0:
256,192,215290,1,0,0:0:0:0:
256,192,215409,1,8,0:0:0:0:
256,192,215568,1,0,0:0:0:0:
256,192,215648,1,0,0:0:0:0:
256,192,215727,1,8,0:0:0:0:
256,192,215806,1,8,0:0:0:0:
256,192,215886,1,0,0:0:0:0:
256,192,216124,1,8,0:0:0:0:
256,192,216362,1,0,0:0:0:0:
256,192,216521,1,0,0:0:0:0:
256,192,216600,1,8,0:0:0:0:
256,192,216759,1,0,0:0:0:0:
256,192,216838,1,0,0:0:0:0:
256,192,216997,1,8,0:0:0:0:
256,192,217076,1,0,0:0:0:0:
256,192,217314,1,8,0:0:0:0:
256,192,217394,1,0,0:0:0:0:
256,192,217473,1,0,0:0:0:0:
256,192,217552,1,8,0:0:0:0:
256,192,217711,1,0,0:0:0:0:
256,192,217790,1,8,0:0:0:0:
256,192,217949,1,0,0:0:0:0:
256,192,218029,1,0,0:0:0:0:
256,192,218267,1,8,0:0:0:0:
256,192,218425,1,8,0:0:0:0:
256,192,218505,1,0,0:0:0:0:
256,192,218663,1,0,0:0:0:0:
256,192,218743,1,8,0:0:0:0:
256,192,218981,1,0,0:0:0:0:
256,192,219100,1,0,0:0:0:0:
256,192,219159,1,0,0:0:0:0:
256,192,219219,1,8,0:0:0:0:
256,192,219338,1,0,0:0:0:0:
256,192,219457,1,8,0:0:0:0:
256,192,219517,1,0,0:0:0:0:
256,192,219576,1,8,0:0:0:0:
256,192,219636,1,0,0:0:0:0:
256,192,219695,1,8,0:0:0:0:
256,192,219755,1,8,0:0:0:0:
256,192,219814,1,0,0:0:0:0:
256,192,219874,1,0,0:0:0:0:
256,192,219933,1,8,0:0:0:0:
256,192,219993,1,0,0:0:0:0:
256,192,220052,1,0,0:0:0:0:
256,192,220112,1,0,0:0:0:0:
256,192,220171,1,8,0:0:0:0:
256,192,220330,1,8,0:0:0:0:
256,192,220409,1,0,0:0:0:0:
256,192,220648,1,8,0:0:0:0:
256,192,220886,1,0,0:0:0:0:
256,192,221044,1,8,0:0:0:0:
256,192,221124,1,0,0:0:0:0:
256,192,221283,1,0,0:0:0:0:
256,192,221362,1,8,0:0:0:0:
256,192,221600,1,0,0:0:0:0:
256,192,221759,1,8,0:0:0:0:
256,192,221838,1,0,0:0:0:0:
256,192,221997,1,0,0:0:0:0:
256,192,222076,1,8,0:0:0:0:
256,192,222314,1,0,0:0:0:0:
256,192,222473,1,0,0:0:0:0:
256,192,222552,1,8,0:0:0:0:
256,192,222671,1,0,0:0:0:0:
256,192,222790,1,8,0:0:0:0:
256,192,222949,1,0,0:0:0:0:
256,192,223029,1,8,0:0:0:0:
256,192,223148,1,8,0:0:0:0:
256,192,223267,1,0,0:0:0:0:
256,192,223505,1,8,0:0:0:0:
256,192,223743,1,0,0:0:0:0:
256,192,223981,1,8,0:0:0:0:
256,192,224219,1,0,0:0:0:0:
256,192,224457,1,8,0:0:0:0:
256,192,224576,1,0,0:0:0:0:
256,192,224695,1,0,0:0:0:0:
256,192,224933,1,8,0:0:0:0:
256,192,225171,5,0,0:0:0:0:
256,192,225558,1,0,0:0:0:0:
256,192,225886,1,8,0:0:0:0:
256,192,227939,1,0,0:0:0:0:
256,192,228505,1,8,0:0:0:0:
256,192,228981,1,0,0:0:0:0:
256,192,229368,1,0,0:0:0:0:
256,192,229695,1,8,0:0:0:0:
256,192,231749,1,0,0:0:0:0:
256,192,232314,1,8,0:0:0:0:
256,192,232790,1,8,0:0:0:0:
256,192,233177,1,8,0:0:0:0:
256,192,233505,1,8,0:0:0:0:
256,192,235558,1,8,0:0:0:0:
256,192,236124,1,0,0:0:0:0:
256,192,236600,1,8,0:0:0:0:
256,192,236987,1,0,0:0:0:0:
256,192,237314,1,0,0:0:0:0:
256,192,237552,12,0,240409,0:0:0:0:
