osu file format v14

[General]
AudioFilename: .mp3
AudioLeadIn: 1000
PreviewTime: 63954
Countdown: 0
SampleSet: Soft
StackLeniency: 0.7
Mode: 0
LetterboxInBreaks: 0
WidescreenStoryboard: 0

[Editor]
DistanceSpacing: 0.9
BeatDivisor: 4
GridSize: 4
TimelineZoom: 2.899999

[Metadata]
Title:Sennen no kotowari
TitleUnicode:千年ノ理
Artist:Nekomata Master
ArtistUnicode:猫叉Master
Creator:Crimmi
Version:HARD
Source:REFLEC BEAT groovin!! Upper
Tags:tasuke912 Lumael Frey LucaSA4 佐藤直之 Naoyuki Sato ZUN Team Shanghai Alice WORLD ELECTRONICA BeatStream jubeat prop SOUND VOLTEX III GRAVITY WARS SDVX Pop'n Music Lapistoria ラピストリア 猫叉 BEMANI×東方Project Ultimate MasterPieces REITAISAI 2015 Touhou Tōhō Toho Eiyashou 永夜抄 ~ Imperishable Night. Gensokyo Millennium 千年幻想郷 ~ History of the Moon Eirin Yagokoro
BeatmapID:709648
BeatmapSetID:317050

[Difficulty]
HPDrainRate:7.6
CircleSize:4
OverallDifficulty:8
ApproachRate:8.4
SliderMultiplier:1.7
SliderTickRate:2

[Events]
//Background and Video events
0,0,"Taiko BG.jpg",0,0
//Break Periods
//Storyboard Layer 0 (Background)
//Storyboard Layer 1 (Fail)
//Storyboard Layer 2 (Pass)
//Storyboard Layer 3 (Foreground)
//Storyboard Layer 4 (Overlay)
//Storyboard Sound Samples

[TimingPoints]
1577,392.310710082385,4,2,0,50,1,0
14130,-100,4,1,0,75,0,0
51792,-100,4,2,0,50,0,0
64346,-100,4,1,0,75,0,0
76900,-100,4,1,0,75,0,1
100439,-100,4,2,0,100,0,0
117700,-100,4,2,0,5,0,0

[Colours]
Combo1 : 192,192,192
Combo2 : 255,128,128
Combo3 : 91,173,255
Combo4 : 255,255,255

[HitObjects]
56,192,1577,6,0,P|84:132|188:136,1,170,4|0,0:0|0:0,0:0:0:0:
136,196,2165,1,0,0:0:0:0:
216,208,2361,2,0,B|204:268|140:278|140:278|161:351,1,170,8|0,0:0|0:0,0:0:0:0:
248,328,2950,1,0,0:0:0:0:
328,328,3146,5,0,0:0:0:0:
408,328,3342,1,0,0:0:0:0:
288,264,3538,1,2,0:0:0:0:
368,264,3734,1,0,0:0:0:0:
328,200,3930,2,0,P|368:188|424:216,2,85,8|0|0,0:0|0:0|0:0,0:0:0:0:
288,264,4519,1,0,0:0:0:0:
248,200,4715,6,0,B|190:240|225:309|225:309|160:336,1,170,0|2,0:0|0:0,0:0:0:0:
56,280,5303,1,0,0:0:0:0:
112,352,5500,1,8,0:0:0:0:
152,288,5696,1,0,0:0:0:0:
144,264,5794,1,0,0:0:0:0:
136,240,5892,1,0,0:0:0:0:
40,200,6088,1,2,0:0:0:0:
80,136,6284,6,0,P|112:96|168:88,1,85
168,88,6578,1,0,0:0:0:0:
192,88,6677,2,0,P|232:48|248:-8,2,85,2|0|8,0:0|0:0|0:0,0:0:0:0:
256,136,7265,1,0,0:0:0:0:
328,112,7461,1,0,0:0:0:0:
401,83,7657,1,0,0:0:0:0:
328,112,7853,6,0,B|368:176|440:152|440:152|384:272,1,255,4|0,0:0|0:0,0:0:0:0:
376,288,8540,1,0,0:0:0:0:
368,312,8638,1,10,0:0:0:0:
344,384,8834,1,0,0:0:0:0:
296,328,9030,1,2,0:0:0:0:
248,264,9227,1,0,0:0:0:0:
232,192,9423,5,0,0:0:0:0:
232,192,9619,1,0,0:0:0:0:
112,40,9815,1,2,0:0:0:0:
112,40,10011,1,0,0:0:0:0:
40,216,10207,1,2,0:0:0:0:
40,216,10403,1,0,0:0:0:0:
168,360,10600,1,2,0:0:0:0:
168,360,10796,1,0,0:0:0:0:
280,192,10992,5,0,0:0:0:0:
280,192,11188,1,0,0:0:0:0:
400,40,11384,1,2,0:0:0:0:
400,40,11580,1,0,0:0:0:0:
472,216,11777,1,0,0:0:0:0:
472,216,11973,1,0,0:0:0:0:
344,360,12169,1,2,0:0:0:0:
344,360,12365,1,0,0:0:0:0:
252,348,12561,6,0,L|212:332,3,42.5,4|0|0|0,0:0|0:0|0:0|0:0,0:0:0:0:
176,304,12954,2,0,L|144:240,3,42.5,4|0|0|0,0:0|0:0|0:0|0:0,0:0:0:0:
140,224,13346,1,6,0:0:0:0:
125,185,13444,1,0,0:0:0:0:
140,146,13542,1,2,0:0:0:0:
177,128,13640,1,0,0:0:0:0:
217,140,13738,1,8,0:0:0:0:
280,304,14130,6,0,B|328:344|328:344|416:352,1,127.5,4|0,0:0|0:0,0:0:0:0:
432,336,14523,1,8,0:0:0:0:
464,264,14719,1,0,0:0:0:0:
408,216,14915,1,0,0:0:0:0:
408,216,15013,1,0,0:0:0:0:
344,168,15209,1,0,0:0:0:0:
344,168,15307,1,8,0:0:0:0:
280,120,15504,1,0,0:0:0:0:
272,40,15700,6,0,P|224:64|216:160,1,127.5
208,168,16092,2,0,P|176:224|144:240,1,85,8|0,0:0|0:0,0:0:0:0:
96,272,16484,1,0,0:0:0:0:
96,272,16582,1,0,0:0:0:0:
160,320,16779,1,0,0:0:0:0:
160,320,16877,1,8,0:0:0:0:
224,360,17073,1,0,0:0:0:0:
224,280,17269,6,0,B|288:288|304:344|304:344|336:328,1,127.5
360,336,17661,2,0,B|400:296|400:296|424:240,1,85,8|0,0:0|0:0,0:0:0:0:
416,192,18054,1,0,0:0:0:0:
424,192,18152,1,0,0:0:0:0:
416,112,18348,1,0,0:0:0:0:
408,112,18446,1,8,0:0:0:0:
416,32,18642,1,0,0:0:0:0:
344,64,18838,6,0,P|240:96|224:144,1,127.5
200,112,19230,2,0,P|240:160|240:208,1,85,8|0,0:0|0:0,0:0:0:0:
200,240,19623,2,0,B|256:272|304:224|304:224|336:296,1,170,0|8,0:0|0:0,0:0:0:0:
344,352,20211,1,0,0:0:0:0:
264,352,20407,6,0,P|192:352|128:368,1,127.5,4|0,0:0|0:0,0:0:0:0:
96,368,20800,1,2,0:0:0:0:
64,296,20996,1,0,0:0:0:0:
24,232,21192,1,2,0:0:0:0:
96,208,21388,1,0,0:0:0:0:
128,184,21486,1,0,0:0:0:0:
168,184,21584,1,2,0:0:0:0:
240,160,21781,1,0,0:0:0:0:
184,104,21977,6,2,P|248:80|320:160,1,170
240,160,22565,1,0,0:0:0:0:
292,216,22761,2,0,P|240:240|200:224,1,85,2|0,0:0|0:0,0:0:0:0:
164,292,23154,1,0,0:0:0:0:
144,368,23350,1,0,0:0:0:0:
144,368,23448,1,0,0:0:0:0:
144,368,23546,2,0,P|94:329|113:231,1,170,2|0,0:0|0:0,0:0:0:0:
48,188,24134,1,0,0:0:0:0:
48,188,24232,1,0,0:0:0:0:
48,188,24331,2,0,P|104:156|182:223,1,170,2|2,0:0|0:0,0:0:0:0:
256,196,24919,1,0,0:0:0:0:
328,172,25115,5,2,0:0:0:0:
396,208,25311,1,0,0:0:0:0:
296,184,25507,1,8,0:0:0:0:
331,285,25704,1,0,0:0:0:0:
331,285,25900,2,0,L|216:312,1,85,2|0,0:0|0:0,0:0:0:0:
168,304,26292,2,0,B|176:248|176:248|168:184,1,85,2|0,0:0|0:0,0:0:0:0:
96,216,26684,6,0,P|124:154|224:160,1,170,6|8,0:0|0:0,0:0:0:0:
256,88,27273,1,0,0:0:0:0:
304,24,27469,1,0,0:0:0:0:
376,56,27665,1,2,0:0:0:0:
328,120,27861,1,8,0:0:0:0:
400,152,28057,1,2,0:0:0:0:
448,88,28254,6,0,P|478:159|432:224,1,127.5
432,232,28646,2,0,B|384:256|384:256|312:256,1,85,8|0,0:0|0:0,0:0:0:0:
276,256,29038,2,0,B|224:256|224:256|184:272,1,85,0|2,0:0|0:0,0:0:0:0:
156,276,29332,2,0,L|160:324,2,42.5,0|8|0,0:0|0:0|0:0,0:0:0:0:
116,276,29627,2,0,P|72:256|64:216,1,85,2|0,0:0|0:0,0:0:0:0:
4,172,30019,5,0,0:0:0:0:
4,172,30117,2,0,P|76:148|128:184,1,127.5
196,176,30607,1,8,0:0:0:0:
271,167,30804,2,2,P|258:127|224:104,1,85
225,233,31196,6,0,P|306:240|348:172,1,170,2|0,0:0|0:0,0:0:0:0:
348,96,31784,1,2,0:0:0:0:
412,136,31981,1,0,0:0:0:0:
476,180,32177,1,2,0:0:0:0:
408,216,32373,1,0,0:0:0:0:
344,176,32569,1,2,0:0:0:0:
376,104,32765,1,0,0:0:0:0:
376,104,32961,6,0,P|304:96|256:168,1,127.5,4|0,0:0|0:0,0:0:0:0:
248,168,33354,1,8,0:0:0:0:
216,240,33550,1,0,0:0:0:0:
184,312,33746,2,0,B|248:328|280:280|280:280|344:312,1,170,0|8,0:0|0:0,0:0:0:0:
376,240,34334,1,0,0:0:0:0:
448,264,34531,6,0,P|448:208|352:168,1,170,0|8,0:0|0:0,0:0:0:0:
376,240,35119,1,0,0:0:0:0:
376,240,35315,2,0,L|488:112,1,170
432,56,35904,1,0,0:0:0:0:
368,16,36100,6,0,P|352:72|400:128,1,127.5
360,152,36492,2,0,B|304:168|304:168|256:216,1,85,2|0,0:0|0:0,0:0:0:0:
224,232,36884,1,2,0:0:0:0:
160,272,37081,1,0,0:0:0:0:
160,192,37277,1,2,0:0:0:0:
96,232,37473,1,0,0:0:0:0:
16,232,37669,6,0,B|32:184|32:184|80:144,1,85,2|2,0:0|0:0,0:0:0:0:
92,144,37963,2,0,P|60:96|116:40,1,127.5,0|2,0:0|0:0,0:0:0:0:
200,104,38454,1,2,0:0:0:0:
112,256,38650,1,0,0:0:0:0:
224,216,38846,1,2,0:0:0:0:
112,256,39042,1,0,0:0:0:0:
36,268,39238,5,4,0:0:0:0:
52,306,39336,1,0,0:0:0:0:
86,331,39434,1,0,0:0:0:0:
128,334,39532,1,0,0:0:0:0:
165,315,39630,1,8,0:0:0:0:
187,279,39728,1,0,0:0:0:0:
187,237,39826,1,0,0:0:0:0:
166,202,39924,1,0,0:0:0:0:
141,171,40023,6,0,L|117:113,1,42.5
198,80,40219,2,0,L|207:122,1,42.5
288,120,40415,2,0,L|298:66,1,42.5,2|0,0:0|0:0,0:0:0:0:
376,128,40611,2,0,L|367:169,1,42.5
432,208,40808,5,0,0:0:0:0:
403,239,40906,1,0,0:0:0:0:
364,253,41004,1,0,0:0:0:0:
322,246,41102,1,0,0:0:0:0:
289,221,41200,1,8,0:0:0:0:
272,182,41298,1,0,0:0:0:0:
275,140,41396,1,0,0:0:0:0:
298,105,41494,1,0,0:0:0:0:
320,76,41592,6,0,L|356:28,1,42.5
432,48,41788,2,0,L|488:88,1,42.5
496,148,41985,2,0,L|460:204,1,42.5,2|0,0:0|0:0,0:0:0:0:
380,192,42181,2,0,L|332:156,1,42.5
372,92,42377,5,0,0:0:0:0:
330,86,42475,1,0,0:0:0:0:
291,103,42573,1,0,0:0:0:0:
266,136,42671,1,0,0:0:0:0:
261,178,42769,1,8,0:0:0:0:
277,217,42867,1,0,0:0:0:0:
311,242,42965,1,0,0:0:0:0:
352,247,43063,1,0,0:0:0:0:
384,224,43161,6,0,L|356:152,1,42.5
217,159,43358,2,0,L|232:200,1,42.5
276,276,43554,2,0,L|315:259,1,42.5,2|0,0:0|0:0,0:0:0:0:
333,106,43750,2,0,L|295:126,1,42.5
216,160,43946,5,0,0:0:0:0:
197,122,44044,1,0,0:0:0:0:
199,80,44142,1,0,0:0:0:0:
223,46,44240,1,0,0:0:0:0:
260,32,44338,1,8,0:0:0:0:
300,32,44436,1,0,0:0:0:0:
334,55,44534,1,0,0:0:0:0:
352,93,44632,1,0,0:0:0:0:
356,132,44731,6,0,L|288:180,1,42.5,2|0,0:0|0:0,0:0:0:0:
400,256,44927,2,0,L|456:216,1,42.5
464,164,45123,2,0,L|432:124,1,42.5,2|0,0:0|0:0,0:0:0:0:
296,232,45319,2,0,L|328:280,1,42.5
328,304,45515,6,0,P|256:320|216:280,1,127.5,4|0,0:0|0:0,0:0:0:0:
196,256,45908,2,0,L|148:172,1,85,8|0,0:0|0:0,0:0:0:0:
116,116,46300,1,0,0:0:0:0:
176,72,46496,2,0,B|224:144,1,85,0|2,0:0|0:0,0:0:0:0:
296,168,46888,1,0,0:0:0:0:
296,168,47085,6,0,B|352:208|320:272|320:272|344:312,1,127.5
328,320,47477,2,0,P|400:336|448:320,1,85,8|0,0:0|0:0,0:0:0:0:
472,376,47869,2,0,P|480:304|416:264,1,127.5
448,232,48261,2,0,P|456:176|440:120,1,85,8|0,0:0|0:0,0:0:0:0:
448,72,48654,6,0,P|400:88|376:176,1,127.5,4|0,0:0|0:0,0:0:0:0:
368,192,49046,2,0,P|320:184|240:200,1,127.5,4|0,0:0|0:0,0:0:0:0:
208,184,49438,2,0,P|240:232|240:320,1,127.5,4|0,0:0|0:0,0:0:0:0:
248,336,49831,1,4,0:0:0:0:
176,320,50027,1,0,0:0:0:0:
104,304,50223,5,2,0:0:0:0:
72,280,50321,1,0,0:0:0:0:
56,248,50419,1,0,0:0:0:0:
56,200,50517,1,0,0:0:0:0:
80,168,50615,2,0,L|88:112,3,42.5,2|0|0|0,0:0|0:0|0:0|0:0,0:0:0:0:
96,88,51008,5,2,0:0:0:0:
128,72,51106,1,0,0:0:0:0:
168,64,51204,1,0,0:0:0:0:
208,72,51302,1,0,0:0:0:0:
240,88,51400,2,0,P|312:120|344:112,1,85,2|0,0:0|0:0,0:0:0:0:
368,64,51792,6,0,P|392:112|316:200,1,170,4|0,0:0|0:0,0:0:0:0:
256,224,52381,1,0,0:0:0:0:
184,252,52577,1,8,0:0:0:0:
184,252,52675,1,0,0:0:0:0:
184,252,52773,1,0,0:0:0:0:
112,280,52969,1,2,0:0:0:0:
40,304,53165,1,0,0:0:0:0:
51,230,53362,6,0,B|81:197|120:200|120:200|153:100,1,170,0|2,0:0|0:0,0:0:0:0:
168,40,53950,1,0,0:0:0:0:
232,84,54146,1,8,0:0:0:0:
296,40,54342,1,0,0:0:0:0:
360,84,54538,1,2,0:0:0:0:
424,40,54735,1,0,0:0:0:0:
488,88,54931,6,0,P|464:168|496:256,1,170,4|0,0:0|0:0,0:0:0:0:
432,296,55519,1,0,0:0:0:0:
368,344,55715,1,8,0:0:0:0:
368,344,55813,1,0,0:0:0:0:
368,344,55912,1,0,0:0:0:0:
304,384,56108,2,0,P|292:348|328:272,1,85,2|0,0:0|0:0,0:0:0:0:
320,232,56500,5,0,0:0:0:0:
264,88,56696,1,0,0:0:0:0:
368,128,56892,1,2,0:0:0:0:
224,192,57088,1,0,0:0:0:0:
264,88,57285,2,0,L|184:56,2,85,8|0|2,0:0|0:0|0:0,0:0:0:0:
368,128,57873,1,0,0:0:0:0:
424,72,58069,6,0,P|448:120|368:208,1,170,4|0,0:0|0:0,0:0:0:0:
368,128,58658,1,0,0:0:0:0:
368,128,58756,1,0,0:0:0:0:
368,128,58854,1,8,0:0:0:0:
304,176,59050,1,0,0:0:0:0:
240,224,59246,1,2,0:0:0:0:
232,144,59442,1,0,0:0:0:0:
288,96,59638,5,0,0:0:0:0:
216,72,59835,1,0,0:0:0:0:
216,72,59933,1,0,0:0:0:0:
216,72,60031,1,2,0:0:0:0:
160,120,60227,1,0,0:0:0:0:
88,96,60423,2,0,P|96:168|184:192,1,170,8|2,0:0|0:0,0:0:0:0:
160,120,61012,1,0,0:0:0:0:
88,96,61208,6,0,P|48:144|96:248,1,170,0|2,0:0|0:0,0:0:0:0:
152,224,61796,1,0,0:0:0:0:
160,296,61992,2,0,P|208:272|220:212,2,85,8|0|2,0:0|0:0|0:0,0:0:0:0:
168,368,62581,1,0,0:0:0:0:
240,352,62777,6,0,L|344:320,1,85
392,304,63169,1,2,0:0:0:0:
496,256,63365,1,0,0:0:0:0:
352,208,63562,1,8,0:0:0:0:
448,152,63758,1,0,0:0:0:0:
392,304,63954,1,2,0:0:0:0:
448,152,64346,6,0,P|400:112|272:128,1,170,4|8,0:0|0:0,0:0:0:0:
240,168,64935,1,0,0:0:0:0:
216,96,65131,2,0,P|172:129|201:234,1,170,0|8,0:0|0:0,0:0:0:0:
240,168,65719,1,0,0:0:0:0:
240,168,65915,6,0,L|56:168,1,170,0|8,0:0|0:0,0:0:0:0:
40,96,66504,1,0,0:0:0:0:
226,218,66700,1,0,0:0:0:0:
72,240,66896,1,0,0:0:0:0:
226,218,67092,1,8,0:0:0:0:
40,96,67289,1,0,0:0:0:0:
176,64,67485,6,0,B|240:96|312:56|312:56|352:96,1,170,0|8,0:0|0:0,0:0:0:0:
376,136,68073,1,0,0:0:0:0:
448,168,68269,1,0,0:0:0:0:
472,248,68465,1,0,0:0:0:0:
464,248,68564,1,0,0:0:0:0:
456,248,68662,1,8,0:0:0:0:
400,300,68858,1,0,0:0:0:0:
328,280,69054,6,0,P|332:336|368:368,2,85,0|0|8,0:0|0:0|0:0,0:0:0:0:
256,252,69642,1,0,0:0:0:0:
216,244,69740,1,0,0:0:0:0:
176,236,69839,2,0,P|208:196|256:180,2,85,0|0|8,0:0|0:0|0:0,0:0:0:0:
100,220,70427,1,0,0:0:0:0:
24,204,70623,5,4,0:0:0:0:
56,288,70819,1,0,0:0:0:0:
56,288,71015,1,8,0:0:0:0:
120,232,71212,1,0,0:0:0:0:
120,232,71310,1,0,0:0:0:0:
120,232,71408,1,4,0:0:0:0:
176,176,71604,1,0,0:0:0:0:
104,152,71800,1,8,0:0:0:0:
32,128,71996,5,0,0:0:0:0:
32,128,72094,1,0,0:0:0:0:
32,128,72192,1,4,0:0:0:0:
88,76,72389,1,0,0:0:0:0:
88,76,72487,1,0,0:0:0:0:
88,76,72585,1,8,0:0:0:0:
88,76,72781,1,0,0:0:0:0:
88,76,72977,2,0,P|144:44|200:44,1,85
240,32,73369,1,8,0:0:0:0:
240,112,73566,1,0,0:0:0:0:
304,72,73762,5,4,0:0:0:0:
316,111,73860,1,0,0:0:0:0:
307,152,73958,1,0,0:0:0:0:
278,182,74056,1,0,0:0:0:0:
237,193,74154,1,0,0:0:0:0:
197,182,74252,1,0,0:0:0:0:
168,151,74350,1,0,0:0:0:0:
160,110,74448,1,0,0:0:0:0:
168,72,74546,2,0,L|104:48,3,42.5,4|0|0|0,0:0|0:0|0:0|0:0,0:0:0:0:
88,48,74939,2,0,L|48:104,3,42.5
256,192,75331,12,0,76508,0:0:0:0:
40,312,76900,5,4,0:0:0:0:
88,248,77096,1,0,0:0:0:0:
88,248,77194,1,0,0:0:0:0:
88,248,77292,1,2,0:0:0:0:
136,312,77489,1,0,0:0:0:0:
136,312,77587,1,0,0:0:0:0:
136,312,77685,1,2,0:0:0:0:
176,248,77881,1,2,0:0:0:0:
128,184,78077,1,8,0:0:0:0:
176,120,78273,1,0,0:0:0:0:
200,152,78371,1,0,0:0:0:0:
224,184,78469,6,2,B|272:232|240:288|240:288|256:328,1,127.5
248,336,78862,2,0,P|312:360|352:352,1,85,8|2,0:0|0:0,0:0:0:0:
336,280,79254,2,2,B|412:308|404:376|404:376|464:328,1,170,2|8,0:0|0:0,0:0:0:0:
488,288,79842,1,0,0:0:0:0:
488,288,79941,1,0,0:0:0:0:
488,288,80039,2,0,P|496:232|384:152,1,170,2|2,0:0|0:0,0:0:0:0:
344,160,80627,5,0,0:0:0:0:
264,160,80823,1,2,0:0:0:0:
304,96,81019,1,2,0:0:0:0:
224,96,81216,1,8,0:0:0:0:
176,160,81412,1,0,0:0:0:0:
264,160,81608,2,2,P|240:216|136:240,1,170,2|0,0:0|0:0,0:0:0:0:
176,160,82196,1,0,0:0:0:0:
224,160,82294,1,0,0:0:0:0:
264,160,82393,2,2,P|288:216|392:240,1,170
352,160,82981,1,0,0:0:0:0:
302,95,83177,6,0,P|257:84|217:100,1,85,4|0,0:0|0:0,0:0:0:0:
184,112,83471,1,0,0:0:0:0:
152,128,83569,1,2,0:0:0:0:
88,168,83766,1,0,0:0:0:0:
144,216,83962,1,2,0:0:0:0:
208,176,84158,1,2,0:0:0:0:
216,256,84354,2,0,P|272:224|288:176,1,85,8|0,0:0|0:0,0:0:0:0:
272,128,84746,6,2,P|328:144|352:248,1,170,2|0,0:0|0:0,0:0:0:0:
440,232,85335,1,2,0:0:0:0:
408,304,85531,2,2,P|368:376|286:372,1,170,2|8,0:0|0:0,0:0:0:0:
328,304,86119,1,0,0:0:0:0:
248,304,86316,6,0,B|248:256|296:232|296:232|256:152,1,170,0|2,0:0|0:0,0:0:0:0:
216,104,86904,1,2,0:0:0:0:
168,48,87100,1,10,0:0:0:0:
128,112,87296,1,0,0:0:0:0:
128,112,87394,1,0,0:0:0:0:
128,112,87493,1,10,0:0:0:0:
176,168,87689,1,0,0:0:0:0:
100,186,87885,6,0,P|134:233|242:208,2,170,2|2|2,0:0|0:0|0:0,0:0:0:0:
176,168,88866,2,0,L|240:104,1,85,8|0,0:0|0:0,0:0:0:0:
288,48,89258,1,0,0:0:0:0:
368,48,89454,6,0,B|368:104|312:128|312:128|320:200,1,170,4|2,0:0|0:0,0:0:0:0:
328,272,90043,1,0,0:0:0:0:
344,344,90239,1,2,0:0:0:0:
272,320,90435,1,2,0:0:0:0:
256,248,90631,1,0,0:0:0:0:
200,304,90827,1,2,0:0:0:0:
224,376,91023,6,2,P|162:375|136:266,1,170,2|8,0:0|0:0,0:0:0:0:
200,304,91612,1,2,0:0:0:0:
176,232,91808,2,2,P|213:177|323:201,1,170,2|8,0:0|0:0,0:0:0:0:
256,248,92396,1,0,0:0:0:0:
256,248,92495,1,0,0:0:0:0:
256,248,92593,6,0,L|304:352,1,85,2|0,0:0|0:0,0:0:0:0:
360,360,92985,2,2,P|368:304|344:272,1,85,2|0,0:0|0:0,0:0:0:0:
376,208,93377,1,2,0:0:0:0:
400,136,93573,1,2,0:0:0:0:
424,64,93770,1,8,0:0:0:0:
448,0,93966,1,2,0:0:0:0:
424,64,94162,6,2,P|361:67|328:168,1,170,2|0,0:0|0:0,0:0:0:0:
256,192,94750,1,0,0:0:0:0:
256,192,94848,1,0,0:0:0:0:
256,192,94946,2,2,P|163:196|101:150,1,170,2|0,0:0|0:0,0:0:0:0:
24,152,95535,1,0,0:0:0:0:
56,80,95731,6,0,P|96:120|56:224,1,170,4|8,0:0|0:0,0:0:0:0:
16,272,96320,1,0,0:0:0:0:
16,272,96418,1,0,0:0:0:0:
16,272,96516,2,0,P|72:296|120:272,1,85,2|0,0:0|0:0,0:0:0:0:
160,256,96908,1,0,0:0:0:0:
232,224,97104,1,2,0:0:0:0:
168,176,97300,6,2,P|248:144|288:280,1,255,2|0,0:0|0:0,0:0:0:0:
232,224,98085,1,2,0:0:0:0:
232,304,98281,1,0,0:0:0:0:
232,304,98477,2,0,L|128:336,1,85
112,264,98870,6,0,P|96:208|72:176,1,85,4|0,0:0|0:0,0:0:0:0:
152,96,99262,2,0,P|208:112|272:104,1,85,6|2,0:0|0:0,0:0:0:0:
288,216,99654,2,0,P|248:240|216:280,1,85,6|2,0:0|0:0,0:0:0:0:
176,328,100046,1,8,0:0:0:0:
256,336,100243,1,0,0:0:0:0:
336,344,100439,6,0,L|376:320,3,42.5,4|2|0|2,0:0|0:0|0:0|0:0,0:0:0:0:
408,304,100831,2,0,B|432:264|432:264|432:200,1,85,8|0,0:0|0:0,0:0:0:0:
432,184,101125,2,0,L|360:144,3,42.5,2|0|2|0,0:0|0:0|0:0|0:0,0:0:0:0:
328,120,101616,1,2,0:0:0:0:
296,136,101714,1,0,0:0:0:0:
264,160,101812,1,2,0:0:0:0:
232,136,101910,1,0,0:0:0:0:
200,120,102008,6,0,P|136:112|96:144,1,85,2|0,0:0|0:0,0:0:0:0:
160,184,102400,1,8,0:0:0:0:
120,248,102597,1,2,0:0:0:0:
104,280,102695,1,0,0:0:0:0:
80,312,102793,2,0,P|128:328|176:296,1,85,2|0,0:0|0:0,0:0:0:0:
216,272,103185,1,2,0:0:0:0:
216,272,103283,1,0,0:0:0:0:
216,272,103381,1,2,0:0:0:0:
275,320,103577,6,0,L|248:368,4,42.5,2|0|2|0|10,0:0|0:0|0:0|0:0|0:0,0:0:0:0:
336,280,104166,1,2,0:0:0:0:
360,248,104264,1,0,0:0:0:0:
376,216,104362,1,2,0:0:0:0:
392,184,104460,1,0,0:0:0:0:
408,152,104558,1,2,0:0:0:0:
360,96,104754,5,8,0:0:0:0:
328,112,104852,1,0,0:0:0:0:
296,128,104950,1,2,0:0:0:0:
264,144,105048,1,0,0:0:0:0:
232,160,105147,6,0,L|160:192,4,42.5,6|0|2|0|10,0:0|0:0|0:0|0:0|0:0,0:0:0:0:
184,259,105735,1,2,0:0:0:0:
143,247,105833,1,0,0:0:0:0:
115,217,105931,1,0,0:0:0:0:
106,175,106029,1,2,0:0:0:0:
121,136,106127,1,2,0:0:0:0:
56,88,106323,5,2,0:0:0:0:
80,64,106422,1,0,0:0:0:0:
120,56,106520,1,2,0:0:0:0:
160,64,106618,1,0,0:0:0:0:
192,88,106716,1,10,0:0:0:0:
256,40,106912,5,2,0:0:0:0:
277,76,107010,1,0,0:0:0:0:
277,118,107108,1,2,0:0:0:0:
256,154,107206,1,0,0:0:0:0:
220,174,107304,1,2,0:0:0:0:
240,248,107500,5,2,0:0:0:0:
272,232,107598,1,0,0:0:0:0:
304,216,107697,1,2,0:0:0:0:
336,200,107795,1,0,0:0:0:0:
368,184,107893,1,0,0:0:0:0:
400,168,107991,1,0,0:0:0:0:
432,152,108089,1,2,0:0:0:0:
424,72,108285,5,0,0:0:0:0:
424,72,108383,1,2,0:0:0:0:
424,72,108481,1,0,0:0:0:0:
424,72,108579,1,2,0:0:0:0:
424,72,108677,1,0,0:0:0:0:
432,152,108873,1,2,0:0:0:0:
360,120,109070,1,2,0:0:0:0:
336,96,109168,1,0,0:0:0:0:
312,64,109266,1,2,0:0:0:0:
240,88,109462,1,8,0:0:0:0:
160,104,109658,1,0,0:0:0:0:
76,114,109854,5,4,0:0:0:0:
16,352,110148,1,2,0:0:0:0:
256,272,110443,1,4,0:0:0:0:
76,114,110737,1,2,0:0:0:0:
256,272,111031,6,0,P|296:216|360:208,2,127.5,4|2|4,0:0|0:0|0:0,0:0:0:0:
76,114,111914,1,2,0:0:0:0:
312,32,112208,1,4,0:0:0:0:
256,272,112502,1,2,0:0:0:0:
312,32,112797,1,4,0:0:0:0:
144,184,113091,6,0,P|176:136|136:48,2,127.5,2|4|2,0:0|0:0|0:0,0:0:0:0:
312,32,113974,1,4,0:0:0:0:
416,232,114268,1,2,0:0:0:0:
144,184,114562,6,0,P|136:232|88:288,1,85,4|0,0:0|0:0,0:0:0:0:
56,200,114954,1,2,0:0:0:0:
96,120,115150,2,0,P|144:104|224:192,1,170,2|0,0:0|0:0,0:0:0:0:
256,270,115739,1,0,0:0:0:0:
256,270,115837,1,0,0:0:0:0:
256,270,115935,1,2,0:0:0:0:
256,270,116033,1,0,0:0:0:0:
256,192,116131,12,2,117700,0:0:0:0:
