osu file format v14

[General]
AudioFilename: audio.mp3
AudioLeadIn: 0
PreviewTime: 76495
Countdown: 1
SampleSet: Soft
StackLeniency: 0.5
Mode: 0
LetterboxInBreaks: 0
WidescreenStoryboard: 1

[Editor]
Bookmarks: 10591,14122,26675,39228,51781,64334,76887,116116,122392
DistanceSpacing: 1.5
BeatDivisor: 6
GridSize: 32
TimelineZoom: 1.5

[Metadata]
Title:Sennen no Kotowari
TitleUnicode:千年ノ理
Artist:Nekomata Master
ArtistUnicode:猫叉Master
Creator:celerih
Version:Real's EXHAUST
Source:SOUND VOLTEX III GRAVITY WARS
Tags:MrSergio Realazy WORLD ELECTRONICA BEMANI BMS 東方永夜抄 ~ Imperishable Night. 東方Project Touhou Project Ultimate MasterPieces ZUN 千年幻想郷 Gensokyo Millennium ~ History of the Moon 八意 永琳 Yagokoro Eirin Final A Boss sdvx beatmania IIDX 22 PENDUAL BeatStream jubeat prop pop'n music ラピストリア REFLEC BEAT groovin'!! Upper Ultima Fox
BeatmapID:1438536
BeatmapSetID:647730

[Difficulty]
HPDrainRate:5
CircleSize:3.8
OverallDifficulty:7.5
ApproachRate:8.4
SliderMultiplier:1.58
SliderTickRate:1

[Events]
//Background and Video events
0,0,"Sennen Eirin BG 2.jpg",0,0
//Break Periods
//Storyboard Layer 0 (Background)
//Storyboard Layer 1 (Fail)
//Storyboard Layer 2 (Pass)
//Storyboard Layer 3 (Foreground)
//Storyboard Sound Samples

[TimingPoints]
-15,392.28506047728,4,2,1,60,1,0
1554,-133.333333333333,4,2,1,60,0,0
10576,-100,4,2,1,60,0,0
13714,-166.666666666667,4,2,1,60,0,0
14107,-100,4,2,1,60,0,0
51766,-133.333333333333,4,2,1,60,0,0
64319,-111.111111111111,4,2,1,60,0,0
76872,-90.9090909090909,4,2,1,60,0,1
100409,-100,4,2,1,60,0,0

[Colours]
Combo1 : 109,78,120
Combo2 : 229,163,173
Combo3 : 165,99,99
Combo4 : 176,148,186

[HitObjects]
352,277,1554,6,0,P|367:219|354:162,1,118.500004520416,6|0,0:0|0:0,0:0:0:0:
300,84,2142,1,0,0:0:0:0:
182,145,2338,2,0,L|122:149,1,59.2500022602082,8|0,0:0|0:0,0:0:0:0:
116,153,2632,1,0,0:0:0:0:
109,157,2730,2,0,L|49:161,1,59.2500022602082,0|0,0:0|0:0,0:0:0:0:
122,276,3123,2,0,B|182:252|238:276|238:276|294:300|354:276,1,237.000009040833,0|8,0:0|0:0,0:0:0:0:
352,276,4103,1,0,0:0:0:0:
319,187,4300,1,0,0:0:0:0:
379,114,4496,1,0,0:0:0:0:
259,260,4692,6,0,P|201:262|156:225,1,118.500004520416,2|0,0:0|0:0,0:0:0:0:
228,182,5280,1,0,0:0:0:0:
101,288,5476,2,0,L|103:347,1,59.2500022602082,8|0,0:0|0:0,0:0:0:0:
108,354,5771,1,0,0:0:0:0:
112,361,5869,2,0,L|171:357,1,59.2500022602082,0|0,0:0|0:0,0:0:0:0:
265,285,6261,2,0,P|323:280|369:316,2,118.500004520416,0|0|8,0:0|0:0|0:0,0:0:0:0:
265,285,7438,1,0,0:0:0:0:
182,331,7634,1,0,0:0:0:0:
47,246,7830,6,0,L|53:216,3,29.6250011301041,6|0|0|0,0:0|0:0|0:0|0:0,0:0:0:0:
117,168,8222,2,0,L|114:137,3,29.6250011301041,0|0|0|0,0:0|0:0|0:0|0:0,0:0:0:0:
60,80,8615,5,8,0:0:0:0:
85,64,8713,1,0,0:0:0:0:
114,59,8811,1,0,0:0:0:0:
144,64,8909,1,0,0:0:0:0:
168,79,9007,1,0,0:0:0:0:
193,95,9105,1,0,0:0:0:0:
222,100,9203,1,0,0:0:0:0:
250,95,9301,1,0,0:0:0:0:
276,79,9399,6,0,L|304:72,3,29.6250011301041,2|0|0|0,0:0|0:0|0:0|0:0,0:0:0:0:
379,103,9792,2,0,L|406:114,3,29.6250011301041,0|0|0|0,0:0|0:0|0:0|0:0,0:0:0:0:
485,94,10184,5,8,0:0:0:0:
479,129,10282,1,0,0:0:0:0:
473,164,10380,1,0,0:0:0:0:
468,199,10478,1,0,0:0:0:0:
462,235,10576,5,2,0:0:0:0:
443,363,10772,1,0,0:0:0:0:
341,282,10968,1,2,0:0:0:0:
341,282,11361,5,2,0:0:0:0:
218,329,11557,1,0,0:0:0:0:
238,201,11753,2,0,L|245:162,3,39.5,8|8|2|2,0:0|0:0|0:0|0:0,0:0:0:0:
294,103,12145,5,2,0:0:0:0:
173,132,12341,1,0,0:0:0:0:
316,196,12538,2,0,L|394:192,1,79,2|0,0:0|0:0,0:0:0:0:
258,278,12930,2,0,L|179:274,1,79,2|0,0:0|0:0,0:0:0:0:
394,356,13322,5,8,0:0:0:0:
475,226,13518,1,2,0:0:0:0:
475,226,13616,1,0,0:0:0:0:
475,226,13714,2,0,P|480:191|473:156,1,71.0999978302003,8|0,0:0|0:0,0:0:0:0:
463,134,14107,5,6,0:0:0:0:
347,201,14303,1,2,0:3:0:0:
347,201,14401,1,0,0:0:0:0:
347,201,14499,2,0,B|309:211|309:211|270:201,1,79,8|2,0:0|0:3,0:0:0:0:
314,89,14891,2,0,L|309:128,2,39.5,2|0|2,0:0|0:0|0:3,0:0:0:0:
201,14,15284,1,8,0:0:0:0:
216,131,15480,1,2,0:3:0:0:
83,94,15676,5,2,0:0:0:0:
17,193,15872,1,2,0:3:0:0:
17,193,15970,1,0,0:0:0:0:
16,193,16068,2,0,P|11:231|22:269,1,79,8|2,0:0|0:3,0:0:0:0:
138,221,16460,2,0,L|99:225,2,39.5,2|0|2,0:0|0:0|0:3,0:0:0:0:
205,332,16853,2,0,L|166:336,2,39.5,8|0|2,0:0|0:0|0:3,0:0:0:0:
271,220,17245,5,2,0:0:0:0:
362,299,17441,1,2,0:3:0:0:
362,299,17539,1,0,0:0:0:0:
362,299,17637,2,0,L|440:298,1,79,8|2,0:0|0:3,0:0:0:0:
499,190,18030,2,0,P|500:209|498:229,2,39.5,2|0|2,0:0|0:0|0:3,0:0:0:0:
414,66,18422,1,8,0:0:0:0:
331,150,18618,1,2,0:3:0:0:
216,54,18814,5,2,0:0:0:0:
135,139,19010,1,2,0:3:0:0:
135,139,19108,1,0,0:0:0:0:
135,139,19206,2,0,L|155:215,1,79,8|2,0:0|0:3,0:0:0:0:
186,329,19599,2,0,L|241:273,1,79,2|2,0:0|0:3,0:0:0:0:
326,189,19991,2,0,L|249:168,1,79,8|2,0:0|0:3,0:0:0:0:
353,297,20383,5,6,0:0:0:0:
249,280,20579,1,2,0:3:0:0:
249,280,20678,1,0,0:0:0:0:
249,280,20776,2,0,B|210:271|210:271|172:280,1,79,8|2,0:0|0:3,0:0:0:0:
84,360,21168,2,0,L|122:349,2,39.5,2|0|2,0:0|0:0|0:3,0:0:0:0:
4,237,21560,1,8,0:0:0:0:
83,149,21756,1,2,0:3:0:0:
172,279,21952,5,2,0:0:0:0:
256,198,22149,2,0,L|254:158,2,39.5,2|0|8,0:3|0:0|0:0,0:0:0:0:
344,277,22541,1,2,0:3:0:0:
344,277,22639,1,0,0:0:0:0:
344,277,22737,1,2,0:0:0:0:
340,190,22933,1,2,0:3:0:0:
423,317,23129,1,8,0:0:0:0:
271,324,23325,1,2,0:3:0:0:
417,230,23522,6,0,L|421:111,1,118.5,2|0,0:0|0:0,0:0:0:0:
439,77,23914,2,0,P|400:83|362:73,1,79,8|2,0:0|0:3,0:0:0:0:
252,29,24306,1,2,0:0:0:0:
252,29,24404,1,0,0:0:0:0:
252,29,24502,1,2,0:3:0:0:
284,174,24698,1,8,0:0:0:0:
175,130,24895,1,2,0:3:0:0:
175,130,24993,1,0,0:0:0:0:
175,130,25091,5,2,0:0:0:0:
257,262,25287,1,2,0:3:0:0:
257,262,25385,1,0,0:0:0:0:
257,262,25483,2,0,P|296:269|333:256,1,79,8|2,0:0|0:3,0:0:0:0:
479,192,25875,2,0,P|440:185|403:198,1,79,2|2,0:0|0:3,0:0:0:0:
461,368,26268,2,0,B|450:284|450:284|430:311,1,118.5,8|0,0:0|0:0,0:0:0:0:
415,328,26660,6,0,P|378:341|339:335,1,79,6|2,0:0|0:3,0:0:0:0:
319,323,26954,1,0,0:0:0:0:
298,310,27052,1,8,0:0:0:0:
212,228,27248,2,0,L|180:253,2,39.5,2|0|2,0:3|0:0|0:0,0:0:0:0:
266,122,27641,1,2,0:3:0:0:
148,129,27837,1,8,0:0:0:0:
212,228,28033,1,2,0:3:0:0:
206,74,28229,6,0,P|173:52|134:49,1,79,2|2,0:0|0:3,0:0:0:0:
112,58,28523,1,0,0:0:0:0:
93,72,28621,1,8,0:0:0:0:
37,180,28817,2,0,L|-1:190,2,39.5,2|0|2,0:3|0:0|0:0,0:0:0:0:
126,262,29210,2,0,L|166:258,1,39.5,2|0,0:3|0:0,0:0:0:0:
243,301,29406,1,8,0:0:0:0:
243,301,29504,1,0,0:0:0:0:
243,301,29602,1,2,0:3:0:0:
327,187,29798,6,0,P|339:149|332:110,1,79,2|2,0:0|0:3,0:0:0:0:
319,90,30092,1,0,0:0:0:0:
303,72,30190,1,8,0:0:0:0:
214,152,30387,2,0,L|253:146,2,39.5,2|0|2,0:3|0:0|0:0,0:0:0:0:
116,85,30779,1,2,0:3:0:0:
125,203,30975,1,8,0:0:0:0:
116,85,31171,1,2,0:3:0:0:
8,228,31367,6,0,P|46:236|84:227,1,79,2|2,0:0|0:3,0:0:0:0:
105,215,31662,1,0,0:0:0:0:
125,203,31760,2,0,L|203:202,1,79,8|2,0:0|0:3,0:0:0:0:
173,311,32152,2,0,L|240:270,1,79,2|2,0:0|0:3,0:0:0:0:
268,380,32544,2,0,L|306:311,1,79,8|2,0:0|0:3,0:0:0:0:
368,157,32936,6,0,P|361:196|374:233,1,79,6|2,0:0|0:3,0:0:0:0:
387,253,33231,1,0,0:0:0:0:
399,273,33329,2,0,L|399:352,1,79,8|2,0:0|0:3,0:0:0:0:
489,231,33721,2,0,L|489:152,1,79,2|2,0:0|0:3,0:0:0:0:
331,86,34113,2,0,B|368:77|368:77|407:87,1,79,8|2,0:0|0:3,0:0:0:0:
374,233,34506,2,0,B|337:242|337:242|297:231,1,79,2|2,0:0|0:3,0:0:0:0:
275,223,34800,1,0,0:0:0:0:
252,215,34898,1,8,0:0:0:0:
134,156,35094,5,2,0:3:0:0:
154,273,35290,1,2,0:0:0:0:
134,156,35486,1,2,0:3:0:0:
42,231,35682,1,8,0:0:0:0:
42,231,35781,1,0,0:0:0:0:
42,231,35879,1,2,0:3:0:0:
134,74,36075,5,2,0:0:0:0:
240,148,36271,1,2,0:3:0:0:
240,148,36369,1,0,0:0:0:0:
240,148,36467,2,0,L|318:146,1,79,8|2,0:0|0:3,0:0:0:0:
421,88,36859,2,0,P|432:50|425:11,1,79,2|2,0:0|0:3,0:0:0:0:
318,146,37252,2,0,P|307:183|314:222,1,79,8|2,0:0|0:3,0:0:0:0:
327,242,37546,1,0,0:0:0:0:
339,262,37644,5,2,0:0:0:0:
444,351,37840,1,2,0:3:0:0:
288,337,38036,5,8,0:0:0:0:
453,358,38232,1,2,0:3:0:0:
414,211,38428,5,2,0:0:0:0:
370,347,38625,1,2,0:3:0:0:
327,242,38821,5,8,0:0:0:0:
375,358,39017,1,2,0:3:0:0:
343,151,39213,6,0,L|347:111,3,39.5,6|0|2|0,0:0|0:0|0:3|0:0,0:0:0:0:
414,211,39605,2,0,L|446:234,3,39.5,8|0|2|0,0:0|0:0|0:3|0:0,0:0:0:0:
327,242,39998,6,0,L|290:258,3,39.5,2|0|2|0,0:0|0:0|0:3|0:0,0:0:0:0:
238,318,40390,1,8,0:0:0:0:
223,292,40488,1,0,0:0:0:0:
199,275,40586,1,2,0:3:0:0:
170,270,40684,1,0,0:0:0:0:
141,276,40782,6,0,L|102:286,3,39.5,2|0|2|0,0:0|0:0|0:3|0:0,0:0:0:0:
50,339,41174,1,8,0:0:0:0:
53,309,41273,1,0,0:0:0:0:
57,280,41371,1,2,0:3:0:0:
61,250,41469,1,0,0:0:0:0:
65,221,41567,5,2,0:0:0:0:
72,182,41665,1,0,0:0:0:0:
62,144,41763,1,2,0:3:0:0:
38,113,41861,1,0,0:0:0:0:
4,95,41959,5,8,0:0:0:0:
42,103,42057,1,0,0:0:0:0:
80,95,42155,1,2,0:3:0:0:
112,71,42253,1,0,0:0:0:0:
131,37,42351,6,0,L|138:-1,3,39.5,2|0|2|0,0:0|0:0|0:3|0:0,0:0:0:0:
194,89,42744,2,0,L|210:53,3,39.5,8|0|2|0,0:0|0:0|0:3|0:0,0:0:0:0:
241,154,43136,6,0,L|265:123,3,39.5,2|0|2|0,0:0|0:0|0:3|0:0,0:0:0:0:
317,68,43528,1,8,0:0:0:0:
341,87,43626,1,0,0:0:0:0:
369,96,43724,1,2,0:3:0:0:
398,96,43822,1,0,0:0:0:0:
426,86,43920,6,0,L|462:70,3,39.5,2|0|2|0,0:0|0:0|0:3|0:0,0:0:0:0:
507,140,44313,2,0,L|470:155,3,39.5,8|0|2|0,0:0|0:0|0:3|0:0,0:0:0:0:
415,218,44705,5,2,0:0:0:0:
386,209,44803,1,0,0:0:0:0:
358,200,44901,1,2,0:3:0:0:
330,191,44999,1,0,0:0:0:0:
302,182,45097,5,8,0:0:0:0:
265,196,45195,1,0,0:0:0:0:
228,210,45293,1,2,0:3:0:0:
191,224,45391,1,0,0:0:0:0:
155,238,45490,6,0,L|146:276,3,39.5,6|0|2|0,0:0|0:0|0:3|0:0,0:0:0:0:
88,193,45882,2,0,L|79:231,3,39.5,8|0|2|0,0:0|0:0|0:3|0:0,0:0:0:0:
21,148,46274,6,0,L|12:186,3,39.5,2|0|2|0,0:0|0:0|0:3|0:0,0:0:0:0:
92,112,46666,1,8,0:0:0:0:
119,125,46764,1,0,0:0:0:0:
148,129,46863,1,2,0:3:0:0:
177,122,46961,1,0,0:0:0:0:
202,106,47059,6,0,L|237:88,3,39.5,2|0|2|0,0:0|0:0|0:3|0:0,0:0:0:0:
286,30,47451,1,8,0:0:0:0:
280,58,47549,1,0,0:0:0:0:
283,88,47647,1,2,0:3:0:0:
297,114,47745,1,0,0:0:0:0:
319,134,47843,6,0,L|345:162,3,39.5,2|0|2|0,0:0|0:0|0:3|0:0,0:0:0:0:
413,193,48236,1,8,0:0:0:0:
384,196,48334,1,0,0:0:0:0:
357,207,48432,1,2,0:3:0:0:
335,226,48530,1,0,0:0:0:0:
321,254,48628,6,0,L|318:293,3,39.5,2|0|2|0,0:0|0:0|0:3|0:0,0:0:0:0:
242,325,49020,2,0,L|239:285,3,39.5,8|0|2|0,0:0|0:0|0:3|0:0,0:0:0:0:
163,254,49412,6,0,L|160:293,3,39.5,2|0|2|0,0:0|0:0|0:3|0:0,0:0:0:0:
84,325,49805,1,8,0:0:0:0:
82,295,49903,1,0,0:0:0:0:
80,265,50001,1,2,0:3:0:0:
78,236,50099,1,0,0:0:0:0:
74,205,50197,5,2,0:0:0:0:
110,188,50295,1,0,0:0:0:0:
135,158,50393,1,2,0:3:0:0:
144,120,50491,1,0,0:0:0:0:
136,81,50589,5,8,0:0:0:0:
170,105,50687,1,0,0:0:0:0:
211,111,50785,1,2,0:3:0:0:
253,99,50883,1,0,0:0:0:0:
285,70,50982,5,2,0:0:0:0:
291,112,51080,1,0,0:0:0:0:
298,160,51178,1,2,0:3:0:0:
288,207,51276,1,0,0:0:0:0:
263,247,51374,5,8,0:0:0:0:
306,215,51472,1,0,0:0:0:0:
345,213,51570,2,0,L|384:212,1,39.5,0|0,0:0|0:0,0:0:0:0:
415,286,51766,6,0,L|237:289,1,177.750006780625,6|0,0:0|0:0,0:0:0:0:
96,351,52551,1,8,0:0:0:0:
133,270,52747,2,0,L|162:269,2,29.6250011301041,0|0|0,0:0|0:0|0:0,0:0:0:0:
84,196,53139,1,0,0:0:0:0:
127,118,53335,2,0,P|229:96|237:200,1,237.000009040833,0|8,0:0|0:0,0:0:0:0:
236,200,54316,1,0,0:0:0:0:
306,146,54512,1,0,0:0:0:0:
390,173,54708,1,0,0:0:0:0:
417,257,54904,6,0,P|374:331|289:342,1,177.750006780625,2|0,0:0|0:0,0:0:0:0:
169,257,55689,1,8,0:0:0:0:
95,307,55885,2,0,L|75:308,3,19.7500007534027
23,236,56277,1,0,0:0:0:0:
87,172,56474,2,0,P|113:119|106:61,2,118.500004520416,0|2|8,0:0|0:0|0:0,0:0:0:0:
87,172,57650,1,0,0:0:0:0:
157,118,57847,1,0,0:0:0:0:
288,187,58043,6,0,P|345:199|392:166,1,118.500004520416,6|0,0:0|0:0,0:0:0:0:
397,77,58631,2,0,L|393:57,3,19.7500007534027,0|0|0|8,0:0|0:0|0:0|0:0,0:0:0:0:
462,122,59023,1,0,0:0:0:0:
506,37,59220,1,0,0:0:0:0:
462,122,59416,1,0,0:0:0:0:
506,207,59612,5,2,0:0:0:0:
430,264,59808,2,0,L|435:305,2,29.6250011301041,0|0|0,0:0|0:0|0:0,0:0:0:0:
366,193,60200,1,2,0:0:0:0:
252,288,60396,1,8,0:0:0:0:
252,288,60789,1,0,0:0:0:0:
180,236,60985,1,0,0:0:0:0:
105,327,61181,5,2,0:0:0:0:
105,327,61573,1,2,0:0:0:0:
23,290,61769,1,0,0:0:0:0:
65,180,61966,1,8,0:0:0:0:
153,168,62162,2,0,P|144:139|124:117,2,59.2500022602082,0|2|0,0:0|0:0|0:0,0:0:0:0:
169,255,62750,6,0,P|186:311|224:355,2,118.500004520416,2|2|8,0:0|0:0|0:0,0:0:0:0:
169,255,63731,1,0,0:0:0:0:
226,186,63927,2,0,P|267:172|311:178,1,88.8750033903123,2|0,0:0|0:0,0:0:0:0:
337,190,64319,6,0,L|337:118,1,71.0999978302003,6|0,0:0|0:0,0:0:0:0:
440,86,64712,2,0,L|439:157,1,71.0999978302003,2|0,0:0|0:0,0:0:0:0:
489,290,65104,1,10,0:0:0:0:
398,346,65300,1,0,0:0:0:0:
398,346,65398,1,0,0:0:0:0:
398,346,65496,2,0,L|326:344,1,71.0999978302003,2|0,0:0|0:0,0:0:0:0:
224,315,65888,6,0,P|217:280|227:246,1,71.0999978302003,2|0,0:0|0:0,0:0:0:0:
282,154,66281,2,0,P|291:121|285:85,1,71.0999978302003,2|0,0:0|0:0,0:0:0:0:
139,169,66673,2,0,P|174:162|208:172,1,71.0999978302003,10|0,0:0|0:0,0:0:0:0:
300,228,67065,1,0,3:0:0:0:
375,152,67261,1,0,0:0:0:0:
478,249,67458,6,0,P|485:284|479:319,1,71.0999978302003,2|0,0:0|0:0,0:0:0:0:
394,383,67850,2,0,L|292:379,1,71.0999978302003,2|0,0:0|0:0,0:0:0:0:
186,340,68242,1,10,0:0:0:0:
257,260,68438,2,0,L|253:237,3,23.6999992767334,0|0|0|2,0:0|0:0|0:0|0:0,0:0:0:0:
180,157,68831,1,0,0:0:0:0:
111,239,69027,6,0,L|39:236,1,71.0999978302003,2|0,0:0|0:0,0:0:0:0:
1,139,69419,2,0,L|72:141,1,71.0999978302003,2|0,0:0|0:0,0:0:0:0:
196,175,69811,2,0,P|210:142|210:107,1,71.0999978302003,10|0,0:0|0:0,0:0:0:0:
192,1,70204,1,2,0:0:0:0:
285,52,70400,1,0,0:0:0:0:
142,56,70596,6,0,L|70:57,1,71.0999978302003,6|0,0:0|0:0,0:0:0:0:
133,142,70988,1,0,0:0:0:0:
166,128,71086,1,0,0:0:0:0:
201,132,71184,1,0,0:0:0:0:
229,153,71282,1,0,0:0:0:0:
243,185,71380,6,0,L|249:256,1,71.0999978302003,8|0,0:0|0:0,0:0:0:0:
331,324,71773,1,8,0:0:0:0:
333,289,71871,1,0,0:0:0:0:
336,254,71969,1,0,0:0:0:0:
339,218,72067,1,0,0:0:0:0:
342,183,72165,6,0,P|344:147|335:113,1,71.0999978302003,10|0,0:0|0:0,0:0:0:0:
255,37,72557,1,8,0:0:0:0:
289,48,72655,1,0,0:0:0:0:
322,60,72753,1,0,0:0:0:0:
356,48,72851,1,0,0:0:0:0:
390,37,72950,6,0,L|461:34,1,71.0999978302003,8|0,0:0|0:0,0:0:0:0:
512,127,73342,1,0,0:0:0:0:
461,34,73538,1,0,0:0:0:0:
408,126,73734,5,2,0:0:0:0:
408,126,74126,1,8,0:0:0:0:
357,219,74323,1,0,0:0:0:0:
304,127,74519,5,2,0:0:0:0:
210,179,74715,2,0,P|175:184|141:174,2,71.0999978302003,0|8|0,0:0|0:0|0:0,0:0:0:0:
304,127,75303,5,2,0:0:0:0:
260,6,75499,1,0,0:0:0:0:
215,143,75696,5,2,0:0:0:0:
256,21,75892,1,0,0:0:0:0:
296,157,76088,5,2,0:0:0:0:
252,36,76284,1,2,0:0:0:0:
128,99,76480,1,8,0:0:0:0:
117,133,76578,1,0,0:0:0:0:
118,168,76676,1,2,0:0:0:0:
132,201,76774,1,0,0:0:0:0:
156,227,76872,6,0,P|173:288|152:349,1,130.350003977966,12|0,0:1|0:0,0:0:0:0:
134,379,77265,2,0,L|220:375,1,86.9000026519776,8|2,0:0|0:3,0:0:0:0:
349,352,77657,1,2,0:0:0:0:
263,253,77853,1,2,0:3:0:0:
263,253,77951,1,0,0:0:0:0:
263,253,78049,2,0,P|251:211|261:169,1,86.9000026519776,8|2,0:0|0:3,0:0:0:0:
351,74,78442,6,0,P|309:86|267:77,1,86.9000026519776,2|2,0:0|0:3,0:0:0:0:
252,69,78736,1,0,0:0:0:0:
236,60,78834,1,8,0:0:0:0:
115,109,79030,1,2,0:3:0:0:
115,109,79226,2,0,L|116:201,1,86.9000026519776,2|2,0:0|0:3,0:0:0:0:
59,313,79618,1,8,0:0:0:0:
198,320,79815,1,2,0:3:0:0:
198,320,79913,1,0,0:0:0:0:
197,320,80011,6,0,P|260:306|319:331,1,130.350003977966,2|0,0:0|0:0,0:0:0:0:
347,352,80403,2,0,P|341:309|353:267,1,86.9000026519776,8|2,0:0|0:3,0:0:0:0:
458,191,80795,1,2,0:0:0:0:
442,320,80991,1,2,0:3:0:0:
442,320,81089,1,0,0:0:0:0:
442,320,81188,1,8,0:0:0:0:
333,248,81384,1,2,0:3:0:0:
220,313,81580,6,0,P|138:294|105:217,1,173.800005303955,2|8,0:0|0:0,0:0:0:0:
205,136,82168,1,2,0:3:0:0:
205,136,82364,2,0,L|198:222,1,86.9000026519776,2|2,0:0|0:3,0:0:0:0:
115,121,82757,2,0,L|109:35,1,86.9000026519776,8|0,0:0|0:0,0:0:0:0:
43,264,83149,6,0,P|96:228|160:230,1,130.350003977966,12|0,0:1|0:0,0:0:0:0:
189,245,83541,2,0,P|231:258|272:246,1,86.9000026519776,8|2,0:0|0:3,0:0:0:0:
353,140,83934,1,2,0:0:0:0:
232,89,84130,1,2,0:3:0:0:
232,89,84228,1,0,0:0:0:0:
232,89,84326,2,0,L|231:180,1,86.9000026519776,8|2,0:0|0:3,0:0:0:0:
231,306,84718,6,0,B|270:327|270:327|314:317,1,86.9000026519776,2|2,0:0|0:3,0:0:0:0:
328,313,85012,1,0,0:0:0:0:
344,308,85110,1,8,0:0:0:0:
503,241,85307,1,2,0:3:0:0:
503,241,85503,2,0,P|513:283|506:326,1,86.9000026519776,2|2,0:0|0:3,0:0:0:0:
401,193,85895,1,8,0:0:0:0:
382,154,85993,1,0,0:0:0:0:
382,111,86091,1,2,0:3:0:0:
403,73,86189,1,0,0:0:0:0:
438,49,86287,6,0,L|351:49,1,86.9000026519776,2|2,0:0|0:3,0:0:0:0:
335,56,86581,1,0,0:0:0:0:
319,62,86679,1,8,0:0:0:0:
211,137,86876,1,2,0:3:0:0:
302,229,87072,2,0,L|294:142,1,86.9000026519776,2|2,0:0|0:3,0:0:0:0:
197,55,87464,2,0,L|198:27,3,28.9666675506592,8|0|0|2,0:0|0:0|0:0|0:3,0:0:0:0:
71,58,87856,6,0,P|56:99|61:142,1,86.9000026519776,2|2,0:0|0:3,0:0:0:0:
73,165,88151,1,0,0:0:0:0:
81,189,88249,2,0,P|86:231|71:272,1,86.9000026519776,8|2,0:0|0:3,0:0:0:0:
3,383,88641,2,0,L|89:378,1,86.9000026519776,2|2,0:0|0:3,0:0:0:0:
114,369,88935,1,0,0:0:0:0:
137,357,89033,2,0,L|223:352,1,86.9000026519776,8|0,0:0|0:0,0:0:0:0:
388,287,89425,6,0,P|325:279|293:225,1,130.350003977966,12|0,0:1|0:0,0:0:0:0:
293,190,89818,2,0,P|259:216|216:222,1,86.9000026519776,8|2,0:0|0:3,0:0:0:0:
91,183,90210,1,2,0:0:0:0:
168,78,90406,1,2,0:3:0:0:
168,78,90504,1,0,0:0:0:0:
168,78,90602,2,0,L|165:164,1,86.9000026519776,8|2,0:0|0:3,0:0:0:0:
182,293,90995,6,0,P|224:303|264:288,1,86.9000026519776,2|2,0:0|0:3,0:0:0:0:
285,272,91289,1,0,0:0:0:0:
302,252,91387,1,8,0:0:0:0:
385,152,91583,1,2,0:3:0:0:
385,152,91779,2,0,L|471:152,1,86.9000026519776,2|2,0:0|0:3,0:0:0:0:
380,246,92171,1,8,0:0:0:0:
283,157,92368,1,2,0:3:0:0:
283,157,92466,1,0,0:0:0:0:
282,157,92564,6,0,P|291:93|259:38,1,130.350003977966,2|0,0:0|0:0,0:0:0:0:
227,23,92956,2,0,L|140:27,1,86.9000026519776,8|2,0:0|0:3,0:0:0:0:
12,53,93348,1,2,0:0:0:0:
107,141,93544,1,2,0:3:0:0:
107,141,93643,1,0,0:0:0:0:
107,141,93741,1,8,0:0:0:0:
17,235,93937,1,2,0:3:0:0:
115,317,94133,6,0,P|198:339|273:299,1,173.800005303955,2|8,0:0|0:0,0:0:0:0:
337,186,94721,1,2,0:3:0:0:
337,186,94917,2,0,P|294:176|252:184,1,86.9000026519776,2|2,0:0|0:3,0:0:0:0:
398,278,95310,2,0,P|440:291|481:280,1,86.9000026519776,8|0,0:0|0:0,0:0:0:0:
453,110,95702,6,0,B|443:205|443:205|420:180,1,130.350003977966,12|0,0:1|0:0,0:0:0:0:
394,154,96094,2,0,P|358:129|315:124,1,86.9000026519776,8|2,0:0|0:3,0:0:0:0:
188,157,96487,1,2,0:0:0:0:
262,264,96683,1,2,0:3:0:0:
262,264,96781,1,0,0:0:0:0:
262,264,96879,2,0,L|260:177,1,86.9000026519776,8|2,0:0|0:3,0:0:0:0:
159,94,97271,6,0,L|162:180,1,86.9000026519776,2|2,0:0|0:3,0:0:0:0:
163,198,97565,1,0,0:0:0:0:
164,215,97663,1,8,0:0:0:0:
224,330,97860,1,2,0:3:0:0:
223,330,98056,2,0,P|266:338|307:326,1,86.9000026519776,2|2,0:0|0:3,0:0:0:0:
426,274,98448,1,8,0:0:0:0:
414,232,98546,1,0,0:0:0:0:
403,190,98644,1,2,0:3:0:0:
414,148,98742,1,0,0:0:0:0:
429,108,98840,5,2,0:0:0:0:
325,187,99036,2,0,L|281:187,1,43.4500013259888,8|0,0:0|0:0,0:0:0:0:
208,216,99233,1,2,0:0:0:0:
281,108,99429,2,0,L|237:108,1,43.4500013259888,8|0,0:0|0:0,0:0:0:0:
164,137,99625,1,8,0:3:0:0:
90,30,99821,1,4,0:3:0:0:
22,140,100017,2,0,L|-1:123,3,28.9666675506592,8|0|0|2,0:0|0:0|0:0|0:0,0:0:0:0:
73,239,100409,5,6,0:0:0:0:
107,220,100508,1,0,0:0:0:0:
146,216,100606,1,0,0:0:0:0:
184,227,100704,1,0,0:0:0:0:
213,251,100802,2,0,P|227:266|240:281,3,39.5,8|0|0|0,0:0|0:0|0:0|0:0,0:0:0:0:
294,339,101194,5,2,0:0:0:0:
274,304,101292,1,0,0:0:0:0:
270,265,101390,1,0,0:0:0:0:
281,227,101488,1,0,0:0:0:0:
306,197,101586,2,0,P|320:183|335:170,3,39.5,8|0|0|0,0:0|0:0|0:0|0:0,0:0:0:0:
396,120,101979,5,2,0:0:0:0:
359,135,102077,1,0,0:0:0:0:
321,142,102175,1,0,0:0:0:0:
281,138,102273,1,0,0:0:0:0:
245,124,102371,2,0,L|210:104,3,39.5,8|0|0|0,0:0|0:0|0:0|0:0,0:0:0:0:
165,40,102763,5,2,0:0:0:0:
161,81,102861,1,0,0:0:0:0:
148,117,102959,1,0,0:0:0:0:
124,150,103057,1,0,0:0:0:0:
94,174,103155,2,0,L|59:193,3,39.5,8|0|0|0,0:0|0:0|0:0|0:0,0:0:0:0:
1,248,103548,5,2,0:0:0:0:
40,247,103646,1,0,0:0:0:0:
79,246,103744,1,0,0:0:0:0:
119,245,103842,1,0,0:0:0:0:
158,244,103940,2,0,L|195:260,3,39.5,8|0|0|0,0:0|0:0|0:0|0:0,0:0:0:0:
260,305,104332,5,2,0:0:0:0:
299,305,104430,1,0,0:0:0:0:
338,306,104528,1,0,0:0:0:0:
378,307,104627,1,0,0:0:0:0:
417,308,104725,2,0,L|453:292,3,39.5,8|0|0|0,0:0|0:0|0:0|0:0,0:0:0:0:
499,227,105117,5,6,0:0:0:0:
471,198,105215,1,0,0:0:0:0:
457,162,105313,1,0,0:0:0:0:
459,122,105411,1,0,0:0:0:0:
475,87,105509,1,8,0:0:0:0:
446,114,105607,1,0,0:0:0:0:
410,128,105705,1,0,0:0:0:0:
370,126,105803,1,0,0:0:0:0:
335,110,105901,6,0,P|316:104|296:102,3,39.5,2|0|0|0,0:0|0:0|0:0|0:0,0:0:0:0:
218,118,106294,2,0,P|198:115|179:109,3,39.5,8|0|0|0,0:0|0:0|0:0|0:0,0:0:0:0:
126,51,106686,5,2,0:0:0:0:
142,87,106784,1,0,0:0:0:0:
146,126,106882,1,0,0:0:0:0:
137,164,106980,1,0,0:0:0:0:
115,196,107078,1,8,0:0:0:0:
93,229,107176,1,0,0:0:0:0:
84,267,107274,1,0,0:0:0:0:
88,306,107373,1,0,0:0:0:0:
104,342,107471,6,0,P|121:351|140:356,3,39.5,2|0|0|0,0:0|0:0|0:0|0:0,0:0:0:0:
217,337,107863,2,0,P|234:327|253:322,3,39.5,8|0|0|0,0:0|0:0|0:0|0:0,0:0:0:0:
332,320,108255,5,2,0:0:0:0:
326,280,108353,1,0,0:0:0:0:
320,241,108451,1,0,0:0:0:0:
314,202,108549,1,0,0:0:0:0:
308,163,108647,1,8,0:0:0:0:
270,176,108746,1,0,0:0:0:0:
233,188,108844,1,0,0:0:0:0:
195,201,108942,1,0,0:0:0:0:
158,213,109040,6,0,L|118:212,3,39.5,2|0|0|0,0:0|0:0|0:0|0:0,0:0:0:0:
90,138,109432,2,0,L|129:138,3,39.5,8|0|0|0,0:0|0:0|0:0|0:0,0:0:0:0:
157,63,109824,6,0,P|213:46|269:64,1,118.5,6|2,0:0|0:0,0:0:0:0:
296,93,110217,1,8,0:0:0:0:
395,27,110413,2,0,P|377:83|387:141,1,118.5,2|2,0:0|0:0,0:0:0:0:
404,177,110805,1,0,0:0:0:0:
341,279,111001,1,8,0:0:0:0:
253,199,111197,1,0,0:0:0:0:
253,199,111295,1,2,0:0:0:0:
253,199,111393,6,0,L|174:197,1,79,0|2,0:0|0:0,0:0:0:0:
227,304,111786,1,8,0:0:0:0:
227,304,111884,2,0,L|306:304,1,79,2|0,0:0|0:0,0:0:0:0:
335,329,112178,2,0,P|320:272|336:215,1,118.5,6|2,0:0|0:0,0:0:0:0:
359,184,112570,1,8,0:0:0:0:
431,90,112766,6,0,B|351:104|351:104|306:83,1,118.5,6|2,0:0|0:0,0:0:0:0:
284,66,113159,1,0,0:0:0:0:
169,27,113355,2,0,L|171:145,1,118.5,12|2,0:0|0:0,0:0:0:0:
154,180,113747,1,0,0:0:0:0:
102,286,113943,1,12,0:0:0:0:
215,252,114139,1,2,0:0:0:0:
244,247,114238,1,8,0:0:0:0:
273,252,114336,1,0,0:0:0:0:
298,268,114434,1,0,0:0:0:0:
316,290,114532,6,0,P|364:324|422:319,1,118.5,6|2,0:0|0:0,0:0:0:0:
458,301,114924,1,8,0:0:0:0:
461,182,115120,2,0,P|413:148|355:153,1,118.5,6|2,0:0|0:0,0:0:0:0:
320,172,115512,1,0,0:0:0:0:
228,247,115709,1,8,0:0:0:0:
232,129,115905,1,0,0:0:0:0:
316,290,116101,1,6,0:0:0:0:
256,192,116199,12,0,122377,0:0:0:0:
