osu file format v14

[General]
AudioFilename: audio.mp3
AudioLeadIn: 0
PreviewTime: 76495
Countdown: 1
SampleSet: Soft
StackLeniency: 0.4
Mode: 0
LetterboxInBreaks: 0
WidescreenStoryboard: 1

[Editor]
Bookmarks: 10591,14122,26675,39228,51781,64334,76887,116116,122392
DistanceSpacing: 1.1
BeatDivisor: 4
GridSize: 32
TimelineZoom: 1

[Metadata]
Title:Sennen no Kotowari
TitleUnicode:千年ノ理
Artist:Nekomata Master
ArtistUnicode:猫叉Master
Creator:celerih
Version:MrSergio's ADVANCED
Source:SOUND VOLTEX III GRAVITY WARS
Tags:MrSergio Realazy WORLD ELECTRONICA BEMANI BMS 東方永夜抄 ~ Imperishable Night. 東方Project Touhou Project Ultimate MasterPieces ZUN 千年幻想郷 Gensokyo Millennium ~ History of the Moon 八意 永琳 Yagokoro Eirin Final A Boss sdvx beatmania IIDX 22 PENDUAL BeatStream jubeat prop pop'n music ラピストリア REFLEC BEAT groovin'!! Upper Ultima Fox
BeatmapID:1434696
BeatmapSetID:647730

[Difficulty]
HPDrainRate:5
CircleSize:4
OverallDifficulty:6
ApproachRate:7.8
SliderMultiplier:1.2
SliderTickRate:1

[Events]
//Background and Video events
0,0,"Sennen Eirin BG.jpg",0,0
//Break Periods
2,51966,63148
//Storyboard Layer 0 (Background)
//Storyboard Layer 1 (Fail)
//Storyboard Layer 2 (Pass)
//Storyboard Layer 3 (Foreground)
//Storyboard Sound Samples

[TimingPoints]
-15,392.28506047728,4,2,1,60,1,0
1161,-100,4,2,1,40,0,0
1357,-100,4,2,1,50,0,0
1554,-100,4,2,1,60,0,0
11753,-100,4,2,1,70,0,0
14107,-90.9090909090909,4,2,1,65,0,0
39213,-83.3333333333333,4,2,1,60,0,0
63731,-133.333333333333,4,2,1,60,0,0
64221,-133.333333333333,4,2,1,5,0,0
64319,-100,4,2,1,60,0,0
76872,-76.9230769230769,4,2,1,60,0,1
77167,-76.9230769230769,4,2,1,5,0,1
77265,-76.9230769230769,4,2,1,60,0,1
77559,-76.9230769230769,4,2,1,5,0,1
77657,-76.9230769230769,4,2,1,60,0,1
82659,-76.9230769230769,4,2,1,5,0,1
82757,-76.9230769230769,4,2,1,60,0,1
83443,-76.9230769230769,4,2,1,5,0,1
83541,-76.9230769230769,4,2,1,60,0,1
83835,-76.9230769230769,4,2,1,5,0,1
83934,-76.9230769230769,4,2,1,60,0,1
89720,-76.9230769230769,4,2,1,5,0,1
89818,-76.9230769230769,4,2,1,60,0,1
90112,-76.9230769230769,4,2,1,5,0,1
90210,-76.9230769230769,4,2,1,60,0,1
95212,-76.9230769230769,4,2,1,5,0,1
95310,-76.9230769230769,4,2,1,60,0,1
95996,-76.9230769230769,4,2,1,5,0,1
96094,-76.9230769230769,4,2,1,60,0,1
96389,-76.9230769230769,4,2,1,5,0,1
96487,-76.9230769230769,4,2,1,60,0,1
100409,-86.9565217391304,4,2,1,60,0,0
104627,-86.9565217391304,4,2,1,5,0,0
104725,-86.9565217391304,4,2,1,60,0,0
105019,-86.9565217391304,4,2,1,5,0,0
105117,-86.9565217391304,4,2,1,60,0,0
109726,-86.9565217391304,4,2,1,5,0,0
109824,-86.9565217391304,4,2,1,60,0,0

[Colours]
Combo1 : 109,78,120
Combo2 : 229,163,173
Combo3 : 165,99,99
Combo4 : 176,148,186

[HitObjects]
362,129,1161,6,0,L|404:134,3,30,0|0|0|0,0:0|0:0|0:0|0:0,0:0:0:0:
336,154,1554,6,0,P|301:176|163:145,1,180,6|0,0:0|0:0,0:0:0:0:
129,87,2338,1,8,0:0:0:0:
72,149,2534,1,0,0:0:0:0:
71,157,2632,1,0,0:0:0:0:
70,165,2730,2,0,P|76:205|99:236,1,60,0|0,0:0|0:0,0:0:0:0:
171,153,3123,2,0,B|306:122|269:206|433:156,1,240,0|8,0:0|0:0,0:0:0:0:
472,122,4103,1,0,0:0:0:0:
472,122,4300,2,0,P|479:86|459:48,1,60,0|0,0:0|0:0,0:0:0:0:
417,9,4692,6,0,P|345:2|258:76,1,180,2|0,0:0|0:0,0:0:0:0:
232,136,5476,1,8,0:0:0:0:
179,77,5673,1,0,0:0:0:0:
176,68,5771,1,0,0:0:0:0:
173,59,5869,2,0,P|135:49|96:60,1,60,0|0,0:0|0:0,0:0:0:0:
50,121,6261,2,0,B|-8:224|105:246|41:366,1,240,0|8,0:0|0:0,0:0:0:0:
48,351,7438,2,0,P|85:342|123:357,1,60,0|0,0:0|0:0,0:0:0:0:
180,367,7830,6,0,P|217:376|363:344,1,180,6|0,0:0|0:0,0:0:0:0:
360,339,8517,1,0,0:0:0:0:
366,328,8615,2,0,L|359:258,1,60,8|0,0:0|0:0,0:0:0:0:
319,201,9007,1,0,0:0:0:0:
244,179,9203,1,0,0:0:0:0:
170,205,9399,5,2,0:0:0:0:
226,258,9595,1,0,0:0:0:0:
234,266,9694,1,0,0:0:0:0:
242,274,9792,2,0,P|248:296|234:337,1,60,0|0,0:0|0:0,0:0:0:0:
172,371,10184,1,8,0:0:0:0:
47,276,10576,1,2,0:0:0:0:
47,276,10772,1,0,0:0:0:0:
109,229,10968,6,0,L|235:231,1,120,2|2,0:0|0:0,0:0:0:0:
295,188,11557,1,0,0:0:0:0:
360,230,11753,2,0,L|397:231,3,30,8|8|2|2,0:0|0:0|0:0|0:0,0:0:0:0:
335,257,12145,2,0,P|323:297|338:339,1,60,2|0,0:0|0:0,0:0:0:0:
442,295,12538,2,0,P|466:265|448:171,1,120,2|2,0:0|0:0,0:0:0:0:
319,122,13322,1,8,0:0:0:0:
383,77,13518,1,2,0:0:0:0:
283,24,13714,5,8,0:0:0:0:
283,24,14107,6,0,P|267:62|208:90,1,99.0000030212403,6|0,0:0|0:0,0:0:0:0:
176,80,14499,2,0,P|140:77|96:100,1,66.0000020141602,8|2,0:0|0:3,0:0:0:0:
164,170,14891,2,0,P|180:208|241:237,1,99.0000030212403,2|0,0:0|0:0,0:0:0:0:
268,221,15284,2,0,P|304:218|346:241,1,66.0000020141602,8|2,0:0|0:3,0:0:0:0:
287,309,15676,6,0,P|271:347|210:376,1,99.0000030212403,2|0,0:0|0:0,0:0:0:0:
183,360,16068,2,0,P|147:357|105:380,1,66.0000020141602,8|2,0:0|0:3,0:0:0:0:
37,342,16460,1,2,0:0:0:0:
37,342,16657,2,2,P|73:345|115:322,2,66.0000020141602,2|8|2,0:3|0:0|0:3,0:0:0:0:
64,260,17245,6,0,P|83:224|63:156,1,99.0000030212403,2|0,0:0|0:0,0:0:0:0:
46,134,17637,2,0,L|119:133,1,66.0000020141602,8|2,0:0|0:3,0:0:0:0:
215,99,18030,2,0,P|196:135|216:203,1,99.0000030212403,2|0,0:0|0:0,0:0:0:0:
237,219,18422,2,0,L|302:218,1,66.0000020141602,8|2,0:0|0:3,0:0:0:0:
412,213,18814,6,0,P|432:168|420:121,1,99.0000030212403,2|0,0:0|0:0,0:0:0:0:
390,93,19206,1,8,0:0:0:0:
313,52,19403,2,0,B|268:48|268:48|225:59|225:59|170:53,2,132.00000402832,2|2|2,0:3|0:3|0:3,0:0:0:0:
390,93,20383,6,0,P|402:126|384:199,1,99.0000030212403,6|0,0:0|0:0,0:0:0:0:
360,217,20776,1,8,0:0:0:0:
298,156,20972,1,2,0:3:0:0:
219,191,21168,2,0,P|217:230|233:264,1,66.0000020141602,2|2,0:0|0:3,0:0:0:0:
198,344,21560,2,0,P|200:305|184:271,1,66.0000020141602,8|2,0:0|0:3,0:0:0:0:
139,211,21952,6,0,P|124:172|170:22,1,198.000006042481,2|2,0:0|0:3,0:0:0:0:
249,33,22737,2,0,P|264:72|218:222,1,198.000006042481,2|2,0:0|0:3,0:0:0:0:
152,264,23522,6,0,P|124:289|110:358,1,99.0000030212403,2|0,0:0|0:0,0:0:0:0:
131,382,23914,2,0,L|52:374,1,66.0000020141602,8|2,0:0|0:3,0:0:0:0:
9,290,24306,2,0,L|88:282,1,66.0000020141602,2|2,0:0|0:3,0:0:0:0:
131,218,24698,1,8,0:0:0:0:
234,355,25091,6,0,P|268:361|314:347,1,66.0000020141602,2|2,0:0|0:3,0:0:0:0:
375,316,25483,2,0,P|403:296|425:253,1,66.0000020141602,8|2,0:0|0:3,0:0:0:0:
459,193,25875,2,0,P|465:158|451:112,1,66.0000020141602,2|2,0:0|0:3,0:0:0:0:
425,48,26268,1,8,0:0:0:0:
425,48,26660,6,0,P|380:53|318:54,1,99.0000030212403,6|0,0:0|0:0,0:0:0:0:
289,32,27052,1,8,0:0:0:0:
143,122,27444,1,2,0:0:0:0:
201,185,27641,1,2,0:3:0:0:
201,185,27837,2,0,P|243:180|284:183,1,66.0000020141602,8|2,0:0|0:3,0:0:0:0:
341,222,28229,6,0,P|341:179|356:101,1,99.0000030212403,2|0,0:0|0:0,0:0:0:0:
378,92,28621,1,8,0:0:0:0:
216,32,29014,1,2,0:0:0:0:
147,82,29210,1,2,0:3:0:0:
155,95,29308,1,0,0:0:0:0:
164,108,29406,2,0,P|171:128|174:147,2,33.0000010070801,8|0|2,0:0|0:0|0:3,0:0:0:0:
93,162,29798,6,0,P|92:200|81:266,1,99.0000030212403,2|0,0:0|0:0,0:0:0:0:
52,291,30190,1,8,0:0:0:0:
208,220,30583,1,2,0:0:0:0:
267,281,30779,1,2,0:3:0:0:
267,281,30975,2,0,P|308:278|343:280,1,66.0000020141602,8|2,0:0|0:3,0:0:0:0:
413,308,31367,5,2,0:0:0:0:
501,160,31760,1,8,0:0:0:0:
347,83,32152,1,2,0:0:0:0:
259,231,32544,1,8,0:0:0:0:
413,308,32936,6,0,P|414:267|428:182,1,99.0000030212403,6|0,0:0|0:0,0:0:0:0:
436,168,33329,2,0,P|393:172|356:168,1,66.0000020141602,8|2,0:0|0:3,0:0:0:0:
286,185,33721,2,0,P|284:224|300:258,1,66.0000020141602,2|2,0:0|0:3,0:0:0:0:
265,338,34113,2,0,P|267:299|251:265,1,66.0000020141602,8|2,0:0|0:3,0:0:0:0:
206,205,34506,6,0,P|191:166|237:16,1,198.000006042481,2|2,0:0|0:3,0:0:0:0:
316,27,35290,1,2,0:0:0:0:
392,66,35486,1,2,0:3:0:0:
392,66,35682,2,0,P|415:62|446:65,2,33.0000010070801,8|0|2,0:0|0:0|0:3,0:0:0:0:
335,130,36075,6,0,P|331:166|343:228,1,99.0000030212403,2|0,0:0|0:0,0:0:0:0:
371,258,36467,2,0,P|336:259|303:269,1,66.0000020141602,8|2,0:0|0:3,0:0:0:0:
241,324,36859,1,2,0:0:0:0:
157,343,37055,1,2,0:3:0:0:
74,317,37252,1,8,0:0:0:0:
74,317,37644,6,0,P|114:323|152:311,1,66.0000020141602,2|2,0:0|0:3,0:0:0:0:
212,274,38036,2,0,P|244:249|262:214,1,66.0000020141602,8|2,0:0|0:3,0:0:0:0:
288,148,38428,2,0,P|294:108|282:70,1,66.0000020141602,2|2,0:0|0:3,0:0:0:0:
243,9,38821,1,8,0:0:0:0:
243,9,39017,1,2,0:3:0:0:
315,54,39213,5,6,0:0:0:0:
250,110,39409,2,0,P|248:128|242:157,2,35.9999989013672,2|0|8,0:3|0:0|0:0,0:0:0:0:
329,154,39801,2,0,P|330:172|337:203,2,35.9999989013672,2|0|2,0:3|0:0|0:0,0:0:0:0:
250,200,40194,1,2,0:3:0:0:
254,208,40292,1,0,0:0:0:0:
256,217,40390,2,0,P|254:235|248:264,2,35.9999989013672,8|0|2,0:0|0:0|0:3,0:0:0:0:
342,276,40782,5,2,0:0:0:0:
271,337,40978,2,0,P|249:337|217:337,1,35.9999989013672,2|0,0:3|0:0,0:0:0:0:
189,326,41174,2,0,P|166:331|146:339,2,35.9999989013672,8|0|2,0:0|0:0|0:3,0:0:0:0:
232,242,41567,2,0,P|239:198|230:159,1,71.9999978027344,2|2,0:0|0:3,0:0:0:0:
228,162,41861,1,0,0:0:0:0:
220,154,41959,2,0,L|171:148,2,35.9999989013672,8|0|2,0:0|0:0|0:3,0:0:0:0:
246,64,42351,5,2,0:0:0:0:
320,120,42547,2,0,P|337:116|354:109,2,35.9999989013672,2|0|8,0:3|0:0|0:0,0:0:0:0:
381,190,42940,2,0,P|384:207|391:224,2,35.9999989013672,2|0|2,0:3|0:0|0:0,0:0:0:0:
441,118,43332,1,2,0:3:0:0:
451,115,43430,1,0,0:0:0:0:
461,116,43528,2,0,P|464:98|471:81,2,35.9999989013672,8|0|2,0:0|0:0|0:3,0:0:0:0:
509,195,43920,5,2,0:0:0:0:
447,266,44117,2,0,L|405:263,1,35.9999989013672,2|0,0:3|0:0,0:0:0:0:
370,286,44313,2,0,P|326:272|274:268,1,71.9999978027344,8|2,0:0|0:3,0:0:0:0:
360,196,44705,2,0,P|375:189|393:174,2,35.9999989013672,2|0|2,0:0|0:0|0:3,0:0:0:0:
289,134,45097,2,0,P|274:127|256:112,2,35.9999989013672,8|0|2,0:0|0:0|0:3,0:0:0:0:
360,72,45490,5,6,0:0:0:0:
256,192,45588,12,2,48628,0:0:0:0:
256,192,48726,12,8,51374,0:0:0:0:
239,288,51766,5,6,0:0:0:0:
306,239,63927,6,0,L|308:166,1,67.5000025749207,2|0,0:0|0:0,0:0:0:0:
281,142,64319,6,0,P|317:117|407:113,2,120,6|2|10,0:0|0:0|0:0,0:0:0:0:
210,195,65300,1,0,0:0:0:0:
205,186,65398,1,0,0:0:0:0:
199,178,65496,2,0,P|168:166|126:176,1,60,2|0,0:0|0:0,0:0:0:0:
84,221,65888,2,0,B|18:133|158:88|65:-6,1,240,2|10,0:0|0:0,0:0:0:0:
136,40,66869,1,0,0:0:0:0:
136,40,67065,2,0,P|170:48|210:40,1,60,2|0,0:0|0:0,0:0:0:0:
271,30,67458,6,0,P|317:18|394:39,2,120,2|2|10,0:0|0:0|0:0,0:0:0:0:
223,91,68438,1,0,0:0:0:0:
227,98,68536,1,0,0:0:0:0:
231,105,68634,2,0,P|238:133|225:170,1,60,2|0,0:0|0:0,0:0:0:0:
179,222,69027,2,0,B|267:288|312:148|406:241,1,240,2|10,0:0|0:0,0:0:0:0:
489,107,70204,2,0,P|454:115|417:104,1,60,2|0,0:0|0:0,0:0:0:0:
360,76,70596,6,0,B|324:78|300:58|300:58|266:115|189:97,1,180,6|0,0:0|0:0,0:0:0:0:
185,89,71282,1,0,0:0:0:0:
173,79,71380,2,0,P|169:111|141:156,1,60,8|0,0:0|0:0,0:0:0:0:
116,202,71773,1,8,0:0:0:0:
48,240,71969,1,0,0:0:0:0:
144,336,72165,6,0,P|184:326|223:333,1,60,10|0,0:0|0:0,0:0:0:0:
215,334,72459,1,0,0:0:0:0:
228,341,72557,2,0,P|266:332|305:335,1,60,8|0,0:0|0:0,0:0:0:0:
366,360,72950,1,8,0:0:0:0:
366,360,73342,2,0,L|407:366,3,30,0|0|0|0,0:0|0:0|0:0|0:0,0:0:0:0:
343,345,73734,6,0,P|334:304|348:265,1,60,2|0,0:0|0:0,0:0:0:0:
377,220,74126,1,8,0:0:0:0:
336,152,74323,1,0,0:0:0:0:
267,114,74519,2,0,P|249:76|249:41,1,60,2|0,0:0|0:0,0:0:0:0:
180,128,74911,2,0,P|162:166|162:201,1,60,8|0,0:0|0:0,0:0:0:0:
86,102,75303,5,2,0:0:0:0:
86,102,75696,1,2,0:0:0:0:
86,102,76088,2,0,L|78:171,1,60,2|2,0:0|0:0,0:0:0:0:
128,234,76480,2,0,L|125:273,3,30,8|0|2|0,0:0|0:0|0:0|0:0,0:0:0:0:
163,211,76872,6,0,P|211:224|307:206,1,116.999994644165,12|0,0:1|0:0,0:0:0:0:
323,229,77265,2,0,P|278:246|198:245,1,116.999994644165,8|0,0:0|0:0,0:0:0:0:
169,271,77657,2,0,P|216:285|263:284,1,77.9999964294435,2|2,0:0|0:3,0:0:0:0:
335,258,78049,1,8,0:0:0:0:
423,293,78245,1,2,0:3:0:0:
433,169,78442,6,0,P|392:130|281:115,1,155.999992858887,2|8,0:0|0:0,0:0:0:0:
228,173,79030,2,0,L|179:175,1,38.9999982147218,2|0,0:3|0:0,0:0:0:0:
161,206,79226,2,0,P|128:174|21:162,1,155.999992858887,2|8,0:0|0:0,0:0:0:0:
67,250,79815,1,2,0:3:0:0:
73,259,79913,1,0,0:0:0:0:
80,268,80011,6,0,P|86:298|64:346,1,77.9999964294435,2|2,0:0|0:3,0:0:0:0:
174,239,80403,2,0,P|168:269|190:317,1,77.9999964294435,8|2,0:0|0:3,0:0:0:0:
268,185,80795,2,0,P|274:215|252:263,1,77.9999964294435,2|2,0:0|0:3,0:0:0:0:
168,207,81188,1,8,0:0:0:0:
250,148,81384,1,2,0:3:0:0:
201,35,81580,6,0,P|160:38|36:24,1,155.999992858887,2|8,0:0|0:0,0:0:0:0:
10,121,82168,1,2,0:3:0:0:
8,132,82266,1,0,0:0:0:0:
6,143,82364,2,0,P|54:150|124:188,1,116.999994644165,2|0,0:0|0:0,0:0:0:0:
121,224,82757,1,8,0:0:0:0:
278,96,83149,6,0,P|288:140|272:220,1,116.999994644165,12|0,0:1|0:0,0:0:0:0:
300,254,83541,2,0,P|321:206|323:128,1,116.999994644165,8|0,0:0|0:0,0:0:0:0:
346,95,83934,2,0,P|362:139|362:189,1,77.9999964294435,2|2,0:0|0:3,0:0:0:0:
344,261,84326,1,8,0:0:0:0:
278,328,84522,1,2,0:3:0:0:
245,240,84718,6,0,P|198:243|103:300,1,155.999992858887,2|8,0:0|0:0,0:0:0:0:
69,213,85307,2,0,L|66:153,1,38.9999982147218,2|0,0:3|0:0,0:0:0:0:
30,145,85503,2,0,P|85:140|167:76,1,155.999992858887,2|8,0:0|0:0,0:0:0:0:
338,14,86287,5,2,0:0:0:0:
338,14,86483,1,2,0:3:0:0:
378,98,86679,2,0,P|383:142|403:183,1,77.9999964294435,8|2,0:0|0:3,0:0:0:0:
442,254,87072,2,0,P|447:210|467:169,1,77.9999964294435,2|2,0:0|0:3,0:0:0:0:
510,100,87464,2,0,L|508:53,2,38.9999982147218,8|0|2,0:0|0:0|0:3,0:0:0:0:
460,179,87856,6,0,P|404:187|360:177,1,77.9999964294435,2|2,0:0|0:3,0:0:0:0:
269,159,88249,2,0,P|301:137|327:108,1,77.9999964294435,8|2,0:0|0:3,0:0:0:0:
181,128,88641,2,0,P|180:184|163:226,1,77.9999964294435,2|2,0:0|0:3,0:0:0:0:
165,212,88935,1,0,0:0:0:0:
157,220,89033,1,8,0:0:0:0:
322,337,89425,6,0,P|365:329|459:334,1,116.999994644165,12|0,0:1|0:0,0:0:0:0:
484,352,89818,2,0,P|460:299|454:235,1,116.999994644165,8|0,0:0|0:0,0:0:0:0:
474,195,90210,2,0,P|434:203|380:197,1,77.9999964294435,2|2,0:0|0:3,0:0:0:0:
311,163,90602,1,8,0:0:0:0:
267,80,90798,1,2,0:3:0:0:
176,153,90995,6,0,P|170:195|223:327,1,155.999992858887,2|8,0:0|0:0,0:0:0:0:
284,257,91583,2,0,L|340:260,1,38.9999982147218,2|0,0:3|0:0,0:0:0:0:
362,284,91779,2,0,P|353:232|370:125,1,155.999992858887,2|8,0:0|0:0,0:0:0:0:
332,43,92368,1,2,0:3:0:0:
326,53,92466,1,0,0:0:0:0:
320,63,92564,6,0,P|258:75|154:68,2,155.999992858887,2|8|2,0:0|0:0|0:0,0:0:0:0:
409,88,93544,1,2,0:3:0:0:
490,135,93741,2,0,P|503:185|501:223,1,77.9999964294435,8|2,0:0|0:3,0:0:0:0:
466,297,94133,6,0,P|452:233|462:138,1,155.999992858887,2|8,0:0|0:0,0:0:0:0:
371,172,94721,1,2,0:3:0:0:
364,181,94819,1,0,0:0:0:0:
357,190,94917,2,0,P|306:191|221:202,1,116.999994644165,2|0,0:0|0:0,0:0:0:0:
201,179,95310,1,8,0:0:0:0:
177,348,95702,6,0,P|134:340|40:345,1,116.999994644165,12|0,0:1|0:0,0:0:0:0:
15,363,96094,2,0,P|39:310|45:246,1,116.999994644165,8|0,0:0|0:0,0:0:0:0:
25,206,96487,2,0,P|65:214|119:208,1,77.9999964294435,2|2,0:0|0:3,0:0:0:0:
186,196,96879,1,8,0:0:0:0:
243,132,97075,1,2,0:3:0:0:
337,203,97271,6,0,P|331:161|360:40,1,155.999992858887,2|8,0:0|0:0,0:0:0:0:
429,93,97860,2,0,L|486:109,1,38.9999982147218,2|0,0:3|0:0,0:0:0:0:
470,146,98056,2,0,P|448:220|452:297,1,155.999992858887,2|8,0:0|0:0,0:0:0:0:
498,370,98644,1,2,0:3:0:0:
412,369,98840,5,2,0:0:0:0:
412,369,99036,1,8,0:0:0:0:
338,324,99233,2,0,P|332:284|336:240,1,77.9999964294435,2|8,0:0|0:0,0:0:0:0:
368,168,99625,1,8,0:3:0:0:
320,96,99821,1,4,0:3:0:0:
234,105,100017,2,0,P|212:104|187:100,2,38.9999982147218,8|0|2,0:0|0:0|0:0,0:0:0:0:
334,75,100409,5,6,0:0:0:0:
410,122,100606,2,0,L|444:122,3,34.5000006580353,0|0|8|0,0:0|0:0|0:0|0:0,0:0:0:0:
293,188,101194,2,0,L|249:188,3,34.5000006580353,2|0|0|0,0:0|0:0|0:0|0:0,0:0:0:0:
228,56,101782,2,0,L|193:56,3,34.5000006580353,0|0|2|0,0:0|0:0|0:0|0:0,0:0:0:0:
191,189,102371,6,0,P|189:205|192:232,3,34.5000006580353,8|0|0|0,0:0|0:0|0:0|0:0,0:0:0:0:
87,271,102959,2,0,P|89:287|86:314,3,34.5000006580353,0|0|8|0,0:0|0:0|0:0|0:0,0:0:0:0:
13,169,103548,2,0,P|11:153|14:126,3,34.5000006580353,2|0|0|0,0:0|0:0|0:0|0:0,0:0:0:0:
124,115,104136,2,0,P|126:97|124:80,1,34.5000006580353,0|0,0:0|0:0,0:0:0:0:
102,49,104332,6,0,P|151:60|226:62,1,103.500001974106,2|0,0:0|0:0,0:0:0:0:
220,97,104725,2,0,P|269:87|339:60,1,103.500001974106,8|0,0:0|0:0,0:0:0:0:
347,95,105117,5,6,0:0:0:0:
436,38,105313,2,0,L|495:38,3,34.5000006580353,0|0|8|0,0:0|0:0|0:0|0:0,0:0:0:0:
429,151,105901,2,0,L|370:151,3,34.5000006580353,2|0|0|0,0:0|0:0|0:0|0:0,0:0:0:0:
433,258,106490,2,0,L|492:258,3,34.5000006580353,0|0|2|0,0:0|0:0|0:0|0:0,0:0:0:0:
360,347,107078,6,0,P|337:342|317:333,3,34.5000006580353,8|0|0|0,0:0|0:0|0:0|0:0,0:0:0:0:
316,224,107667,2,0,P|293:229|273:238,3,34.5000006580353,0|0|8|0,0:0|0:0|0:0|0:0,0:0:0:0:
189,298,108255,2,0,P|173:295|156:290,3,34.5000006580353,2|0|0|0,0:0|0:0|0:0|0:0,0:0:0:0:
49,249,108844,2,0,P|32:252|15:257,3,34.5000006580353,0|0|2|0,0:0|0:0|0:0|0:0,0:0:0:0:
47,170,109432,6,0,P|85:159|145:110,1,103.500001974106,8|0,0:0|0:0,0:0:0:0:
173,128,109824,6,0,P|187:91|182:13,1,103.500001974106,8|0,2:0|2:0,2:0:0:0:
224,36,110217,2,0,P|220:75|223:114,1,69.0000013160706,8|2,0:0|0:0,0:0:0:0:
350,142,110707,1,2,0:0:0:0:
350,142,110805,2,0,P|328:109|312:73,1,69.0000013160706,0|8,0:0|0:0,0:0:0:0:
330,231,111295,1,2,0:0:0:0:
330,231,111393,2,0,P|367:237|400:248,2,69.0000013160706,0|2|8,0:0|0:0|0:0,0:0:0:0:
311,264,111884,1,2,0:0:0:0:
252,184,112178,6,0,P|241:143|241:58,1,103.500001974106,6|2,0:0|0:0,0:0:0:0:
214,56,112570,1,8,0:0:0:0:
159,126,112766,2,0,P|161:164|178:232,2,103.500001974106,6|2|12,0:0|0:0|0:0,0:0:0:0:
73,245,113649,2,0,P|75:209|54:139,1,103.500001974106,2|12,0:0|0:0,0:0:0:0:
30,73,114139,2,0,L|-5:72,2,34.5000006580353,2|8|0,0:0|0:0|0:0,0:0:0:0:
115,85,114532,6,0,B|168:72|168:110|246:85,1,103.500001974106,6|2,0:0|0:0,0:0:0:0:
303,166,115120,2,0,B|250:153|250:191|172:166,1,103.500001974106,6|2,0:0|0:0,0:0:0:0:
135,266,115709,2,0,P|136:305|128:339,1,69.0000013160706,8|0,0:0|0:0,0:0:0:0:
65,374,116101,1,6,0:0:0:0:
256,192,116199,12,0,122377,0:0:0:0:
