osu file format v14

[General]
AudioFilename: audio.mp3
AudioLeadIn: 0
PreviewTime: 76495
Countdown: 1
SampleSet: Soft
StackLeniency: 0.3
Mode: 0
LetterboxInBreaks: 0
WidescreenStoryboard: 1

[Editor]
Bookmarks: 10576,14107,26660,39213,51766,64319,76872,116101,122377
DistanceSpacing: 1
BeatDivisor: 4
GridSize: 16
TimelineZoom: 1

[Metadata]
Title:Sennen no Kotowari
TitleUnicode:千年ノ理
Artist:Nekomata Master
ArtistUnicode:猫叉Master
Creator:celerih
Version:BASIC
Source:SOUND VOLTEX III GRAVITY WARS
Tags:MrSergio Realazy WORLD ELECTRONICA BEMANI BMS 東方永夜抄 ~ Imperishable Night. 東方Project Touhou Project Ultimate MasterPieces ZUN 千年幻想郷 Gensokyo Millennium ~ History of the Moon 八意 永琳 Yagokoro Eirin Final A Boss sdvx beatmania IIDX 22 PENDUAL BeatStream jubeat prop pop'n music ラピストリア REFLEC BEAT groovin'!! Upper Ultima Fox
BeatmapID:1372689
BeatmapSetID:647730

[Difficulty]
HPDrainRate:2
CircleSize:2.8
OverallDifficulty:3
ApproachRate:4
SliderMultiplier:0.899999999999999
SliderTickRate:1

[Events]
//Background and Video events
0,0,"Sennen Eirin BG.jpg",0,0
//Break Periods
2,51966,62999
//Storyboard Layer 0 (Background)
//Storyboard Layer 1 (Fail)
//Storyboard Layer 2 (Pass)
//Storyboard Layer 3 (Foreground)
//Storyboard Sound Samples

[TimingPoints]
-15,392.28506047728,4,2,1,60,1,0
76872,-100,4,2,1,60,0,1
100409,-100,4,2,1,60,0,0

[Colours]
Combo1 : 109,78,120
Combo2 : 229,163,173
Combo3 : 165,99,99
Combo4 : 176,148,186

[HitObjects]
440,270,1554,6,0,P|363:228|271:243,1,180,6|8,0:0|0:0,0:0:0:0:
199,289,2730,1,0,0:0:0:0:
139,220,3123,1,0,0:0:0:0:
270,97,3907,2,0,L|258:-11,1,89.9999999999999,8|0,0:0|0:0,0:0:0:0:
173,34,4692,6,0,P|145:119|186:211,1,180,2|8,0:0|0:0,0:0:0:0:
256,240,5869,1,0,0:0:0:0:
338,203,6261,1,0,0:0:0:0:
448,345,7046,2,0,P|402:351|347:336,1,89.9999999999999,8|0,0:0|0:0,0:0:0:0:
281,298,7830,6,0,B|216:284|216:284|94:301,1,180,6|8,0:0|0:0,0:0:0:0:
14,311,9007,1,0,0:0:0:0:
25,221,9399,2,0,L|36:123,2,89.9999999999999,2|0|8,0:0|0:0|0:0,0:0:0:0:
107,257,10576,1,2,0:0:0:0:
171,194,10968,6,0,P|220:185|270:196,1,89.9999999999999,2|2,0:0|0:0,0:0:0:0:
338,234,11753,2,0,P|387:243|437:232,1,89.9999999999999,8|2,0:0|0:0,0:0:0:0:
441,147,12538,2,0,B|305:104|305:203|161:147,1,270,2|8,0:0|0:0,0:0:0:0:
117,85,14107,6,0,L|25:94,1,89.9999999999999,6|8,0:0|0:0,0:0:0:0:
66,175,14891,2,0,P|74:218|63:262,1,89.9999999999999,2|8,0:0|0:0,0:0:0:0:
144,302,15676,2,0,L|249:313,2,89.9999999999999,2|8|2,0:0|0:0|0:0,0:0:0:0:
67,349,16853,1,8,0:0:0:0:
63,262,17245,6,0,P|55:219|65:174,1,89.9999999999999,2|8,0:0|0:0,0:0:0:0:
127,109,18030,2,0,P|170:101|214:111,1,89.9999999999999,2|8,0:0|0:0,0:0:0:0:
274,178,18814,2,0,L|284:277,2,89.9999999999999,2|8|2,0:0|0:0|0:0,0:0:0:0:
304,93,19991,1,8,0:0:0:0:
383,135,20383,6,0,P|429:143|475:136,1,89.9999999999999,6|8,0:0|0:0,0:0:0:0:
430,57,21168,2,0,P|384:49|338:56,1,89.9999999999999,2|8,0:0|0:0,0:0:0:0:
269,108,21952,2,0,B|251:176|251:176|268:295,1,180,2|2,0:0|0:0,0:0:0:0:
279,373,23129,1,8,0:0:0:0:
197,339,23522,6,0,P|146:333|99:348,2,89.9999999999999,2|8|2,0:0|0:0|0:0,0:0:0:0:
266,284,24698,1,8,0:0:0:0:
327,217,25091,2,0,B|336:172|336:172|323:116,1,89.9999999999999,2|8,0:0|0:0,0:0:0:0:
236,119,25875,2,0,B|227:74|227:74|240:18,1,89.9999999999999,2|8,0:0|0:0,0:0:0:0:
325,12,26660,6,0,P|356:95|321:189,1,180,6|2,0:0|0:0,0:0:0:0:
255,230,27837,1,8,0:0:0:0:
175,191,28229,2,0,B|115:175|115:175|-7:192,1,180,2|2,0:0|0:0,0:0:0:0:
4,281,29406,1,8,0:0:0:0:
67,343,29798,6,0,P|154:364|250:331,1,180,2|2,0:0|0:0,0:0:0:0:
295,268,30975,1,8,0:0:0:0:
354,335,31367,1,2,0:0:0:0:
399,257,31760,2,0,L|409:156,2,89.9999999999999,8|2|8,0:0|0:0|0:0,0:0:0:0:
309,261,32936,6,0,P|251:240|140:292,1,180,6|2,0:0|0:0,0:0:0:0:
84,349,34113,1,8,0:0:0:0:
29,276,34506,2,0,P|21:233|31:179,1,89.9999999999999,2|8,0:0|0:0,0:0:0:0:
102,142,35290,2,0,P|110:99|100:45,1,89.9999999999999,2|8,0:0|0:0,0:0:0:0:
19,20,36075,5,2,0:0:0:0:
9,109,36467,2,0,L|0:201,2,89.9999999999999,8|2|8,0:0|0:0|0:0,0:0:0:0:
92,74,37644,2,0,P|156:51|289:101,1,180,2|2,0:0|0:0,0:0:0:0:
314,150,38821,1,8,0:0:0:0:
237,197,39213,6,0,L|129:210,1,89.9999999999999,6|8,0:0|0:0,0:0:0:0:
192,285,39998,2,0,L|281:275,1,89.9999999999999,2|8,0:0|0:0,0:0:0:0:
358,232,40782,2,0,P|370:187|356:122,1,89.9999999999999,2|8,0:0|0:0,0:0:0:0:
294,88,41567,2,0,B|249:77|249:77|189:89,1,89.9999999999999,2|8,0:0|0:0,0:0:0:0:
142,150,42351,6,0,L|129:265,2,89.9999999999999,2|8|2,0:0|0:0|0:0,0:0:0:0:
119,62,43528,1,8,0:0:0:0:
199,22,43920,2,0,P|244:15|295:26,1,89.9999999999999,2|8,0:0|0:0,0:0:0:0:
359,77,44705,2,0,B|361:125|361:125|347:176,1,89.9999999999999,2|8,0:0|0:0,0:0:0:0:
306,246,45490,6,0,L|317:359,1,89.9999999999999,6|8,0:0|0:0,0:0:0:0:
399,302,46274,2,0,L|389:213,1,89.9999999999999,2|8,0:0|0:0,0:0:0:0:
365,125,47059,2,0,P|320:113|255:127,1,89.9999999999999,2|8,0:0|0:0,0:0:0:0:
200,164,47843,2,0,P|155:168|112:156,1,89.9999999999999,2|8,0:0|0:0,0:0:0:0:
41,100,48628,6,0,L|29:-9,2,89.9999999999999,2|8|2,0:0|0:0|0:0,0:0:0:0:
25,188,49805,1,8,0:0:0:0:
112,156,50197,2,0,B|157:147|157:147|202:151,1,89.9999999999999,2|8,0:0|0:0,0:0:0:0:
259,219,50982,2,0,B|304:228|304:228|349:224,1,89.9999999999999,2|8,0:0|0:0,0:0:0:0:
428,183,51766,5,6,0:0:0:0:
165,62,64319,6,0,P|135:150|178:251,1,180,6|10,0:0|0:0,0:0:0:0:
243,264,65496,1,2,0:0:0:0:
327,232,65888,2,0,L|316:130,1,89.9999999999999,2|2,0:0|0:0,0:0:0:0:
223,88,66673,2,0,L|233:189,1,89.9999999999999,10|2,0:0|0:0,0:0:0:0:
186,276,67458,6,0,P|103:308|28:248,1,180,2|10,0:0|0:0,0:0:0:0:
37,170,68634,1,2,0:0:0:0:
107,113,69027,2,0,P|115:66|104:13,1,89.9999999999999,2|2,0:0|0:0,0:0:0:0:
31,71,69811,2,0,P|20:122|30:171,1,89.9999999999999,10|2,0:0|0:0,0:0:0:0:
100,209,70596,6,0,B|153:221|153:221|283:204,1,180,6|8,0:0|0:0,0:0:0:0:
354,157,71773,1,8,0:0:0:0:
357,246,72165,2,0,P|349:295|359:337,1,89.9999999999999,10|8,0:0|0:0,0:0:0:0:
434,286,72950,2,0,P|442:237|432:195,1,89.9999999999999,8|0,0:0|0:0,0:0:0:0:
369,133,73734,5,2,0:0:0:0:
281,155,74126,2,0,L|178:144,2,89.9999999999999,8|2|8,0:0|0:0|0:0,0:0:0:0:
342,221,75303,2,0,P|350:273|338:321,1,89.9999999999999,2|2,0:0|0:0,0:0:0:0:
267,358,76088,1,2,0:0:0:0:
177,353,76480,1,8,0:0:0:0:
100,305,76872,6,0,L|-27:292,2,89.9999999999999,12|8|2,0:1|0:0|0:0,0:0:0:0:
179,262,78049,1,8,0:0:0:0:
268,268,78442,2,0,L|367:257,1,89.9999999999999,2|8,0:0|0:0,0:0:0:0:
437,216,79226,2,0,P|447:179|435:120,1,89.9999999999999,2|8,0:0|0:0,0:0:0:0:
366,74,80011,5,2,0:0:0:0:
276,86,80403,1,8,0:0:0:0:
209,147,80795,2,0,P|160:156|100:143,1,89.9999999999999,2|8,0:0|0:0,0:0:0:0:
58,84,81580,2,0,B|67:138|67:138|49:293,1,180,2|2,0:0|0:0,0:0:0:0:
36,351,82757,1,8,0:0:0:0:
126,332,83149,6,0,P|174:324|229:336,1,89.9999999999999,12|8,0:1|0:0,0:0:0:0:
291,370,83934,2,0,P|335:376|379:368,1,89.9999999999999,2|8,0:0|0:0,0:0:0:0:
436,298,84718,2,0,L|457:95,1,180,2|2,0:0|0:0,0:0:0:0:
462,29,85895,1,8,0:0:0:0:
380,67,86287,6,0,L|273:78,1,89.9999999999999,2|8,0:0|0:0,0:0:0:0:
215,125,87072,2,0,L|108:113,1,89.9999999999999,2|8,0:0|0:0,0:0:0:0:
36,99,87856,1,2,0:0:0:0:
66,183,88249,1,8,0:0:0:0:
29,265,88641,2,0,L|40:373,1,89.9999999999999,2|8,0:0|0:0,0:0:0:0:
127,351,89425,6,0,L|230:361,2,89.9999999999999,12|8|2,0:1|0:0|0:0,0:0:0:0:
111,262,90602,1,8,0:0:0:0:
161,187,90995,2,0,P|206:179|259:188,1,89.9999999999999,2|8,0:0|0:0,0:0:0:0:
322,239,91779,2,0,P|366:244|410:236,1,89.9999999999999,2|8,0:0|0:0,0:0:0:0:
470,169,92564,5,2,0:0:0:0:
464,79,92956,1,8,0:0:0:0:
396,19,93348,2,0,L|278:31,1,89.9999999999999,2|8,0:0|0:0,0:0:0:0:
237,86,94133,2,0,B|212:141|212:141|237:261,1,180,2|2,0:0|0:0,0:0:0:0:
264,343,95310,1,8,0:0:0:0:
175,328,95702,6,0,P|131:338|72:327,1,89.9999999999999,12|8,0:1|0:0,0:0:0:0:
5,294,96487,2,0,L|15:193,1,89.9999999999999,2|8,0:0|0:0,0:0:0:0:
40,118,97271,2,0,P|124:92|212:130,1,180,2|2,0:0|0:0,0:0:0:0:
236,209,98448,1,8,0:0:0:0:
320,181,98840,6,0,L|411:190,2,89.9999999999999,2|2|8,0:0|0:0|0:3,0:0:0:0:
280,97,100017,1,8,0:0:0:0:
342,31,100409,6,0,L|440:41,1,89.9999999999999,6|8,0:0|0:0,0:0:0:0:
463,124,101194,2,0,L|369:134,1,89.9999999999999,2|8,0:0|0:0,0:0:0:0:
289,101,101979,2,0,L|195:92,1,89.9999999999999,2|8,0:0|0:0,0:0:0:0:
122,138,102763,2,0,L|28:147,1,89.9999999999999,2|8,0:0|0:0,0:0:0:0:
48,235,103548,6,0,L|148:246,1,89.9999999999999,2|8,0:0|0:0,0:0:0:0:
217,204,104332,1,2,0:0:0:0:
307,207,104725,1,8,0:0:0:0:
372,148,105117,2,0,P|425:141|489:156,1,89.9999999999999,6|8,0:0|0:0,0:0:0:0:
509,223,105901,2,0,L|496:341,1,89.9999999999999,2|8,0:0|0:0,0:0:0:0:
429,370,106686,6,0,P|383:378|338:368,1,89.9999999999999,2|8,0:0|0:0,0:0:0:0:
266,320,107471,2,0,P|222:312|178:320,1,89.9999999999999,2|8,0:0|0:0,0:0:0:0:
134,241,108255,2,0,L|121:126,2,89.9999999999999,2|8|2,0:0|0:0|0:0,0:0:0:0:
88,319,109432,1,8,0:0:0:0:
43,241,109824,6,0,L|30:95,2,135,6|2|8,0:0|0:0|0:0,0:0:0:0:
122,350,111590,2,0,P|187:367|269:354,2,135,2|6|6,0:0|0:0|0:0,0:0:0:0:
198,238,113355,6,0,B|347:222,2,135,12|12|6,0:0|0:0|0:0,0:0:0:0:
74,184,115120,2,0,P|57:112|70:41,1,135,6|8,0:0|0:0,0:0:0:0:
140,5,116101,5,6,0:0:0:0:
256,192,116493,12,0,122377,0:0:0:0:
