osu file format v14

[General]
AudioFilename: audio.mp3
AudioLeadIn: 0
PreviewTime: 76495
Countdown: 1
SampleSet: Soft
StackLeniency: 0.3
Mode: 0
LetterboxInBreaks: 0
WidescreenStoryboard: 1

[Editor]
Bookmarks: 10576,14107,26660,39213,51766,64319,76872,116101,122377
DistanceSpacing: 1
BeatDivisor: 2
GridSize: 16
TimelineZoom: 1

[Metadata]
Title:Sennen no Kotowari
TitleUnicode:千年ノ理
Artist:Nekomata Master
ArtistUnicode:猫叉Master
Creator:celerih
Version:NOVICE
Source:SOUND VOLTEX III GRAVITY WARS
Tags:MrSergio Realazy WORLD ELECTRONICA BEMANI BMS 東方永夜抄 ~ Imperishable Night. 東方Project Touhou Project Ultimate MasterPieces ZUN 千年幻想郷 Gensokyo Millennium ~ History of the Moon 八意 永琳 Yagokoro Eirin Final A Boss sdvx beatmania IIDX 22 PENDUAL BeatStream jubeat prop pop'n music ラピストリア REFLEC BEAT groovin'!! Upper Ultima Fox
BeatmapID:1372782
BeatmapSetID:647730

[Difficulty]
HPDrainRate:3
CircleSize:3.3
OverallDifficulty:4
ApproachRate:5.5
SliderMultiplier:1.1
SliderTickRate:1

[Events]
//Background and Video events
0,0,"Sennen Eirin BG.jpg",0,0
//Break Periods
2,51966,63194
//Storyboard Layer 0 (Background)
//Storyboard Layer 1 (Fail)
//Storyboard Layer 2 (Pass)
//Storyboard Layer 3 (Foreground)
//Storyboard Sound Samples

[TimingPoints]
-15,392.28506047728,4,2,1,60,1,0
76872,-100,4,2,1,60,0,1
100409,-100,4,2,1,60,0,0

[Colours]
Combo1 : 109,78,120
Combo2 : 229,163,173
Combo3 : 165,99,99
Combo4 : 176,148,186

[HitObjects]
82,251,1554,6,0,P|159:209|238:235,1,165,6|0,0:0|0:0,0:0:0:0:
268,269,2338,1,8,0:0:0:0:
363,323,2730,2,0,P|393:328|426:321,1,55,0|0,0:0|0:0,0:0:0:0:
455,284,3123,2,0,L|466:173,1,110,0|0,0:0|0:0,0:0:0:0:
431,70,3907,2,0,L|437:4,2,55,8|0|0,0:0|0:0|0:0,0:0:0:0:
336,125,4692,6,0,P|249:151|172:109,1,165,2|0,0:0|0:0,0:0:0:0:
154,76,5476,1,8,0:0:0:0:
124,182,5869,2,0,L|116:256,1,55,0|0,0:0|0:0,0:0:0:0:
135,288,6261,2,0,P|190:272|254:283,1,110,0|0,0:0|0:0,0:0:0:0:
357,268,7046,2,0,P|411:274|463:258,1,110,8|0,0:0|0:0,0:0:0:0:
499,154,7830,6,0,B|439:139|439:139|336:152,1,165,6|0,0:0|0:0,0:0:0:0:
282,160,8615,1,8,0:0:0:0:
211,244,9007,2,0,P|179:249|149:244,1,55,0|0,0:0|0:0,0:0:0:0:
127,199,9399,2,0,L|114:78,1,110,2|0,0:0|0:0,0:0:0:0:
193,11,10184,1,8,0:0:0:0:
267,97,10576,2,0,L|259:181,1,55,2|0,0:0|0:0,0:0:0:0:
256,206,10968,6,0,P|310:196|369:208,1,110,2|2,0:0|0:0,0:0:0:0:
306,300,11753,2,0,P|252:310|193:298,1,110,8|2,0:0|0:0,0:0:0:0:
138,207,12538,2,0,B|207:193|207:193|372:209,1,220,2|8,0:0|0:0,0:0:0:0:
415,214,13518,1,2,0:0:0:0:
415,214,13714,1,8,0:0:0:0:
471,119,14107,6,0,P|413:107|363:115,1,110,6|8,0:0|0:0,0:0:0:0:
261,73,14891,2,0,P|207:80|154:68,1,110,2|8,0:0|0:0,0:0:0:0:
102,165,15676,2,0,L|112:251,1,55,2|0,0:0|0:0,0:0:0:0:
115,274,16068,1,8,0:0:0:0:
76,376,16460,1,2,0:0:0:0:
3,294,16853,1,8,0:0:0:0:
55,196,17245,6,0,P|63:153|46:84,1,110,2|8,0:0|0:0,0:0:0:0:
147,39,18030,2,0,L|282:53,1,110,2|8,0:0|0:0,0:0:0:0:
346,114,18814,2,0,P|352:151|343:187,1,55,2|0,0:0|0:0,0:0:0:0:
334,220,19206,1,8,0:0:0:0:
265,305,19599,1,2,0:0:0:0:
224,202,19991,1,8,0:0:0:0:
152,284,20383,6,0,P|106:292|45:278,1,110,6|8,0:0|0:0,0:0:0:0:
103,184,21168,2,0,P|149:176|210:190,1,110,2|8,0:0|0:0,0:0:0:0:
261,286,21952,2,0,B|248:218|248:218|266:104,1,165,2|2,0:0|0:3,0:0:0:0:
276,69,22737,1,2,0:0:0:0:
350,149,23129,1,8,0:0:0:0:
406,54,23522,6,0,P|464:45|522:63,2,110,2|8|2,0:0|0:0|0:0,0:0:0:0:
302,17,24698,1,8,0:0:0:0:
315,126,25091,2,0,L|322:183,2,55,2|2|8,0:0|0:3|0:0,0:0:0:0:
218,82,25875,2,0,L|225:25,2,55,2|2|8,0:0|0:3|0:0,0:0:0:0:
134,149,26660,6,0,P|223:186|322:121,1,220,6|2,0:0|0:0,0:0:0:0:
336,81,27641,1,2,0:3:0:0:
336,81,27837,1,8,0:0:0:0:
336,81,28033,2,0,P|365:153|340:253,1,165,2|8,0:3|0:0,0:0:0:0:
310,339,29014,1,2,0:0:0:0:
412,379,29406,1,8,0:0:0:0:
451,276,29798,6,0,B|465:210|465:210|442:48,1,220,2|2,0:0|0:0,0:0:0:0:
385,43,30779,1,2,0:3:0:0:
385,43,30975,1,8,0:0:0:0:
385,43,31171,2,0,P|330:53|262:37,1,110,2|0,0:3|0:0,0:0:0:0:
230,13,31760,2,0,L|245:149,1,110,8|2,0:0|0:0,0:0:0:0:
249,231,32544,1,8,0:0:0:0:
152,177,32936,6,0,P|95:173|29:212,1,110,6|8,0:0|0:0,0:0:0:0:
26,302,33721,1,2,0:0:0:0:
103,379,34113,1,8,0:0:0:0:
162,286,34506,2,0,L|151:174,1,110,2|8,0:0|0:0,0:0:0:0:
144,122,35094,1,2,0:3:0:0:
144,122,35290,2,0,L|219:113,1,55,2|2,0:0|0:3,0:0:0:0:
240,151,35682,2,0,L|315:159,1,55,8|2,0:0|0:3,0:0:0:0:
333,197,36075,5,2,0:0:0:0:
388,102,36467,2,0,B|430:91|430:91|504:105,2,110,8|2|8,0:0|0:0|0:0,0:0:0:0:
287,52,37644,2,0,L|199:42,1,55,2|2,0:0|0:3,0:0:0:0:
182,67,38036,2,0,L|94:76,1,55,8|2,0:0|0:3,0:0:0:0:
80,45,38428,2,0,P|69:105|90:170,1,110,2|8,0:0|0:0,0:0:0:0:
151,236,39213,6,0,L|40:225,2,110,6|8|2,0:0|0:0|0:0,0:0:0:0:
253,278,40390,1,8,0:0:0:0:
324,193,40782,2,0,L|331:118,2,55,2|2|8,0:0|0:3|0:0,0:0:0:0:
376,293,41567,2,0,B|384:365,2,55,2|2|8,0:0|0:3|0:0,0:0:0:0:
438,201,42351,6,0,L|451:86,2,110,2|8|2,0:0|0:0|0:0,0:0:0:0:
467,307,43528,1,8,0:0:0:0:
360,286,43920,2,0,L|367:349,2,55,2|2|8,0:0|0:3|0:0,0:0:0:0:
269,224,44705,2,0,L|275:169,2,55,2|2|8,0:0|0:3|0:0,0:0:0:0:
194,304,45490,6,0,P|132:317|85:299,1,110,6|8,0:0|0:0,0:0:0:0:
29,210,46274,2,0,L|43:84,1,110,2|8,0:0|0:0,0:0:0:0:
119,22,47059,2,0,L|177:15,2,55,2|2|8,0:0|0:3|0:0,0:0:0:0:
194,102,47843,2,0,L|252:108,2,55,2|2|8,0:0|0:3|0:0,0:0:0:0:
273,24,48628,6,0,P|331:11|388:24,1,110,2|8,0:0|0:0,0:0:0:0:
445,109,49412,2,0,P|387:122|330:109,1,110,2|8,0:0|0:0,0:0:0:0:
234,147,50197,2,0,L|227:221,2,55,2|2|8,0:0|0:3|0:0,0:0:0:0:
125,165,50982,2,0,L|133:239,1,55,2|2,0:0|0:3,0:0:0:0:
158,267,51374,2,0,L|151:325,1,55
122,368,51766,5,6,0:0:0:0:
419,143,64319,6,0,L|239:124,1,165,6|0,0:0|0:0,0:0:0:0:
200,119,65104,1,10,0:0:0:0:
171,225,65496,1,2,0:0:0:0:
88,153,65888,2,0,P|76:96|98:39,1,110,2|2,0:0|0:0,0:0:0:0:
198,18,66673,2,0,L|316:30,1,110,10|2,0:0|0:0,0:0:0:0:
416,48,67458,6,0,P|443:135|407:222,1,165,2|0,0:0|0:0,0:0:0:0:
381,240,68242,1,10,0:0:0:0:
318,149,68634,2,0,P|282:143|242:153,1,55,2|0,0:0|0:0,0:0:0:0:
210,159,69027,2,0,P|147:169|95:159,1,110,2|2,0:0|0:0,0:0:0:0:
32,76,69811,2,0,L|19:201,1,110,10|2,0:0|0:0,0:0:0:0:
77,279,70596,6,0,P|153:251|250:288,1,165,6|0,0:0|0:0,0:0:0:0:
262,317,71380,1,8,0:0:0:0:
367,351,71773,1,8,0:0:0:0:
431,262,72165,1,10,0:0:0:0:
367,173,72557,2,0,L|373:112,2,55,8|0|8,0:0|0:0|0:0,0:0:0:0:
262,207,73342,1,0,0:0:0:0:
157,239,73734,5,2,0:0:0:0:
202,138,74126,2,0,P|254:121|323:137,2,110,8|2|8,0:0|0:0|0:0,0:0:0:0:
91,134,75303,2,0,L|86:245,1,110,2|2,0:0|0:0,0:0:0:0:
131,344,76088,1,2,0:0:0:0:
228,292,76480,1,8,0:0:0:0:
168,199,76872,6,0,P|249:187|290:202,1,110,12|8,0:1|0:0,0:0:0:0:
363,259,77657,1,2,0:0:0:0:
413,166,78049,1,8,0:0:0:0:
413,166,78245,1,2,0:3:0:0:
413,166,78442,2,0,P|427:84|370:26,1,165,2|2,0:0|0:3,0:0:0:0:
325,4,79226,2,0,L|199:17,1,110,2|8,0:0|0:0,0:0:0:0:
106,31,80011,5,2,0:0:0:0:
160,126,80403,1,8,0:0:0:0:
56,164,80795,2,0,P|39:224|49:278,1,110,2|8,0:0|0:0,0:0:0:0:
99,300,81384,1,2,0:3:0:0:
99,300,81580,2,0,P|181:276|265:305,1,165,2|2,0:0|0:3,0:0:0:0:
294,336,82364,1,2,0:0:0:0:
399,362,82757,1,8,0:0:0:0:
378,254,83149,6,0,L|392:124,1,110,12|8,0:1|0:0,0:0:0:0:
283,172,83934,2,0,L|270:42,1,110,2|8,0:0|0:0,0:0:0:0:
266,14,84522,1,2,0:3:0:0:
266,14,84718,2,0,P|174:34|95:-4,1,165,2|2,0:0|0:3,0:0:0:0:
60,32,85503,1,2,0:0:0:0:
66,141,85895,1,8,0:0:0:0:
126,239,86287,6,0,L|134:313,2,55,2|2|8,0:0|0:3|0:0,0:0:0:0:
180,142,87072,2,0,L|188:67,2,55,2|2|8,0:0|0:3|0:0,0:0:0:0:
231,239,87856,1,2,0:0:0:0:
198,343,88249,1,8,0:0:0:0:
118,267,88641,2,0,P|115:231|123:187,1,55,2|0,0:0|0:0,0:0:0:0:
132,159,89033,1,8,0:0:0:0:
210,80,89425,6,0,P|267:68|330:87,1,110,12|8,0:1|0:0,0:0:0:0:
388,164,90210,1,2,0:0:0:0:
483,107,90602,1,8,0:0:0:0:
483,107,90798,1,2,0:3:0:0:
483,107,90995,2,0,B|497:164|497:164|486:272,1,165,2|2,0:0|0:3,0:0:0:0:
434,286,91779,2,0,P|373:295|306:269,1,110,2|8,0:0|0:0,0:0:0:0:
242,212,92564,5,2,0:0:0:0:
340,167,92956,1,8,0:0:0:0:
266,85,93348,2,0,L|157:73,1,110,2|8,0:0|0:0,0:0:0:0:
99,71,93937,1,2,0:3:0:0:
99,71,94133,2,0,P|118:155|80:245,1,165,2|2,0:0|0:3,0:0:0:0:
48,259,94917,1,2,0:0:0:0:
22,151,95310,1,8,0:0:0:0:
99,71,95702,6,0,L|235:86,1,110,12|8,0:1|0:0,0:0:0:0:
268,175,96487,2,0,L|404:159,1,110,2|8,0:0|0:0,0:0:0:0:
406,115,97075,1,2,0:3:0:0:
406,115,97271,2,0,B|385:165|385:165|402:307,1,165,2|2,0:0|0:3,0:0:0:0:
403,329,98056,1,2,0:0:0:0:
500,375,98448,1,8,0:0:0:0:
481,269,98840,6,0,L|490:183,2,55,2|8|2,0:0|0:0|0:0,0:0:0:0:
377,303,99625,2,0,L|386:388,2,55,8|4|8,0:3|0:3|0:0,0:0:0:0:
369,193,100409,5,6,0:0:0:0:
285,263,100802,1,8,0:0:0:0:
259,156,101194,2,0,P|203:140|144:159,1,110,2|8,0:0|0:0,0:0:0:0:
77,230,101979,2,0,P|133:246|192:227,1,110,2|8,0:0|0:0,0:0:0:0:
275,174,102763,2,0,L|287:292,1,110,2|8,0:0|0:0,0:0:0:0:
361,363,103548,6,0,L|373:244,1,110,2|8,0:0|0:0,0:0:0:0:
385,144,104332,1,2,0:0:0:0:
455,228,104725,1,8,0:0:0:0:
494,124,105117,2,0,P|509:57|488:-8,1,110,6|8,0:0|0:0,0:0:0:0:
410,79,105901,2,0,P|395:146|416:211,1,110,2|8,0:0|0:0,0:0:0:0:
458,281,106686,6,0,L|340:268,1,110,2|8,0:0|0:0,0:0:0:0:
307,168,107471,2,0,L|189:180,1,110,2|8,0:0|0:0,0:0:0:0:
130,265,108255,2,0,P|121:323|145:414,2,110,2|8|2,0:0|0:0|0:0,0:0:0:0:
100,159,109432,1,8,0:0:0:0:
193,100,109824,6,0,L|371:81,2,165,6|2|8,0:0|0:0|0:0,0:0:0:0:
40,161,111590,2,0,P|19:74|49:-25,2,165,2|6|6,0:0|0:0|0:0,0:0:0:0:
186,238,113355,6,0,B|249:231|249:231|294:243|294:243|374:234,2,165,12|12|6,0:0|0:0|0:0,0:0:0:0:
137,80,115120,2,0,P|217:58|307:103,1,165,6|8,0:0|0:0,0:0:0:0:
321,133,115905,1,0,0:0:0:0:
324,187,116101,5,6,0:0:0:0:
256,192,116493,12,0,122377,0:0:0:0:
