osu file format v14

[General]
AudioFilename: audio.mp3
AudioLeadIn: 0
PreviewTime: 76495
Countdown: 1
SampleSet: Soft
StackLeniency: 0.3
Mode: 0
LetterboxInBreaks: 0
WidescreenStoryboard: 0

[Editor]
Bookmarks: 10591,14122,26666,39228,51781,64334,76887,116116,122392
DistanceSpacing: 1
BeatDivisor: 6
GridSize: 16
TimelineZoom: 2

[Metadata]
Title:Sennen no Kotowari
TitleUnicode:千年ノ理
Artist:Nekomata Master
ArtistUnicode:猫叉Master
Creator:celerih
Version:GRAVITY OF THE MOON
Source:SOUND VOLTEX III GRAVITY WARS
Tags:MrSergio Realazy WORLD ELECTRONICA BEMANI BMS 東方永夜抄 ~ Imperishable Night. 東方Project Touhou Project Ultimate MasterPieces ZUN 千年幻想郷 Gensokyo Millennium ~ History of the Moon 八意 永琳 Yagokoro Eirin Final A Boss sdvx beatmania IIDX 22 PENDUAL BeatStream jubeat prop pop'n music ラピストリア REFLEC BEAT groovin'!! Upper Ultima Fox
BeatmapID:1372384
BeatmapSetID:647730

[Difficulty]
HPDrainRate:6
CircleSize:4.3
OverallDifficulty:8.2
ApproachRate:9.2
SliderMultiplier:1.7
SliderTickRate:1

[Events]
//Background and Video events
0,0,"Sennen Eirin BG.jpg",0,0
//Break Periods
//Storyboard Layer 0 (Background)
//Storyboard Layer 1 (Fail)
//Storyboard Layer 2 (Pass)
//Storyboard Layer 3 (Foreground)
//Storyboard Sound Samples

[TimingPoints]
-15,392.28506047728,4,2,1,60,1,0
1554,-133.333333333333,4,2,1,60,0,0
10576,-100,4,2,1,60,0,0
13714,-200,4,2,1,60,0,0
14107,-100,4,2,1,60,0,0
51766,-133.333333333333,4,2,1,60,0,0
64319,-111.111111111111,4,2,1,60,0,0
76872,-76.9230769230769,4,2,1,60,0,1
100409,-100,4,2,1,60,0,0

[Colours]
Combo1 : 109,78,120
Combo2 : 229,163,173
Combo3 : 165,99,99
Combo4 : 176,148,186

[HitObjects]
262,131,1161,5,0,0:0:0:0:
260,154,1259,1,0,0:0:0:0:
257,177,1357,1,0,0:0:0:0:
255,200,1456,1,0,0:0:0:0:
246,276,1554,6,0,B|252:212|252:212|280:157|280:157|289:87,1,191.250007295609,6|0,0:0|0:0,0:0:0:0:
329,233,2338,2,0,L|337:314,1,63.7500024318696,8|0,0:0|0:0,0:0:0:0:
352,377,2632,1,0,0:0:0:0:
352,377,2730,1,0,0:0:0:0:
395,188,2927,1,0,0:0:0:0:
174,296,3123,6,0,P|101:283|193:207,1,255.000009727478,0|8,0:0|0:0,0:0:0:0:
243,239,4103,1,0,0:0:0:0:
318,249,4300,1,0,0:0:0:0:
388,218,4496,1,0,0:0:0:0:
179,192,4692,6,0,B|139:287|216:287|180:376,1,191.250007295609,2|0,0:0|0:0,0:0:0:0:
243,239,5476,1,8,0:0:0:0:
233,116,5673,5,0,0:0:0:0:
230,112,5738,1,0,0:0:0:0:
227,108,5803,1,0,0:0:0:0:
224,104,5869,1,0,0:0:0:0:
169,258,6065,1,0,0:0:0:0:
354,109,6261,6,0,B|225:104|225:104|294:94,1,191.250007295609,0|0,0:0|0:0,0:0:0:0:
421,14,7046,2,0,P|428:54|420:95,1,63.7500024318696,8|0,0:0|0:0,0:0:0:0:
342,187,7438,1,0,0:0:0:0:
350,52,7634,1,0,0:0:0:0:
380,231,7830,5,6,0:0:0:0:
363,207,7928,1,0,0:0:0:0:
342,187,8026,1,0,0:0:0:0:
318,173,8124,1,0,0:0:0:0:
290,164,8222,1,0,0:0:0:0:
262,162,8321,1,0,0:0:0:0:
234,166,8419,1,0,0:0:0:0:
207,177,8517,1,0,0:0:0:0:
162,230,8615,5,8,0:0:0:0:
183,198,8713,1,0,0:0:0:0:
216,172,8811,1,0,0:0:0:0:
253,163,8909,1,0,0:0:0:0:
290,164,9007,1,0,0:0:0:0:
327,168,9105,1,0,0:0:0:0:
364,161,9203,1,0,0:0:0:0:
393,136,9301,1,0,0:0:0:0:
406,67,9399,5,2,0:0:0:0:
407,114,9497,1,0,0:0:0:0:
378,152,9595,1,0,0:0:0:0:
333,169,9694,1,0,0:0:0:0:
285,167,9792,1,0,0:0:0:0:
237,174,9890,1,0,0:0:0:0:
200,205,9988,1,0,0:0:0:0:
184,250,10086,1,0,0:0:0:0:
178,326,10184,5,8,0:0:0:0:
202,267,10282,1,0,0:0:0:0:
200,205,10380,1,0,0:0:0:0:
174,146,10478,1,0,0:0:0:0:
119,113,10576,1,2,0:0:0:0:
100,281,10772,1,0,0:0:0:0:
254,147,10968,6,0,B|339:121|339:172|420:147,1,170,2|2,0:0|0:0,0:0:0:0:
369,8,11557,1,0,0:0:0:0:
299,216,11753,1,8,0:0:0:0:
302,246,11851,1,8,0:0:0:0:
305,278,11949,1,2,0:0:0:0:
306,307,12047,1,2,0:0:0:0:
309,382,12145,2,0,L|317:294,1,85,2|0,0:0|0:0,0:0:0:0:
331,79,12538,6,0,P|371:87|421:74,1,85,2|0,0:0|0:0,0:0:0:0:
271,24,12930,2,0,P|231:16|181:29,1,85,2|0,0:0|0:0,0:0:0:0:
147,278,13322,1,8,0:0:0:0:
228,93,13518,1,2,0:0:0:0:
243,312,13714,6,0,P|248:281|243:245,1,63.75,8|0,0:0|0:0,0:0:0:0:
211,189,14107,6,0,P|256:190|314:166,1,85,6|2,0:0|0:3,0:0:0:0:
352,138,14401,1,0,0:0:0:0:
352,138,14499,2,0,P|350:188|353:240,1,85,8|2,0:0|0:3,0:0:0:0:
387,327,14891,1,2,0:0:0:0:
430,112,15087,1,2,0:3:0:0:
430,112,15186,1,0,0:0:0:0:
430,112,15284,2,0,L|334:101,1,85,8|2,0:0|0:3,0:0:0:0:
294,272,15676,6,0,P|307:212|284:140,1,127.5,2|0,0:0|0:0,0:0:0:0:
234,94,16068,2,0,B|191:85|191:85|147:94,1,85,8|2,0:0|0:3,0:0:0:0:
104,247,16460,2,0,P|99:197|111:146,1,85,2|2,0:0|0:3,0:0:0:0:
157,103,16755,1,0,0:0:0:0:
157,103,16853,2,0,B|197:94|197:94|240:103,1,85,8|2,0:0|0:3,0:0:0:0:
299,288,17245,6,0,L|192:299,1,85,2|2,0:0|0:3,0:0:0:0:
138,303,17539,1,0,0:0:0:0:
138,303,17637,2,0,P|143:262|138:218,1,85,8|2,0:0|0:3,0:0:0:0:
82,121,18030,1,2,0:0:0:0:
225,198,18226,1,2,0:3:0:0:
225,198,18324,1,0,0:0:0:0:
225,198,18422,2,0,L|327:208,1,85,8|2,0:0|0:3,0:0:0:0:
426,27,18814,6,0,P|349:16|297:49,1,127.5,2|0,0:0|0:0,0:0:0:0:
266,103,19206,2,0,L|255:205,1,85,8|2,0:0|0:3,0:0:0:0:
124,50,19599,2,0,P|171:40|235:58,1,85,2|2,0:0|0:3,0:0:0:0:
266,103,19893,1,0,0:0:0:0:
266,103,19991,2,0,L|276:205,1,85,8|2,0:0|0:3,0:0:0:0:
57,166,20383,6,0,P|52:122|62:70,1,85,6|2,0:0|0:3,0:0:0:0:
113,26,20678,1,0,0:0:0:0:
113,26,20776,2,0,P|65:39|11:27,1,85,8|2,0:0|0:3,0:0:0:0:
0,220,21168,1,2,0:0:0:0:
23,201,21266,1,0,0:0:0:0:
51,193,21364,1,2,0:3:0:0:
80,196,21462,1,0,0:0:0:0:
107,206,21560,2,0,L|203:195,1,85,8|2,0:0|0:3,0:0:0:0:
375,277,21952,6,0,L|247:264,1,127.5,2|0,0:0|0:0,0:0:0:0:
181,222,22345,2,0,L|94:231,1,85,8|2,0:0|0:3,0:0:0:0:
336,176,22737,2,0,L|244:185,1,85,2|2,0:0|0:3,0:0:0:0:
181,222,23031,1,0,0:0:0:0:
181,222,23129,2,0,L|94:212,1,85,8|2,0:0|0:3,0:0:0:0:
248,65,23522,5,2,0:0:0:0:
236,92,23620,1,0,0:0:0:0:
232,121,23718,1,2,0:3:0:0:
236,151,23816,1,0,0:0:0:0:
248,178,23914,2,0,P|259:232|241:280,1,85,8|2,0:0|0:3,0:0:0:0:
171,351,24306,1,2,0:0:0:0:
89,134,24502,1,2,0:3:0:0:
89,134,24600,1,0,0:0:0:0:
89,134,24698,2,0,L|99:32,1,85,8|2,0:0|0:3,0:0:0:0:
292,243,25091,6,0,P|250:252|202:243,1,85,2|2,0:0|0:3,0:0:0:0:
396,181,25483,2,2,P|438:172|486:181,1,85,8|2,0:0|0:3,0:0:0:0:
290,323,25875,1,2,0:0:0:0:
337,110,26071,1,2,0:3:0:0:
382,343,26268,2,0,L|392:244,1,85,8|0,0:0|0:0,0:0:0:0:
293,43,26660,6,0,P|248:37|182:55,1,85,6|2,0:0|0:3,0:0:0:0:
164,105,26954,1,0,0:0:0:0:
164,105,27052,2,0,L|153:205,1,85,8|2,0:0|0:3,0:0:0:0:
143,307,27444,1,2,0:0:0:0:
82,118,27641,1,2,0:3:0:0:
82,118,27739,1,0,0:0:0:0:
82,118,27837,1,8,0:0:0:0:
231,195,28033,1,2,0:3:0:0:
21,288,28229,6,0,P|4:232|18:165,1,127.5,2|0,0:0|0:0,0:0:0:0:
82,118,28621,2,0,B|168:108,1,85,8|2,0:0|0:3,0:0:0:0:
311,92,29014,1,2,0:0:0:0:
264,305,29210,1,2,0:3:0:0:
264,305,29275,1,0,0:0:0:0:
264,305,29340,1,0,0:0:0:0:
264,305,29406,2,0,P|238:308|208:301,2,42.5,8|0|2,0:0|0:0|0:3,0:0:0:0:
471,245,29798,6,0,L|376:235,1,85,2|2,0:0|0:3,0:0:0:0:
311,230,30092,1,0,0:0:0:0:
311,230,30190,2,0,P|317:186|311:145,1,85,8|2,0:0|0:3,0:0:0:0:
161,94,30583,1,2,0:0:0:0:
263,295,30779,1,2,0:3:0:0:
263,295,30877,1,0,0:0:0:0:
263,295,30975,1,8,0:0:0:0:
436,273,31171,1,2,0:3:0:0:
258,102,31367,6,0,B|161:94|161:94|200:110,1,127.5,2|0,0:0|0:0,0:0:0:0:
225,176,31760,2,0,P|233:227|226:278,1,85,8|2,0:0|0:3,0:0:0:0:
63,102,32152,2,0,B|160:94|160:94|121:110,1,127.5,2|0,0:0|0:0,0:0:0:0:
99,176,32544,2,0,P|91:227|98:278,1,85,8|2,0:0|0:3,0:0:0:0:
302,335,32936,6,0,L|412:323,1,85,6|2,0:0|0:3,0:0:0:0:
467,319,33231,1,0,0:0:0:0:
467,319,33329,2,0,P|476:272|452:215,1,85,8|2,0:0|0:3,0:0:0:0:
354,157,33721,1,2,0:0:0:0:
377,375,33917,1,2,0:3:0:0:
377,375,34015,1,0,0:0:0:0:
377,375,34113,2,0,L|366:279,1,85,8|2,0:0|0:3,0:0:0:0:
177,103,34506,6,0,P|237:116|309:93,1,127.5,2|0,0:0|0:0,0:0:0:0:
329,28,34898,2,0,B|241:18,1,85,8|2,0:0|0:3,0:0:0:0:
79,7,35290,1,2,0:0:0:0:
121,195,35486,1,2,0:3:0:0:
164,50,35682,1,8,0:0:0:0:
164,50,35781,1,0,0:0:0:0:
164,50,35879,1,2,0:3:0:0:
379,116,36075,6,0,P|333:126|278:118,1,85,2|2,0:0|0:3,0:0:0:0:
225,101,36369,1,0,0:0:0:0:
225,101,36467,2,0,L|213:208,1,85,8|2,0:0|0:3,0:0:0:0:
201,313,36859,1,2,0:0:0:0:
65,129,37055,1,2,0:3:0:0:
65,129,37154,1,0,0:0:0:0:
65,129,37252,2,0,P|110:114|161:126,1,85,8|2,0:0|0:3,0:0:0:0:
322,324,37644,5,2,0:0:0:0:
376,101,37840,1,2,0:3:0:0:
208,156,38036,1,8,0:0:0:0:
390,269,38232,1,2,0:3:0:0:
384,88,38428,1,2,0:0:0:0:
246,258,38625,1,2,0:3:0:0:
303,43,38821,2,0,L|292:143,1,85,8|2,0:0|0:3,0:0:0:0:
273,332,39213,5,6,0:0:0:0:
258,316,39311,1,0,0:0:0:0:
242,302,39409,1,2,0:3:0:0:
223,292,39507,1,0,0:0:0:0:
203,285,39605,1,8,0:0:0:0:
182,281,39703,1,0,0:0:0:0:
161,281,39801,1,2,0:3:0:0:
140,284,39900,1,0,0:0:0:0:
103,306,39998,5,2,0:0:0:0:
128,291,40096,1,0,0:0:0:0:
157,285,40194,1,2,0:3:0:0:
186,286,40292,1,0,0:0:0:0:
226,297,40390,1,8,0:0:0:0:
268,293,40488,1,0,0:0:0:0:
304,272,40586,1,2,0:3:0:0:
329,238,40684,1,0,0:0:0:0:
337,197,40782,6,0,L|342:145,3,42.5,2|0|2|0,0:0|0:0|0:3|0:0,0:0:0:0:
385,299,41174,2,0,L|390:350,3,42.5,8|0|2|0,0:0|0:0|0:3|0:0,0:0:0:0:
449,230,41567,5,2,0:0:0:0:
460,189,41665,1,0,0:0:0:0:
452,147,41763,1,2,0:3:0:0:
424,114,41861,1,0,0:0:0:0:
375,97,41959,1,8,0:0:0:0:
325,107,42057,1,0,0:0:0:0:
286,140,42155,1,2,0:3:0:0:
235,145,42253,1,0,0:0:0:0:
183,110,42351,5,2,0:0:0:0:
204,112,42449,1,0,0:0:0:0:
225,114,42547,1,2,0:3:0:0:
246,116,42646,1,0,0:0:0:0:
267,118,42744,1,8,0:0:0:0:
288,121,42842,1,0,0:0:0:0:
309,123,42940,1,2,0:3:0:0:
330,125,43038,1,0,0:0:0:0:
373,131,43136,5,2,0:0:0:0:
343,128,43234,1,0,0:0:0:0:
309,123,43332,1,2,0:3:0:0:
279,120,43430,1,0,0:0:0:0:
236,122,43528,1,8,0:0:0:0:
205,152,43626,1,0,0:0:0:0:
191,192,43724,1,2,0:3:0:0:
194,234,43822,1,0,0:0:0:0:
213,270,43920,6,0,L|269:277,3,42.5,2|0|2|0,0:0|0:0|0:3|0:0,0:0:0:0:
319,248,44313,2,0,L|375:241,3,42.5,8|0|2|0,0:0|0:0|0:3|0:0,0:0:0:0:
242,199,44705,5,2,0:0:0:0:
191,193,44803,1,0,0:0:0:0:
140,188,44901,1,2,0:3:0:0:
89,183,44999,1,0,0:0:0:0:
39,177,45097,1,8,0:0:0:0:
89,171,45195,1,0,0:0:0:0:
140,166,45293,1,2,0:3:0:0:
191,161,45391,1,0,0:0:0:0:
255,156,45490,5,6,0:0:0:0:
239,141,45588,1,0,0:0:0:0:
221,130,45686,1,2,0:3:0:0:
201,122,45784,1,0,0:0:0:0:
180,119,45882,1,8,0:0:0:0:
159,120,45980,1,0,0:0:0:0:
138,126,46078,1,2,0:3:0:0:
120,135,46176,1,0,0:0:0:0:
91,165,46274,5,2,0:0:0:0:
112,144,46372,1,0,0:0:0:0:
138,126,46470,1,2,0:3:0:0:
167,120,46568,1,0,0:0:0:0:
209,125,46666,1,8,0:0:0:0:
247,142,46764,1,0,0:0:0:0:
289,144,46863,1,2,0:3:0:0:
328,129,46961,1,0,0:0:0:0:
357,99,47059,6,0,L|362:152,3,42.5,2|0|2|0,0:0|0:0|0:3|0:0,0:0:0:0:
397,248,47451,2,0,L|402:194,3,42.5,8|0|2|0,0:0|0:0|0:3|0:0,0:0:0:0:
433,83,47843,5,2,0:0:0:0:
443,110,47941,1,0,0:0:0:0:
447,140,48039,1,2,0:3:0:0:
444,169,48137,1,0,0:0:0:0:
435,198,48236,1,8,0:0:0:0:
422,238,48334,1,0,0:0:0:0:
421,280,48432,1,2,0:3:0:0:
433,321,48530,1,0,0:0:0:0:
455,357,48628,5,2,0:0:0:0:
446,338,48726,1,0,0:0:0:0:
433,321,48824,1,2,0:3:0:0:
416,309,48922,1,0,0:0:0:0:
396,303,49020,1,8,0:0:0:0:
374,302,49118,1,0,0:0:0:0:
354,307,49216,1,2,0:3:0:0:
336,318,49314,1,0,0:0:0:0:
313,353,49412,5,2,0:0:0:0:
329,328,49510,1,0,0:0:0:0:
354,307,49609,1,2,0:3:0:0:
383,302,49707,1,0,0:0:0:0:
425,296,49805,1,8,0:0:0:0:
452,263,49903,1,0,0:0:0:0:
451,220,50001,1,2,0:3:0:0:
429,181,50099,1,0,0:0:0:0:
363,141,50197,5,2,0:0:0:0:
368,191,50295,1,0,0:0:0:0:
373,242,50393,1,2,0:3:0:0:
378,293,50491,1,0,0:0:0:0:
386,368,50589,5,8,0:0:0:0:
353,330,50687,1,0,0:0:0:0:
307,309,50785,1,2,0:3:0:0:
256,309,50883,1,0,0:0:0:0:
188,346,50982,5,2,0:0:0:0:
222,308,51080,1,0,0:0:0:0:
243,262,51178,1,2,0:3:0:0:
243,212,51276,1,0,0:0:0:0:
213,140,51374,6,0,L|207:84,1,42.5,8|0,0:0|0:0,0:0:0:0:
302,21,51570,2,0,L|296:76,1,42.5,0|0,0:0|0:0,0:0:0:0:
411,238,51766,6,0,P|339:204|250:270,1,191.250007295609,6|0,0:0|0:0,0:0:0:0:
175,269,52551,2,0,P|177:232|164:188,1,63.7500024318696,8|0,0:0|0:0,0:0:0:0:
151,134,52845,1,0,0:0:0:0:
151,134,52943,1,0,0:0:0:0:
101,244,53139,1,0,0:0:0:0:
239,164,53335,6,0,P|294:148|383:163,2,127.500004863739,0|2|8,0:0|0:0|0:0,0:0:0:0:
171,206,54316,1,0,0:0:0:0:
144,277,54512,1,0,0:0:0:0:
158,352,54708,1,0,0:0:0:0:
99,210,54904,6,0,B|88:82|88:82|109:157,1,191.250007295609,2|0,0:0|0:0,0:0:0:0:
173,235,55689,1,8,0:0:0:0:
156,354,55885,5,0,0:0:0:0:
167,364,55951,1,0,0:0:0:0:
167,364,56016,1,0,0:0:0:0:
167,364,56081,1,0,0:0:0:0:
96,285,56277,1,0,0:0:0:0:
223,195,56474,6,0,P|285:177|347:183,2,127.500004863739,0|2|8,0:0|0:0|0:0,0:0:0:0:
147,320,57650,1,0,0:0:0:0:
92,266,57847,1,0,0:0:0:0:
228,304,58043,6,0,P|296:315|369:295,1,127.500004863739,6|0,0:0|0:0,0:0:0:0:
492,281,58631,5,0,0:0:0:0:
492,281,58696,1,0,0:0:0:0:
492,281,58762,1,0,0:0:0:0:
492,281,58827,1,8,0:0:0:0:
469,353,59023,1,0,0:0:0:0:
394,371,59220,2,0,L|327:379,1,63.7500024318696,0|0,0:0|0:0,0:0:0:0:
161,341,59612,6,0,P|152:304|158:267,1,63.7500024318696,2|0,0:0|0:0,0:0:0:0:
184,209,59906,1,0,0:0:0:0:
184,209,60004,1,0,0:0:0:0:
231,269,60200,1,2,0:0:0:0:
84,341,60396,2,0,L|13:348,1,63.7500024318696,8|0,0:0|0:0,0:0:0:0:
3,273,60789,1,0,0:0:0:0:
23,199,60985,1,0,0:0:0:0:
154,278,61181,6,0,L|163:361,1,63.7500024318696,2|0,0:0|0:0,0:0:0:0:
268,196,61573,1,2,0:0:0:0:
193,212,61769,1,0,0:0:0:0:
154,278,61966,1,8,0:0:0:0:
252,346,62162,2,0,L|317:339,2,63.7500024318696,0|2|0,0:0|0:0|0:0,0:0:0:0:
118,211,62750,6,0,P|110:175|118:135,1,63.7500024318696,2|0,0:0|0:0,0:0:0:0:
182,254,63142,2,0,P|190:290|182:330,1,63.7500024318696,2|0,0:0|0:0,0:0:0:0:
181,46,63535,1,8,0:0:0:0:
330,136,63731,5,0,0:0:0:0:
330,136,63796,1,0,0:0:0:0:
330,136,63862,1,0,0:0:0:0:
330,136,63927,2,0,P|335:98|318:55,1,63.7500024318696,2|0,0:0|0:0,0:0:0:0:
182,254,64319,6,0,P|256:209|351:306,1,229.499992996216,6|0,0:0|0:0,0:0:0:0:
419,201,65104,2,0,P|424:158|411:104,1,76.4999976654053,10|0,0:0|0:0,0:0:0:0:
384,63,65398,1,0,0:0:0:0:
384,63,65496,1,2,0:0:0:0:
493,130,65692,1,0,0:0:0:0:
280,211,65888,6,0,B|216:220|216:220|115:200,2,152.999995330811,2|2|10,0:0|0:0|0:0,0:0:0:0:
370,195,66869,1,0,0:0:0:0:
304,130,67065,1,2,0:0:0:0:
213,143,67261,1,0,0:0:0:0:
264,291,67458,6,0,B|293:362|293:362|279:208,1,229.499992996216,2|0,0:0|0:0,0:0:0:0:
246,64,68242,1,10,0:0:0:0:
100,89,68438,5,0,0:0:0:0:
106,97,68504,1,0,0:0:0:0:
106,97,68569,1,0,0:0:0:0:
109,101,68634,1,2,0:0:0:0:
99,207,68831,1,0,0:0:0:0:
283,133,69027,6,0,P|357:123|428:165,2,152.999995330811,2|2|10,0:0|0:0|0:0,0:0:0:0:
221,200,70007,1,0,0:0:0:0:
204,290,70204,1,2,0:0:0:0:
236,375,70400,1,0,0:0:0:0:
338,205,70596,5,6,0:0:0:0:
334,167,70694,1,0,0:0:0:0:
319,132,70792,1,0,0:0:0:0:
293,104,70890,1,0,0:0:0:0:
260,85,70988,1,0,0:0:0:0:
222,79,71086,1,0,0:0:0:0:
185,84,71184,1,0,0:0:0:0:
151,102,71282,1,0,0:0:0:0:
110,162,71380,6,0,L|101:250,1,76.4999976654053,8|0,0:0|0:0,0:0:0:0:
281,312,71773,1,8,0:0:0:0:
315,295,71871,1,0,0:0:0:0:
353,293,71969,1,0,0:0:0:0:
389,303,72067,1,0,0:0:0:0:
444,351,72165,6,0,L|452:274,1,76.4999976654053,10|0,0:0|0:0,0:0:0:0:
463,204,72459,1,0,0:0:0:0:
463,204,72557,1,8,0:0:0:0:
426,194,72655,1,0,0:0:0:0:
387,191,72753,1,0,0:0:0:0:
351,204,72851,1,0,0:0:0:0:
289,241,72950,6,0,P|247:250|188:232,1,76.4999976654053,8|0,0:0|0:0,0:0:0:0:
57,114,73342,1,0,0:0:0:0:
53,151,73440,1,0,0:0:0:0:
49,189,73538,1,0,0:0:0:0:
45,227,73636,1,0,0:0:0:0:
36,301,73734,6,0,L|27:379,1,76.4999976654053,2|0,0:0|0:0,0:0:0:0:
125,216,74126,1,8,0:0:0:0:
194,184,74323,1,0,0:0:0:0:
269,198,74519,1,2,0:0:0:0:
436,276,74715,2,0,L|527:266,2,76.4999976654053,0|8|0,0:0|0:0|0:0,0:0:0:0:
243,128,75303,6,0,P|239:91|249:41,1,76.4999976654053,2|0,0:0|0:0,0:0:0:0:
217,255,75696,2,0,P|221:292|211:342,1,76.4999976654053,2|0,0:0|0:0,0:0:0:0:
168,129,76088,1,2,0:0:0:0:
295,247,76284,1,2,0:0:0:0:
284,22,76480,1,8,0:0:0:0:
247,11,76578,1,0,0:0:0:0:
208,8,76676,1,2,0:0:0:0:
171,20,76774,1,0,0:0:0:0:
116,70,76872,6,0,B|112:195|112:195|129:137,1,165.749992412568,12|0,0:1|0:0,0:0:0:0:
199,197,77265,2,0,P|166:257|51:257,1,184.166658236186,8|0,0:0|0:0,0:0:0:0:
34,269,77657,2,0,P|82:261|152:276,1,110.499994941712,2|2,0:0|0:3,0:0:0:0:
206,329,77951,1,0,0:0:0:0:
206,329,78049,1,8,0:0:0:0:
204,131,78245,1,2,0:3:0:0:
478,229,78442,6,0,B|538:243|538:243|371:247,1,220.999989883423,2|8,0:0|0:0,0:0:0:0:
155,248,79030,1,2,0:3:0:0:
365,130,79226,1,2,0:0:0:0:
374,75,79324,1,0,0:0:0:0:
349,25,79422,1,2,0:3:0:0:
295,10,79520,1,0,0:0:0:0:
241,21,79618,1,8,0:0:0:0:
211,35,79716,1,0,0:0:0:0:
179,43,79815,1,2,0:3:0:0:
146,38,79913,1,0,0:0:0:0:
83,0,80011,6,0,B|103:66|92:121|92:121|83:97|67:77,1,165.749992412568,2|0,0:0|0:0,0:0:0:0:
164,119,80403,2,0,P|147:171|91:192,1,110.499994941712,8|2,0:0|0:3,0:0:0:0:
12,32,80795,1,2,0:0:0:0:
231,84,80991,1,2,0:3:0:0:
231,84,81089,1,0,0:0:0:0:
231,84,81188,2,0,P|238:141|218:194,1,110.499994941712,8|2,0:0|0:3,0:0:0:0:
104,296,81580,6,0,B|89:147|89:147|115:230,1,220.999989883423,2|0,0:0|0:0,0:0:0:0:
36,345,82168,1,0,0:0:0:0:
327,223,82364,1,2,0:0:0:0:
129,172,82561,5,2,0:3:0:0:
129,172,82626,1,0,0:0:0:0:
129,172,82691,1,0,0:0:0:0:
129,172,82757,2,0,L|117:60,1,110.499994941712,8|0,0:0|0:0,0:0:0:0:
342,234,83149,6,0,B|325:358|325:358|309:326|325:298,1,165.749992412568,12|0,0:1|0:0,0:0:0:0:
407,301,83541,2,0,P|425:254|400:174,1,110.499994941712,8|2,0:0|0:3,0:0:0:0:
282,40,83934,2,0,L|412:26,1,110.499994941712,2|2,0:0|0:3,0:0:0:0:
471,21,84228,1,0,0:0:0:0:
471,21,84326,1,8,0:0:0:0:
215,0,84522,1,2,0:3:0:0:
294,252,84718,6,0,B|294:367|294:367|274:311,1,165.749992412568,2|0,0:0|0:0,0:0:0:0:
223,216,85110,2,0,P|259:182|322:178,1,110.499994941712,8|2,0:0|0:3,0:0:0:0:
128,65,85503,2,0,L|113:208,1,110.499994941712,2|2,0:0|0:3,0:0:0:0:
111,253,85797,1,0,0:0:0:0:
111,253,85895,1,8,0:0:0:0:
160,227,85993,1,0,0:0:0:0:
215,224,86091,1,2,0:3:0:0:
268,239,86189,1,0,0:0:0:0:
312,271,86287,5,2,0:0:0:0:
201,359,86483,1,2,0:3:0:0:
251,157,86679,1,8,0:0:0:0:
337,367,86876,1,2,0:3:0:0:
376,107,87072,1,2,0:0:0:0:
268,239,87268,1,2,0:3:0:0:
498,274,87464,5,8,0:0:0:0:
498,274,87529,1,0,0:0:0:0:
498,274,87595,1,0,0:0:0:0:
498,274,87660,1,2,0:3:0:0:
296,88,87856,6,0,B|184:84|184:84|239:105,1,165.749992412568,2|0,0:0|0:0,0:0:0:0:
221,14,88249,2,0,P|143:19|121:122,1,165.749992412568,8|0,0:0|0:0,0:0:0:0:
42,171,88641,2,0,B|54:120|30:50|30:50|19:134,1,165.749992412568,2|0,0:0|0:0,0:0:0:0:
0,236,89033,2,0,P|58:246|103:216,1,110.499994941712,8|0,0:0|0:0,0:0:0:0:
348,79,89425,6,0,B|410:80|484:91|484:91|455:64,1,165.749992412568,12|0,0:1|0:0,0:0:0:0:
291,19,89818,2,0,P|268:87|360:161,1,184.166658236186,8|0,0:0|0:0,0:0:0:0:
404,195,90210,2,0,P|352:176|282:191,1,110.499994941712,2|2,0:0|0:3,0:0:0:0:
225,232,90504,1,0,0:0:0:0:
225,232,90602,1,8,0:0:0:0:
264,367,90798,1,2,0:3:0:0:
291,172,90995,6,0,P|386:164|436:268,1,220.999989883423,2|8,0:0|0:0,0:0:0:0:
362,384,91583,1,2,0:3:0:0:
299,96,91779,1,2,0:0:0:0:
256,60,91877,1,0,0:0:0:0:
201,49,91975,1,2,0:3:0:0:
146,60,92073,1,0,0:0:0:0:
104,96,92171,1,8,0:0:0:0:
104,62,92270,1,0,0:0:0:0:
95,29,92368,1,2,0:3:0:0:
78,0,92466,1,0,0:0:0:0:
6,37,92564,6,0,B|12:101|12:101|9:158|9:158|20:124|32:111,1,165.749992412568,2|0,0:0|0:0,0:0:0:0:
104,96,92956,2,0,P|154:88|217:103,1,110.499994941712,8|2,0:0|0:3,0:0:0:0:
255,258,93348,1,2,0:0:0:0:
295,6,93544,1,2,0:3:0:0:
156,190,93741,2,0,L|143:308,1,110.499994941712,8|2,0:0|0:3,0:0:0:0:
293,129,94133,6,0,P|417:123|449:201,1,220.999989883423,2|8,0:0|0:0,0:0:0:0:
315,316,94721,1,2,0:3:0:0:
221,68,94917,1,2,0:0:0:0:
373,193,95114,5,2,0:3:0:0:
373,193,95179,1,0,0:0:0:0:
373,193,95244,1,0,0:0:0:0:
373,193,95310,2,0,P|425:210|491:194,1,110.499994941712,8|0,0:0|0:0,0:0:0:0:
205,255,95702,6,0,B|81:238|81:238|146:235,1,165.749992412568,12|0,0:1|0:0,0:0:0:0:
156,319,96094,2,0,P|205:330|272:303,1,110.499994941712,8|2,0:0|0:3,0:0:0:0:
380,167,96487,2,0,B|392:198|392:198|381:294,1,110.499994941712,2|2,0:0|0:3,0:0:0:0:
376,354,96781,1,0,0:0:0:0:
376,354,96879,1,8,0:0:0:0:
451,133,97075,1,2,0:3:0:0:
260,306,97271,6,0,P|177:330|88:286,1,165.749992412568,2|0,0:0|0:0,0:0:0:0:
27,378,97663,2,0,B|36:344|36:344|27:260,1,110.499994941712,8|2,0:0|0:3,0:0:0:0:
211,32,98056,2,0,P|223:101|200:157,1,110.499994941712,2|2,0:0|0:3,0:0:0:0:
182,211,98350,1,0,0:0:0:0:
182,211,98448,1,8,0:0:0:0:
128,198,98546,1,0,0:0:0:0:
73,205,98644,1,2,0:3:0:0:
26,234,98742,1,0,0:0:0:0:
0,285,98840,5,2,0:0:0:0:
144,363,99036,1,8,0:0:0:0:
210,76,99233,1,2,0:0:0:0:
103,277,99429,1,8,0:0:0:0:
93,13,99625,1,8,0:3:0:0:
182,211,99821,1,4,0:3:0:0:
0,111,100017,5,8,0:0:0:0:
0,111,100083,1,0,0:0:0:0:
0,111,100148,1,0,0:0:0:0:
0,111,100213,1,2,0:0:0:0:
240,65,100409,5,6,0:0:0:0:
269,57,100507,1,0,0:0:0:0:
298,57,100605,1,0,0:0:0:0:
327,63,100703,1,0,0:0:0:0:
354,77,100801,1,8,0:0:0:0:
376,97,100899,1,0,0:0:0:0:
391,122,100997,1,0,0:0:0:0:
396,151,101095,1,0,0:0:0:0:
388,193,101194,5,2,0:0:0:0:
396,152,101292,1,0,0:0:0:0:
385,111,101390,1,0,0:0:0:0:
356,81,101488,1,0,0:0:0:0:
316,69,101586,1,8,0:0:0:0:
273,71,101684,1,0,0:0:0:0:
231,81,101782,1,0,0:0:0:0:
188,76,101881,1,0,0:0:0:0:
152,52,101979,6,0,L|143:124,3,42.5,2|0|0|0,0:0|0:0|0:0|0:0,0:0:0:0:
89,147,102371,2,0,L|97:219,3,42.5,8|0|0|0,0:0|0:0|0:0|0:0,0:0:0:0:
156,238,102763,2,0,L|147:310,3,42.5,2|0|0|0,0:0|0:0|0:0|0:0,0:0:0:0:
92,330,103155,2,0,L|100:402,3,42.5,8|0|0|0,0:0|0:0|0:0|0:0,0:0:0:0:
229,286,103548,5,2,0:0:0:0:
249,279,103646,1,0,0:0:0:0:
270,276,103744,1,0,0:0:0:0:
291,277,103842,1,0,0:0:0:0:
311,284,103940,1,8,0:0:0:0:
331,290,104038,1,0,0:0:0:0:
352,293,104136,1,0,0:0:0:0:
373,291,104234,1,0,0:0:0:0:
413,278,104332,5,2,0:0:0:0:
373,291,104430,1,0,0:0:0:0:
331,290,104528,1,0,0:0:0:0:
291,277,104627,1,0,0:0:0:0:
247,250,104725,1,8,0:0:0:0:
199,235,104823,1,0,0:0:0:0:
148,234,104921,1,0,0:0:0:0:
102,250,105019,1,0,0:0:0:0:
67,320,105117,6,0,L|60:383,3,42.5,6|0|0|0,0:0|0:0|0:0|0:0,0:0:0:0:
0,232,105509,2,0,L|7:295,3,42.5,8|0|0|0,0:0|0:0|0:0|0:0,0:0:0:0:
70,153,105901,2,0,L|63:216,3,42.5,2|0|0|0,0:0|0:0|0:0|0:0,0:0:0:0:
2,69,106294,2,0,L|9:132,3,42.5,8|0|0|0,0:0|0:0|0:0|0:0,0:0:0:0:
137,112,106686,5,2,0:0:0:0:
153,137,106784,1,0,0:0:0:0:
174,158,106882,1,0,0:0:0:0:
199,173,106980,1,0,0:0:0:0:
228,182,107078,1,8,0:0:0:0:
257,183,107176,1,0,0:0:0:0:
287,177,107274,1,0,0:0:0:0:
313,164,107372,1,0,0:0:0:0:
347,139,107471,5,2,0:0:0:0:
314,165,107569,1,0,0:0:0:0:
274,180,107667,1,0,0:0:0:0:
232,181,107765,1,0,0:0:0:0:
191,169,107863,1,8,0:0:0:0:
148,164,107961,1,0,0:0:0:0:
107,176,108059,1,0,0:0:0:0:
78,207,108157,1,0,0:0:0:0:
72,283,108255,5,2,0:0:0:0:
71,232,108353,1,0,0:0:0:0:
98,188,108451,1,0,0:0:0:0:
148,164,108549,1,0,0:0:0:0:
201,150,108647,1,8,0:0:0:0:
236,113,108746,1,0,0:0:0:0:
236,60,108844,1,0,0:0:0:0:
204,20,108942,1,0,0:0:0:0:
148,16,109040,5,2,0:0:0:0:
104,38,109138,1,0,0:0:0:0:
83,84,109236,1,0,0:0:0:0:
90,134,109334,1,0,0:0:0:0:
105,186,109432,1,8,0:0:0:0:
108,236,109530,1,0,0:0:0:0:
95,285,109628,1,0,0:0:0:0:
58,321,109726,1,0,0:0:0:0:
0,368,109824,6,0,L|145:352,1,127.5,6|2,0:0|0:0,0:0:0:0:
201,345,110217,1,8,0:0:0:0:
150,82,110413,2,0,P|128:153|140:219,1,127.5,2|2,0:0|0:0,0:0:0:0:
187,266,110805,1,0,0:0:0:0:
333,43,111001,6,0,B|238:37|238:37|277:50,1,127.5,8|2,0:0|0:0,0:0:0:0:
299,114,111393,1,0,0:0:0:0:
134,204,111590,2,0,P|72:213|-11:188,1,127.5,2|2,0:0|0:0,0:0:0:0:
0,122,111982,1,0,0:0:0:0:
195,0,112178,6,0,L|210:146,1,127.5,6|2,0:0|0:0,0:0:0:0:
217,206,112570,1,8,0:0:0:0:
334,64,112766,2,0,B|431:59|431:59|385:77,1,127.5,6|2,0:0|0:0,0:0:0:0:
370,138,113159,1,0,0:0:0:0:
267,281,113355,6,0,P|201:289|131:244,1,127.5,12|2,0:0|0:0,0:0:0:0:
135,186,113747,1,0,0:0:0:0:
343,218,113943,2,0,L|488:202,1,127.5,12|8,0:0|0:0,0:0:0:0:
500,276,114336,1,0,0:0:0:0:
267,281,114532,6,0,P|245:228|273:141,1,127.5,6|2,0:0|0:0,0:0:0:0:
316,110,114924,1,8,0:0:0:0:
182,325,115120,2,0,B|161:231|161:231|186:269,1,127.5,6|2,0:0|0:0,0:0:0:0:
251,290,115512,1,0,0:0:0:0:
256,68,115709,5,8,0:0:0:0:
161,233,115905,1,0,0:0:0:0:
481,108,116101,1,6,0:0:0:0:
256,192,116199,12,0,122377,0:0:0:0:
