osu file format v14

[General]
AudioFilename: audio.mp3
AudioLeadIn: 0
PreviewTime: 76882
Countdown: 0
SampleSet: Normal
StackLeniency: 0.7
Mode: 1
LetterboxInBreaks: 0
WidescreenStoryboard: 1

[Editor]
Bookmarks: 7835,14112,26666,39220,51774,64328,76882,100421,105227,116113
DistanceSpacing: 1.1
BeatDivisor: 4
GridSize: 8
TimelineZoom: 1

[Metadata]
Title:Sennen no Kotowari
TitleUnicode:千年ノ理
Artist:Nekomata Master
ArtistUnicode:猫叉Master
Creator:Volta
Version:Muzukashii
Source:REFLEC BEAT groovin'!! Upper
Tags:ORLD/ELECTRONICA ZUN 千年幻想郷 ~ History of the Moon BEMANI× 東方Project Ultimate MasterPieces Naoyuki Sato beatmania IIDX 22 PENDUAL
BeatmapID:1754923
BeatmapSetID:833644

[Difficulty]
HPDrainRate:6
CircleSize:5
OverallDifficulty:5
ApproachRate:6
SliderMultiplier:1.4
SliderTickRate:1

[Events]
//Background and Video events
0,0,"dddd.jpg",0,40
//Break Periods
//Storyboard Layer 0 (Background)
//Storyboard Layer 1 (Fail)
//Storyboard Layer 2 (Pass)
//Storyboard Layer 3 (Foreground)
//Storyboard Sound Samples

[TimingPoints]
1559,392.310710082385,4,1,1,90,1,0
39220,-100,4,1,1,90,0,1
51774,-100,4,1,1,90,0,0
76882,-100,4,1,1,90,0,1
116113,-100,4,1,1,90,0,0

[HitObjects]
258,171,1559,5,4,0:0:0:0:
148,142,2147,1,0,0:0:0:0:
258,171,2343,1,8,0:0:0:0:
215,144,2735,1,8,0:0:0:0:
179,118,3128,1,0,0:0:0:0:
258,171,3912,1,8,0:0:0:0:
201,85,4305,1,8,0:0:0:0:
51,140,4697,1,0,0:0:0:0:
256,96,5285,1,0,0:0:0:0:
51,140,5482,1,8,0:0:0:0:
210,96,5874,1,8,0:0:0:0:
224,76,6266,1,0,0:0:0:0:
52,140,7051,1,8,0:0:0:0:
224,77,7443,1,0,0:0:0:0:
52,140,7835,1,4,0:0:0:0:
88,145,8228,1,0,0:0:0:0:
75,173,8424,1,0,0:0:0:0:
241,122,8620,1,8,0:0:0:0:
221,169,9012,1,8,0:0:0:0:
168,128,9209,1,0,0:0:0:0:
241,122,9405,1,0,0:0:0:0:
168,128,9601,1,8,0:0:0:0:
99,140,9797,1,0,0:0:0:0:
215,130,9895,1,0,0:0:0:0:
215,130,9993,1,0,0:0:0:0:
241,122,10189,1,8,0:0:0:0:
223,260,10582,1,0,0:0:0:0:
223,260,10778,1,8,0:0:0:0:
121,109,10974,1,0,0:0:0:0:
247,120,11366,1,0,0:0:0:0:
247,120,11562,1,8,0:0:0:0:
121,109,11759,1,8,0:0:0:0:
198,116,11955,1,0,0:0:0:0:
198,116,12053,1,0,0:0:0:0:
114,139,12151,1,0,0:0:0:0:
125,132,12347,1,0,0:0:0:0:
154,80,12543,1,8,0:0:0:0:
167,149,13328,1,8,0:0:0:0:
284,144,13524,1,0,0:0:0:0:
167,149,13720,1,8,0:0:0:0:
125,159,14112,5,4,0:0:0:0:
223,107,14407,1,8,0:0:0:0:
292,147,14701,1,8,0:0:0:0:
179,102,14897,1,0,0:0:0:0:
199,75,15191,1,8,0:0:0:0:
188,95,15486,1,8,0:0:0:0:
179,102,15682,1,0,0:0:0:0:
230,114,15976,1,8,0:0:0:0:
170,128,16270,1,8,0:0:0:0:
199,75,16466,1,0,0:0:0:0:
100,146,16662,1,0,0:0:0:0:
179,102,16859,1,8,0:0:0:0:
179,102,17251,1,0,0:0:0:0:
303,177,17545,1,8,0:0:0:0:
230,98,17839,1,8,0:0:0:0:
195,138,18036,1,0,0:0:0:0:
205,90,18330,1,8,0:0:0:0:
75,120,18624,1,8,0:0:0:0:
195,138,18820,1,0,0:0:0:0:
230,138,19114,1,8,0:0:0:0:
181,82,19409,1,8,0:0:0:0:
174,138,19605,1,0,0:0:0:0:
109,149,19997,1,8,0:0:0:0:
195,138,20389,1,4,0:0:0:0:
193,109,21174,1,8,0:0:0:0:
240,112,21566,1,8,0:0:0:0:
193,109,21959,1,0,0:0:0:0:
144,128,22253,1,8,0:0:0:0:
86,138,22547,1,8,0:0:0:0:
63,111,22743,1,0,0:0:0:0:
193,109,23038,1,8,0:0:0:0:
72,138,23332,1,0,0:0:0:0:
193,109,23528,1,8,0:0:0:0:
193,109,23626,1,8,0:0:0:0:
193,109,23724,1,8,0:0:0:0:
225,89,23920,1,0,0:0:0:0:
186,111,24116,1,0,0:0:0:0:
193,109,24313,1,8,0:0:0:0:
225,89,24705,1,8,0:0:0:0:
193,109,25097,1,0,0:0:0:0:
170,92,25391,1,8,0:0:0:0:
170,92,25686,1,0,0:0:0:0:
222,135,25882,1,0,0:0:0:0:
234,184,25980,1,0,0:0:0:0:
148,153,26078,1,0,0:0:0:0:
222,135,26274,1,8,0:0:0:0:
193,109,26666,1,4,0:0:0:0:
70,163,27059,1,8,0:0:0:0:
193,109,27843,1,8,0:0:0:0:
283,109,28236,1,0,0:0:0:0:
283,109,28530,1,8,0:0:0:0:
283,109,28824,1,8,0:0:0:0:
193,109,29020,1,0,0:0:0:0:
82,142,29216,1,0,0:0:0:0:
246,106,29413,1,8,0:0:0:0:
121,151,29511,1,8,0:0:0:0:
137,140,29609,1,8,0:0:0:0:
197,110,29805,1,0,0:0:0:0:
191,153,30099,1,8,0:0:0:0:
178,138,30393,1,8,0:0:0:0:
195,155,30589,1,0,0:0:0:0:
204,126,30982,1,8,0:0:0:0:
193,109,31374,1,0,0:0:0:0:
125,149,31668,1,8,0:0:0:0:
205,131,31963,1,8,0:0:0:0:
193,109,32159,1,0,0:0:0:0:
176,153,32355,1,0,0:0:0:0:
271,96,32551,1,8,0:0:0:0:
193,109,32943,1,4,0:0:0:0:
310,146,33728,1,8,0:0:0:0:
310,146,34120,1,8,0:0:0:0:
266,104,34513,5,0,0:0:0:0:
191,154,34807,1,8,0:0:0:0:
194,195,35101,1,8,0:0:0:0:
266,104,35297,1,0,0:0:0:0:
194,195,35493,1,8,0:0:0:0:
266,104,35690,1,8,0:0:0:0:
81,143,35788,1,8,0:0:0:0:
306,83,35886,1,8,0:0:0:0:
266,104,36082,1,0,0:0:0:0:
210,128,36376,1,8,0:0:0:0:
154,109,36670,1,8,0:0:0:0:
266,104,36866,1,0,0:0:0:0:
174,178,37259,1,8,0:0:0:0:
266,104,37651,1,0,0:0:0:0:
80,128,37847,1,0,0:0:0:0:
77,132,38043,1,8,0:0:0:0:
174,178,38240,1,0,0:0:0:0:
74,124,38436,1,8,0:0:0:0:
239,82,38632,1,8,0:0:0:0:
239,82,38828,1,0,0:0:0:0:
266,104,39220,1,4,0:0:0:0:
239,100,39613,1,8,0:0:0:0:
239,100,39809,1,0,0:0:0:0:
170,145,40005,1,8,0:0:0:0:
201,123,40201,1,0,0:0:0:0:
71,144,40397,1,8,0:0:0:0:
201,123,40495,1,8,0:0:0:0:
201,123,40593,1,8,0:0:0:0:
170,145,40790,1,0,0:0:0:0:
201,123,41182,1,0,0:0:0:0:
356,246,41378,1,8,0:0:0:0:
170,145,41574,1,0,0:0:0:0:
73,152,41770,1,0,0:0:0:0:
197,68,41967,1,8,0:0:0:0:
156,162,42065,1,8,0:0:0:0:
156,162,42163,1,8,0:0:0:0:
170,145,42359,1,0,0:0:0:0:
185,94,42751,1,8,0:0:0:0:
185,94,42947,1,0,0:0:0:0:
170,145,43143,1,8,0:0:0:0:
217,187,43340,1,0,0:0:0:0:
185,94,43536,1,8,0:0:0:0:
217,192,43634,1,8,0:0:0:0:
217,193,43732,1,8,0:0:0:0:
170,145,43928,1,0,0:0:0:0:
209,99,44713,1,8,0:0:0:0:
170,145,44909,1,0,0:0:0:0:
209,99,45105,1,8,0:0:0:0:
170,145,45497,5,4,0:0:0:0:
142,141,45890,1,0,0:0:0:0:
142,141,46086,1,8,0:0:0:0:
170,145,46282,1,0,0:0:0:0:
197,158,46380,1,0,0:0:0:0:
197,158,46478,1,0,0:0:0:0:
128,127,46674,1,8,0:0:0:0:
197,158,46870,1,8,0:0:0:0:
170,145,47067,1,0,0:0:0:0:
213,158,47459,1,0,0:0:0:0:
213,158,47655,1,8,0:0:0:0:
246,124,47851,1,0,0:0:0:0:
170,145,47949,1,0,0:0:0:0:
246,124,48047,1,0,0:0:0:0:
246,124,48243,1,8,0:0:0:0:
163,118,48440,1,8,0:0:0:0:
170,145,48636,1,0,0:0:0:0:
147,126,49028,1,0,0:0:0:0:
147,126,49224,1,8,0:0:0:0:
170,145,49420,1,0,0:0:0:0:
150,154,49617,1,8,0:0:0:0:
147,126,49813,1,0,0:0:0:0:
214,151,49911,1,0,0:0:0:0:
206,124,50009,1,0,0:0:0:0:
170,145,50205,1,8,0:0:0:0:
170,145,50597,1,8,0:0:0:0:
170,145,50990,1,8,0:0:0:0:
170,145,51382,1,8,0:0:0:0:
170,145,51774,1,4,0:0:0:0:
177,130,52363,1,0,0:0:0:0:
329,164,52559,1,8,0:0:0:0:
218,137,52951,1,8,0:0:0:0:
218,137,53344,1,0,0:0:0:0:
236,79,53736,1,0,0:0:0:0:
299,168,54128,1,8,0:0:0:0:
299,168,54913,1,0,0:0:0:0:
214,159,55501,1,0,0:0:0:0:
299,168,55697,1,8,0:0:0:0:
201,100,56090,1,8,0:0:0:0:
201,100,56482,1,0,0:0:0:0:
122,126,56874,1,0,0:0:0:0:
299,168,57267,1,8,0:0:0:0:
299,168,58051,1,4,0:0:0:0:
239,153,58640,1,0,0:0:0:0:
217,126,58836,1,8,0:0:0:0:
228,109,59228,1,8,0:0:0:0:
233,104,59620,1,0,0:0:0:0:
317,126,60013,1,8,0:0:0:0:
254,144,60209,1,0,0:0:0:0:
244,93,60405,1,8,0:0:0:0:
244,93,61190,1,0,0:0:0:0:
228,111,61582,1,0,0:0:0:0:
244,93,61974,1,8,0:0:0:0:
254,144,62367,1,0,0:0:0:0:
306,111,62563,1,8,0:0:0:0:
244,93,62759,1,0,0:0:0:0:
246,133,63151,1,0,0:0:0:0:
246,133,63544,1,8,0:0:0:0:
198,164,63740,1,0,0:0:0:0:
198,164,63838,1,0,0:0:0:0:
3,157,63936,1,0,0:0:0:0:
244,93,64328,1,4,0:0:0:0:
293,171,64721,1,0,0:0:0:0:
218,101,64917,5,0,0:0:0:0:
168,130,65113,1,8,0:0:0:0:
168,121,65309,1,8,0:0:0:0:
168,121,65407,1,8,0:0:0:0:
234,88,65505,1,8,0:0:0:0:
168,121,65701,1,0,0:0:0:0:
168,130,65897,1,0,0:0:0:0:
222,111,66290,1,0,0:0:0:0:
109,171,66682,1,8,0:0:0:0:
168,130,67074,1,0,0:0:0:0:
204,206,67271,1,8,0:0:0:0:
168,130,67467,1,0,0:0:0:0:
110,171,67859,1,0,0:0:0:0:
110,171,68055,1,0,0:0:0:0:
168,130,68251,1,8,0:0:0:0:
208,113,68447,1,8,0:0:0:0:
208,113,68546,1,8,0:0:0:0:
208,113,68644,1,8,0:0:0:0:
310,119,68840,1,8,0:0:0:0:
163,169,69036,1,0,0:0:0:0:
218,118,69428,1,0,0:0:0:0:
193,155,69821,1,8,0:0:0:0:
163,68,70213,1,0,0:0:0:0:
157,142,70409,1,8,0:0:0:0:
290,142,70605,1,4,0:0:0:0:
88,145,70997,1,0,0:0:0:0:
75,173,71193,1,0,0:0:0:0:
241,122,71389,1,8,0:0:0:0:
134,147,71586,1,8,0:0:0:0:
134,147,71684,1,8,0:0:0:0:
221,169,71781,1,8,0:0:0:0:
168,128,71978,1,0,0:0:0:0:
241,122,72174,1,0,0:0:0:0:
168,128,72370,1,8,0:0:0:0:
99,140,72566,1,0,0:0:0:0:
215,130,72664,1,0,0:0:0:0:
215,130,72762,1,0,0:0:0:0:
241,122,72958,1,8,0:0:0:0:
223,260,73351,1,0,0:0:0:0:
223,260,73547,1,8,0:0:0:0:
121,109,73743,1,0,0:0:0:0:
247,120,74135,1,0,0:0:0:0:
247,120,74331,1,8,0:0:0:0:
121,109,74528,1,0,0:0:0:0:
198,116,74724,1,0,0:0:0:0:
198,116,74822,1,0,0:0:0:0:
114,139,74920,1,0,0:0:0:0:
125,132,75116,5,0,0:0:0:0:
154,80,75312,1,8,0:0:0:0:
234,150,76098,5,0,0:0:0:0:
234,150,76490,1,8,0:0:0:0:
206,117,76588,1,8,0:0:0:0:
185,137,76686,1,8,0:0:0:0:
52,162,76882,1,4,0:0:0:0:
234,150,77274,1,8,0:0:0:0:
123,134,77667,1,8,0:0:0:0:
252,148,77863,1,8,0:0:0:0:
123,134,78059,1,0,0:0:0:0:
188,131,78255,1,8,0:0:0:0:
123,134,78451,1,0,0:0:0:0:
239,249,78648,1,0,0:0:0:0:
239,249,78746,1,0,0:0:0:0:
252,148,78844,1,0,0:0:0:0:
252,148,79040,1,8,0:0:0:0:
123,134,79236,1,8,0:0:0:0:
280,127,79628,1,0,0:0:0:0:
126,149,79824,1,0,0:0:0:0:
123,134,80021,1,8,0:0:0:0:
245,126,80413,1,0,0:0:0:0:
132,155,80805,1,8,0:0:0:0:
292,110,81001,1,0,0:0:0:0:
123,134,81198,1,8,0:0:0:0:
172,142,81394,1,0,0:0:0:0:
172,142,81590,1,0,0:0:0:0:
172,142,81786,1,8,0:0:0:0:
172,142,81884,1,8,0:0:0:0:
292,110,81982,1,8,0:0:0:0:
292,110,82178,1,0,0:0:0:0:
93,138,82375,1,8,0:0:0:0:
237,118,83159,5,4,0:0:0:0:
110,148,83551,1,8,0:0:0:0:
237,118,83944,1,0,0:0:0:0:
132,144,84140,1,8,0:0:0:0:
160,114,84336,1,0,0:0:0:0:
215,188,84532,1,0,0:0:0:0:
160,114,84728,1,8,0:0:0:0:
163,177,84925,1,0,0:0:0:0:
143,161,85023,1,0,0:0:0:0:
106,120,85121,1,0,0:0:0:0:
106,120,85317,1,8,0:0:0:0:
160,114,85513,1,8,0:0:0:0:
168,127,85905,1,8,0:0:0:0:
166,185,86101,1,8,0:0:0:0:
132,113,86298,1,0,0:0:0:0:
172,180,86690,1,8,0:0:0:0:
168,127,86886,1,0,0:0:0:0:
172,180,87082,1,8,0:0:0:0:
207,142,87278,1,0,0:0:0:0:
172,180,87475,1,8,0:0:0:0:
212,133,87573,1,8,0:0:0:0:
111,106,87671,1,8,0:0:0:0:
160,114,87867,1,0,0:0:0:0:
200,117,88259,1,8,0:0:0:0:
218,139,88455,1,0,0:0:0:0:
200,117,88651,1,8,0:0:0:0:
316,221,89436,5,4,0:0:0:0:
234,150,89828,1,8,0:0:0:0:
123,134,90221,1,8,0:0:0:0:
252,148,90417,1,8,0:0:0:0:
123,134,90613,1,0,0:0:0:0:
188,131,90809,1,8,0:0:0:0:
123,134,91005,1,0,0:0:0:0:
239,249,91202,1,0,0:0:0:0:
239,249,91300,1,0,0:0:0:0:
252,148,91398,1,0,0:0:0:0:
252,148,91594,1,8,0:0:0:0:
123,134,91790,1,8,0:0:0:0:
280,127,92182,1,0,0:0:0:0:
126,149,92378,1,0,0:0:0:0:
123,134,92575,1,8,0:0:0:0:
245,126,92967,1,0,0:0:0:0:
132,155,93359,1,8,0:0:0:0:
292,110,93555,1,0,0:0:0:0:
123,134,93752,1,8,0:0:0:0:
172,142,93948,1,0,0:0:0:0:
172,142,94144,1,0,0:0:0:0:
172,142,94340,1,8,0:0:0:0:
172,142,94438,1,8,0:0:0:0:
292,110,94536,1,8,0:0:0:0:
292,110,94732,1,0,0:0:0:0:
93,138,94929,1,8,0:0:0:0:
237,118,95713,5,4,0:0:0:0:
110,148,96105,1,8,0:0:0:0:
237,118,96498,1,0,0:0:0:0:
132,144,96694,1,8,0:0:0:0:
160,114,96890,1,0,0:0:0:0:
215,188,97086,1,0,0:0:0:0:
160,114,97282,1,8,0:0:0:0:
163,177,97479,1,0,0:0:0:0:
143,161,97577,1,0,0:0:0:0:
106,120,97675,1,0,0:0:0:0:
106,120,97871,5,8,0:0:0:0:
160,114,98067,1,8,0:0:0:0:
168,127,98459,1,8,0:0:0:0:
132,113,98852,1,0,0:0:0:0:
166,146,99048,1,8,0:0:0:0:
210,140,99244,1,0,0:0:0:0:
282,147,99440,1,8,0:0:0:0:
290,142,99636,1,0,0:0:0:0:
290,142,99832,1,0,0:0:0:0:
210,140,100028,1,8,0:0:0:0:
290,142,100127,1,8,0:0:0:0:
290,142,100225,1,8,0:0:0:0:
210,140,100421,1,0,0:0:0:0:
270,91,101009,1,8,0:0:0:0:
214,131,101205,1,0,0:0:0:0:
150,120,101598,1,8,0:0:0:0:
270,91,101990,1,0,0:0:0:0:
150,120,102186,1,8,0:0:0:0:
270,91,102382,1,0,0:0:0:0:
251,139,102480,1,0,0:0:0:0:
251,139,102579,1,0,0:0:0:0:
260,84,102775,1,8,0:0:0:0:
260,84,103167,1,0,0:0:0:0:
260,84,103363,1,8,0:0:0:0:
285,112,103559,1,0,0:0:0:0:
270,129,103952,1,8,0:0:0:0:
260,84,104344,1,8,0:0:0:0:
141,117,104540,1,8,0:0:0:0:
80,140,104736,5,0,0:0:0:0:
214,94,104834,1,0,0:0:0:0:
141,117,104932,1,0,0:0:0:0:
80,140,105129,5,8,0:0:0:0:
203,102,105717,1,8,0:0:0:0:
136,133,105913,1,0,0:0:0:0:
214,138,106305,1,8,0:0:0:0:
149,142,106698,1,8,0:0:0:0:
286,110,106894,1,8,0:0:0:0:
214,138,107090,1,0,0:0:0:0:
92,151,107188,1,0,0:0:0:0:
214,138,107286,1,0,0:0:0:0:
263,141,107482,1,8,0:0:0:0:
263,141,107875,1,0,0:0:0:0:
170,137,108071,1,8,0:0:0:0:
170,137,108267,1,0,0:0:0:0:
75,141,108659,1,8,0:0:0:0:
287,100,109052,1,8,0:0:0:0:
105,142,109248,1,8,0:0:0:0:
208,126,109444,1,0,0:0:0:0:
287,100,109836,1,8,0:0:0:0:
304,126,110130,1,0,0:0:0:0:
265,62,110425,1,8,0:0:0:0:
215,117,110719,1,0,0:0:0:0:
177,111,111013,1,8,0:0:0:0:
245,88,111602,1,8,0:0:0:0:
273,117,111896,1,0,0:0:0:0:
88,128,112190,1,8,0:0:0:0:
150,159,112484,1,0,0:0:0:0:
265,119,112582,1,0,0:0:0:0:
265,62,112779,1,8,0:0:0:0:
255,106,112975,1,0,0:0:0:0:
147,150,113073,1,0,0:0:0:0:
265,62,113367,1,8,0:0:0:0:
245,102,113956,1,8,0:0:0:0:
366,185,114152,1,0,0:0:0:0:
209,129,114250,1,0,0:0:0:0:
265,62,114544,1,8,0:0:0:0:
308,133,114838,1,8,0:0:0:0:
308,133,114936,1,8,0:0:0:0:
265,62,115132,1,0,0:0:0:0:
137,177,115329,1,0,0:0:0:0:
137,177,115427,1,0,0:0:0:0:
137,177,115525,1,0,0:0:0:0:
285,62,115721,5,8,0:0:0:0:
186,165,116113,5,4,0:0:0:0:
