osu file format v14

[General]
AudioFilename: audio.ogg
AudioLeadIn: 0
PreviewTime: 76362
Countdown: 0
SampleSet: Normal
StackLeniency: 0.7
Mode: 1
LetterboxInBreaks: 0
WidescreenStoryboard: 0

[Editor]
DistanceSpacing: 2
BeatDivisor: 4
GridSize: 32
TimelineZoom: 4.799997

[Metadata]
Title:Sennen no Kotowari
TitleUnicode:千年ノ理
Artist:Nekomata Master
ArtistUnicode:猫叉Master
Creator:TKS
Version:Inner Oni
Source:beatmania IIDX 22 PENDUAL
Tags:video game instrumental electronic WORLD/ELECTRONICA ZUN touhou 東方永夜抄 Imperishable Night. 千年幻想郷 ~ History of the Moon BEMANI×東方Project Ultimate MasterPieces 佐藤直之 Naoyuki Sato BeatStream jubeat prop plus pop'n music ラピストリア REFLEC BEAT groovin'!! Upper SOUND VOLTEX III GRAVITY WARS SDVX DanceDanceRevolution A DDR ノスタルジア NOSTALGIA FORTE BEMANI×TOHO project REITAISAI 2015 sobatsuyu genjuro iceoc
BeatmapID:1777908
BeatmapSetID:850367

[Difficulty]
HPDrainRate:6
CircleSize:5
OverallDifficulty:6.5
ApproachRate:5
SliderMultiplier:1.4
SliderTickRate:1

[Events]
//Background and Video events
0,0,"30537439_p0.jpg",0,60
//Break Periods
//Storyboard Layer 0 (Background)
//Storyboard Layer 1 (Fail)
//Storyboard Layer 2 (Pass)
//Storyboard Layer 3 (Foreground)
//Storyboard Layer 4 (Overlay)
//Storyboard Sound Samples

[TimingPoints]
1559,392.156862745098,4,1,0,70,1,0
14075,-100,4,1,0,80,0,0
51722,-111.111111111111,4,1,0,65,0,0
64271,-100,4,1,0,70,0,0
76428,-100,4,1,0,80,0,0
76853,-90.9090909090909,4,1,0,85,0,1
87833,-90.9090909090909,4,1,0,85,0,0
89402,-90.9090909090909,4,1,0,85,0,1
100382,-90.9090909090909,4,1,0,85,0,0
100447,-100,4,1,0,85,0,0
116036,-100,4,1,0,50,0,0
117245,-100,4,1,0,40,0,0
118029,-100,4,1,0,30,0,0
118421,-100,4,1,0,20,0,0
118813,-100,4,1,0,10,0,0

[HitObjects]
256,192,1559,5,4,0:0:0:0:
256,192,2147,1,0,0:0:0:0:
256,192,2343,1,8,0:0:0:0:
256,192,2539,1,0,0:0:0:0:
256,192,2637,1,8,0:0:0:0:
256,192,2735,1,0,0:0:0:0:
256,192,2931,1,8,0:0:0:0:
256,192,3127,1,0,0:0:0:0:
256,192,3911,1,8,0:0:0:0:
256,192,4108,1,0,0:0:0:0:
256,192,4304,1,8,0:0:0:0:
256,192,4500,1,8,0:0:0:0:
256,192,4696,1,0,0:0:0:0:
256,192,5284,1,0,0:0:0:0:
256,192,5480,1,8,0:0:0:0:
256,192,5676,1,0,0:0:0:0:
256,192,5742,1,8,0:0:0:0:
256,192,5807,1,8,0:0:0:0:
256,192,5872,1,0,0:0:0:0:
256,192,6068,1,8,0:0:0:0:
256,192,6264,1,0,0:0:0:0:
256,192,7049,1,8,0:0:0:0:
256,192,7441,1,0,0:0:0:0:
256,192,7637,1,8,0:0:0:0:
256,192,7833,1,4,0:0:0:0:
256,192,8225,1,8,0:0:0:0:
256,192,8323,1,8,0:0:0:0:
256,192,8421,1,0,0:0:0:0:
256,192,8519,1,0,0:0:0:0:
256,192,8617,1,8,0:0:0:0:
256,192,8813,1,0,0:0:0:0:
256,192,9009,1,8,0:0:0:0:
256,192,9206,1,8,0:0:0:0:
256,192,9402,1,0,0:0:0:0:
256,192,9598,1,8,0:0:0:0:
256,192,9696,1,8,0:0:0:0:
256,192,9794,1,0,0:0:0:0:
256,192,9990,1,8,0:0:0:0:
256,192,10186,1,8,0:0:0:0:
256,192,10284,1,8,0:0:0:0:
256,192,10382,1,8,0:0:0:0:
256,192,10480,1,8,0:0:0:0:
256,192,10578,1,0,0:0:0:0:
256,192,10774,1,8,0:0:0:0:
256,192,10970,1,0,0:0:0:0:
256,192,11166,1,0,0:0:0:0:
256,192,11264,1,8,0:0:0:0:
256,192,11362,1,0,0:0:0:0:
256,192,11559,1,8,0:0:0:0:
256,192,11755,1,0,0:0:0:0:
256,192,11853,1,8,0:0:0:0:
256,192,11951,1,8,0:0:0:0:
256,192,12049,1,8,0:0:0:0:
256,192,12147,1,0,0:0:0:0:
256,192,12343,1,8,0:0:0:0:
256,192,12539,1,0,0:0:0:0:
256,192,12637,1,0,0:0:0:0:
256,192,12735,1,0,0:0:0:0:
256,192,12931,1,8,0:0:0:0:
256,192,13127,1,0,0:0:0:0:
256,192,13323,1,8,0:0:0:0:
256,192,13519,1,0,0:0:0:0:
256,192,13617,1,0,0:0:0:0:
256,192,13715,1,8,0:0:0:0:
256,192,14108,1,4,0:0:0:0:
256,192,14402,1,8,0:0:0:0:
256,192,14500,1,0,0:0:0:0:
256,192,14696,1,8,0:0:0:0:
256,192,14892,1,0,0:0:0:0:
256,192,14990,1,8,0:0:0:0:
256,192,15088,1,8,0:0:0:0:
256,192,15284,1,0,0:0:0:0:
256,192,15480,1,8,0:0:0:0:
256,192,15676,1,0,0:0:0:0:
256,192,15774,1,0,0:0:0:0:
256,192,15872,1,0,0:0:0:0:
256,192,15970,1,8,0:0:0:0:
256,192,16068,1,0,0:0:0:0:
256,192,16264,1,8,0:0:0:0:
256,192,16460,1,0,0:0:0:0:
256,192,16657,1,8,0:0:0:0:
256,192,16755,1,8,0:0:0:0:
256,192,16853,1,0,0:0:0:0:
256,192,17049,1,8,0:0:0:0:
256,192,17245,1,0,0:0:0:0:
256,192,17539,1,8,0:0:0:0:
256,192,17637,1,0,0:0:0:0:
256,192,17833,1,8,0:0:0:0:
256,192,18029,1,0,0:0:0:0:
256,192,18127,1,8,0:0:0:0:
256,192,18225,1,8,0:0:0:0:
256,192,18421,1,0,0:0:0:0:
256,192,18617,1,8,0:0:0:0:
256,192,18813,1,0,0:0:0:0:
256,192,19009,1,8,0:0:0:0:
256,192,19108,1,8,0:0:0:0:
256,192,19206,1,0,0:0:0:0:
256,192,19402,1,8,0:0:0:0:
256,192,19598,1,0,0:0:0:0:
256,192,19696,1,8,0:0:0:0:
256,192,19794,1,8,0:0:0:0:
256,192,19990,1,0,0:0:0:0:
256,192,20088,1,0,0:0:0:0:
256,192,20186,1,8,0:0:0:0:
256,192,20382,1,4,0:0:0:0:
256,192,20676,1,8,0:0:0:0:
256,192,20774,1,0,0:0:0:0:
256,192,20970,1,8,0:0:0:0:
256,192,21166,1,0,0:0:0:0:
256,192,21264,1,0,0:0:0:0:
256,192,21362,1,8,0:0:0:0:
256,192,21559,1,0,0:0:0:0:
256,192,21755,1,8,0:0:0:0:
256,192,21951,1,0,0:0:0:0:
256,192,22049,1,0,0:0:0:0:
256,192,22147,1,8,0:0:0:0:
256,192,22245,1,8,0:0:0:0:
256,192,22343,1,0,0:0:0:0:
256,192,22539,1,8,0:0:0:0:
256,192,22735,1,0,0:0:0:0:
256,192,22931,1,8,0:0:0:0:
256,192,23029,1,8,0:0:0:0:
256,192,23127,1,0,0:0:0:0:
256,192,23323,1,8,0:0:0:0:
256,192,23519,1,0,0:0:0:0:
256,192,23813,1,8,0:0:0:0:
256,192,23911,1,0,0:0:0:0:
256,192,24108,1,8,0:0:0:0:
256,192,24304,1,0,0:0:0:0:
256,192,24402,1,8,0:0:0:0:
256,192,24500,1,0,0:0:0:0:
256,192,24598,1,0,0:0:0:0:
256,192,24696,1,8,0:0:0:0:
256,192,24892,1,8,0:0:0:0:
256,192,25088,1,0,0:0:0:0:
256,192,25186,1,0,0:0:0:0:
256,192,25284,1,0,0:0:0:0:
256,192,25480,1,8,0:0:0:0:
256,192,25676,1,0,0:0:0:0:
256,192,25872,1,0,0:0:0:0:
256,192,25970,1,0,0:0:0:0:
256,192,26068,1,8,0:0:0:0:
256,192,26166,1,8,0:0:0:0:
256,192,26264,1,0,0:0:0:0:
256,192,26460,1,8,0:0:0:0:
256,192,26657,1,4,0:0:0:0:
256,192,26951,1,8,0:0:0:0:
256,192,27049,1,0,0:0:0:0:
256,192,27245,1,8,0:0:0:0:
256,192,27441,1,0,0:0:0:0:
256,192,27539,1,0,0:0:0:0:
256,192,27637,1,0,0:0:0:0:
256,192,27833,1,8,0:0:0:0:
256,192,28029,1,8,0:0:0:0:
256,192,28225,1,0,0:0:0:0:
256,192,28323,1,0,0:0:0:0:
256,192,28421,1,0,0:0:0:0:
256,192,28519,1,8,0:0:0:0:
256,192,28617,1,0,0:0:0:0:
256,192,28813,1,8,0:0:0:0:
256,192,29009,1,0,0:0:0:0:
256,192,29206,1,8,0:0:0:0:
256,192,29304,1,8,0:0:0:0:
256,192,29402,1,8,0:0:0:0:
256,192,29500,1,0,0:0:0:0:
256,192,29598,1,8,0:0:0:0:
256,192,29794,1,0,0:0:0:0:
256,192,30088,1,8,0:0:0:0:
256,192,30186,1,0,0:0:0:0:
256,192,30382,1,8,0:0:0:0:
256,192,30578,1,0,0:0:0:0:
256,192,30676,1,0,0:0:0:0:
256,192,30774,1,0,0:0:0:0:
256,192,30970,1,8,0:0:0:0:
256,192,31166,1,8,0:0:0:0:
256,192,31362,1,0,0:0:0:0:
256,192,31559,1,8,0:0:0:0:
256,192,31657,1,8,0:0:0:0:
256,192,31755,1,0,0:0:0:0:
256,192,31951,1,0,0:0:0:0:
256,192,32049,1,8,0:0:0:0:
256,192,32147,1,0,0:0:0:0:
256,192,32343,1,8,0:0:0:0:
256,192,32539,1,0,0:0:0:0:
256,192,32637,1,0,0:0:0:0:
256,192,32735,1,8,0:0:0:0:
256,192,32931,1,4,0:0:0:0:
256,192,33225,1,8,0:0:0:0:
256,192,33323,1,0,0:0:0:0:
256,192,33519,1,8,0:0:0:0:
256,192,33715,1,0,0:0:0:0:
256,192,33813,1,0,0:0:0:0:
256,192,33911,1,8,0:0:0:0:
256,192,34108,1,0,0:0:0:0:
256,192,34304,1,8,0:0:0:0:
256,192,34500,1,0,0:0:0:0:
256,192,34696,1,8,0:0:0:0:
256,192,34794,1,8,0:0:0:0:
256,192,34892,1,0,0:0:0:0:
256,192,35088,1,8,0:0:0:0:
256,192,35284,1,0,0:0:0:0:
256,192,35480,1,8,0:0:0:0:
256,192,35578,1,8,0:0:0:0:
256,192,35676,1,0,0:0:0:0:
256,192,35774,1,0,0:0:0:0:
256,192,35872,1,8,0:0:0:0:
256,192,36068,1,0,0:0:0:0:
256,192,36362,1,8,0:0:0:0:
256,192,36460,1,0,0:0:0:0:
256,192,36657,1,8,0:0:0:0:
256,192,36853,1,0,0:0:0:0:
256,192,36951,1,0,0:0:0:0:
256,192,37049,1,0,0:0:0:0:
256,192,37245,1,8,0:0:0:0:
256,192,37441,1,8,0:0:0:0:
256,192,37637,1,0,0:0:0:0:
256,192,37735,1,0,0:0:0:0:
256,192,37833,1,8,0:0:0:0:
256,192,37931,1,8,0:0:0:0:
256,192,38029,1,0,0:0:0:0:
256,192,38225,1,0,0:0:0:0:
256,192,38323,1,8,0:0:0:0:
256,192,38421,1,0,0:0:0:0:
256,192,38519,1,0,0:0:0:0:
256,192,38617,1,8,0:0:0:0:
256,192,38813,1,0,0:0:0:0:
256,192,38911,1,8,0:0:0:0:
256,192,39009,1,8,0:0:0:0:
256,192,39206,1,0,0:0:0:0:
256,192,39304,1,0,0:0:0:0:
256,192,39402,1,8,0:0:0:0:
256,192,39500,1,8,0:0:0:0:
256,192,39598,1,0,0:0:0:0:
256,192,39696,1,0,0:0:0:0:
256,192,39794,1,8,0:0:0:0:
256,192,39892,1,8,0:0:0:0:
256,192,39990,1,0,0:0:0:0:
256,192,40088,1,0,0:0:0:0:
256,192,40186,1,0,0:0:0:0:
256,192,40284,1,8,0:0:0:0:
256,192,40382,1,8,0:0:0:0:
256,192,40480,1,8,0:0:0:0:
256,192,40578,1,0,0:0:0:0:
256,192,40676,1,8,0:0:0:0:
256,192,40774,1,0,0:0:0:0:
256,192,40872,1,0,0:0:0:0:
256,192,40970,1,0,0:0:0:0:
256,192,41068,1,8,0:0:0:0:
256,192,41166,1,8,0:0:0:0:
256,192,41264,1,8,0:0:0:0:
256,192,41362,1,0,0:0:0:0:
256,192,41460,1,8,0:0:0:0:
256,192,41559,1,0,0:0:0:0:
256,192,41657,1,0,0:0:0:0:
256,192,41755,1,8,0:0:0:0:
256,192,41853,1,0,0:0:0:0:
256,192,41951,1,8,0:0:0:0:
256,192,42049,1,8,0:0:0:0:
256,192,42147,1,0,0:0:0:0:
256,192,42343,1,0,0:0:0:0:
256,192,42441,1,0,0:0:0:0:
256,192,42539,1,8,0:0:0:0:
256,192,42637,1,8,0:0:0:0:
256,192,42735,1,0,0:0:0:0:
256,192,42833,1,0,0:0:0:0:
256,192,42931,1,8,0:0:0:0:
256,192,43029,1,8,0:0:0:0:
256,192,43127,1,0,0:0:0:0:
256,192,43225,1,0,0:0:0:0:
256,192,43323,1,0,0:0:0:0:
256,192,43421,1,8,0:0:0:0:
256,192,43519,1,8,0:0:0:0:
256,192,43617,1,8,0:0:0:0:
256,192,43715,1,0,0:0:0:0:
256,192,43813,1,8,0:0:0:0:
256,192,43911,1,0,0:0:0:0:
256,192,44009,1,0,0:0:0:0:
256,192,44108,1,8,0:0:0:0:
256,192,44206,1,8,0:0:0:0:
256,192,44304,1,0,0:0:0:0:
256,192,44402,1,0,0:0:0:0:
256,192,44500,1,8,0:0:0:0:
256,192,44598,1,0,0:0:0:0:
256,192,44696,1,8,0:0:0:0:
256,192,44794,1,8,0:0:0:0:
256,192,44892,1,0,0:0:0:0:
256,192,44990,1,0,0:0:0:0:
256,192,45088,1,8,0:0:0:0:
256,192,45186,1,8,0:0:0:0:
256,192,45284,1,0,0:0:0:0:
256,192,45480,1,0,0:0:0:0:
256,192,45578,1,0,0:0:0:0:
256,192,45676,1,0,0:0:0:0:
256,192,45774,1,8,0:0:0:0:
256,192,45872,1,0,0:0:0:0:
256,192,45970,1,0,0:0:0:0:
256,192,46068,1,0,0:0:0:0:
256,192,46166,1,8,0:0:0:0:
256,192,46264,1,0,0:0:0:0:
256,192,46362,1,0,0:0:0:0:
256,192,46460,1,0,0:0:0:0:
256,192,46559,1,0,0:0:0:0:
256,192,46657,1,8,0:0:0:0:
256,192,46755,1,8,0:0:0:0:
256,192,46853,1,0,0:0:0:0:
256,192,46951,1,8,0:0:0:0:
256,192,47049,1,0,0:0:0:0:
256,192,47147,1,0,0:0:0:0:
256,192,47245,1,0,0:0:0:0:
256,192,47343,1,0,0:0:0:0:
256,192,47441,1,8,0:0:0:0:
256,192,47539,1,8,0:0:0:0:
256,192,47637,1,0,0:0:0:0:
256,192,47735,1,8,0:0:0:0:
256,192,47833,1,0,0:0:0:0:
256,192,47931,1,0,0:0:0:0:
256,192,48029,1,8,0:0:0:0:
256,192,48127,1,0,0:0:0:0:
256,192,48225,1,8,0:0:0:0:
256,192,48323,1,8,0:0:0:0:
256,192,48421,1,0,0:0:0:0:
256,192,48519,1,8,0:0:0:0:
256,192,48617,1,0,0:0:0:0:
256,192,48715,1,0,0:0:0:0:
256,192,48813,1,0,0:0:0:0:
256,192,48911,1,8,0:0:0:0:
256,192,49009,1,0,0:0:0:0:
256,192,49108,1,0,0:0:0:0:
256,192,49206,1,0,0:0:0:0:
256,192,49304,1,8,0:0:0:0:
256,192,49402,1,0,0:0:0:0:
256,192,49500,1,0,0:0:0:0:
256,192,49598,1,0,0:0:0:0:
256,192,49696,1,8,0:0:0:0:
256,192,49794,1,8,0:0:0:0:
256,192,49892,1,8,0:0:0:0:
256,192,49990,1,0,0:0:0:0:
256,192,50088,1,0,0:0:0:0:
256,192,50186,1,8,0:0:0:0:
256,192,50284,1,8,0:0:0:0:
256,192,50382,1,8,0:0:0:0:
256,192,50480,1,0,0:0:0:0:
256,192,50578,1,8,0:0:0:0:
256,192,50676,1,0,0:0:0:0:
256,192,50774,1,0,0:0:0:0:
256,192,50872,1,0,0:0:0:0:
256,192,50970,1,8,0:0:0:0:
256,192,51068,1,8,0:0:0:0:
256,192,51166,1,0,0:0:0:0:
256,192,51264,1,0,0:0:0:0:
256,192,51362,1,8,0:0:0:0:
256,192,51755,1,0,0:0:0:0:
256,192,52539,1,8,0:0:0:0:
256,192,53715,1,0,0:0:0:0:
256,192,54108,1,8,0:0:0:0:
256,192,54892,1,0,0:0:0:0:
256,192,55676,1,8,0:0:0:0:
256,192,56853,1,0,0:0:0:0:
256,192,57245,1,8,0:0:0:0:
256,192,58029,1,0,0:0:0:0:
256,192,58813,1,8,0:0:0:0:
256,192,59598,1,0,0:0:0:0:
256,192,60186,1,0,0:0:0:0:
256,192,60382,1,8,0:0:0:0:
256,192,61166,1,0,0:0:0:0:
256,192,61559,1,0,0:0:0:0:
256,192,61951,1,8,0:0:0:0:
256,192,62343,1,0,0:0:0:0:
256,192,62735,1,0,0:0:0:0:
256,192,63127,1,0,0:0:0:0:
256,192,63519,1,8,0:0:0:0:
256,192,63715,1,8,0:0:0:0:
256,192,63781,1,8,0:0:0:0:
256,192,63846,1,8,0:0:0:0:
256,192,63911,1,0,0:0:0:0:
256,192,64304,1,4,0:0:0:0:
256,192,64696,1,0,0:0:0:0:
256,192,64892,1,0,0:0:0:0:
256,192,65088,1,8,0:0:0:0:
256,192,65284,1,0,0:0:0:0:
256,192,65382,1,8,0:0:0:0:
256,192,65480,1,0,0:0:0:0:
256,192,65676,1,8,0:0:0:0:
256,192,65872,1,0,0:0:0:0:
256,192,66264,1,0,0:0:0:0:
256,192,66657,1,8,0:0:0:0:
256,192,66853,1,0,0:0:0:0:
256,192,67049,1,8,0:0:0:0:
256,192,67245,1,8,0:0:0:0:
256,192,67441,1,0,0:0:0:0:
256,192,67833,1,0,0:0:0:0:
256,192,68029,1,0,0:0:0:0:
256,192,68225,1,8,0:0:0:0:
256,192,68421,1,0,0:0:0:0:
256,192,68487,1,8,0:0:0:0:
256,192,68552,1,8,0:0:0:0:
256,192,68617,1,0,0:0:0:0:
256,192,68813,1,8,0:0:0:0:
256,192,69009,1,0,0:0:0:0:
256,192,69402,1,0,0:0:0:0:
256,192,69794,1,8,0:0:0:0:
256,192,70186,1,0,0:0:0:0:
256,192,70382,1,8,0:0:0:0:
256,192,70578,1,4,0:0:0:0:
256,192,70970,1,8,0:0:0:0:
256,192,71068,1,8,0:0:0:0:
256,192,71166,1,0,0:0:0:0:
256,192,71264,1,0,0:0:0:0:
256,192,71362,1,8,0:0:0:0:
256,192,71559,1,0,0:0:0:0:
256,192,71657,1,0,0:0:0:0:
256,192,71755,1,8,0:0:0:0:
256,192,71853,1,8,0:0:0:0:
256,192,71951,1,8,0:0:0:0:
256,192,72049,1,8,0:0:0:0:
256,192,72147,1,0,0:0:0:0:
256,192,72343,1,8,0:0:0:0:
256,192,72441,1,8,0:0:0:0:
256,192,72539,1,0,0:0:0:0:
256,192,72637,1,0,0:0:0:0:
256,192,72735,1,8,0:0:0:0:
256,192,72931,1,8,0:0:0:0:
256,192,73029,1,8,0:0:0:0:
256,192,73127,1,8,0:0:0:0:
256,192,73225,1,8,0:0:0:0:
256,192,73323,1,0,0:0:0:0:
256,192,73421,1,0,0:0:0:0:
256,192,73519,1,8,0:0:0:0:
256,192,73715,1,0,0:0:0:0:
256,192,73911,1,0,0:0:0:0:
256,192,74009,1,8,0:0:0:0:
256,192,74108,1,0,0:0:0:0:
256,192,74206,1,0,0:0:0:0:
256,192,74304,1,8,0:0:0:0:
256,192,74500,1,0,0:0:0:0:
256,192,74598,1,8,0:0:0:0:
256,192,74696,1,8,0:0:0:0:
256,192,74794,1,8,0:0:0:0:
256,192,74892,1,0,0:0:0:0:
256,192,75088,1,8,0:0:0:0:
256,192,75284,1,0,0:0:0:0:
256,192,75382,1,0,0:0:0:0:
256,192,75480,1,0,0:0:0:0:
256,192,75676,1,8,0:0:0:0:
256,192,75872,1,0,0:0:0:0:
256,192,76068,1,8,0:0:0:0:
256,192,76264,1,0,0:0:0:0:
256,192,76362,1,0,0:0:0:0:
256,192,76460,1,8,0:0:0:0:
256,192,76559,1,0,0:0:0:0:
256,192,76657,1,8,0:0:0:0:
256,192,76755,1,8,0:0:0:0:
256,192,76853,1,0,0:0:0:0:
256,192,77147,1,0,0:0:0:0:
256,192,77245,1,8,0:0:0:0:
256,192,77441,1,0,0:0:0:0:
256,192,77539,1,8,0:0:0:0:
256,192,77637,1,0,0:0:0:0:
256,192,77833,1,0,0:0:0:0:
256,192,77931,1,0,0:0:0:0:
256,192,78029,1,8,0:0:0:0:
256,192,78225,1,8,0:0:0:0:
256,192,78421,1,0,0:0:0:0:
256,192,78519,1,0,0:0:0:0:
256,192,78617,1,0,0:0:0:0:
256,192,78715,1,8,0:0:0:0:
256,192,78813,1,0,0:0:0:0:
256,192,79009,1,8,0:0:0:0:
256,192,79206,1,8,0:0:0:0:
256,192,79304,1,8,0:0:0:0:
256,192,79402,1,0,0:0:0:0:
256,192,79598,1,8,0:0:0:0:
256,192,79794,1,0,0:0:0:0:
256,192,79892,1,8,0:0:0:0:
256,192,79990,1,0,0:0:0:0:
256,192,80284,1,0,0:0:0:0:
256,192,80382,1,8,0:0:0:0:
256,192,80578,1,8,0:0:0:0:
256,192,80676,1,8,0:0:0:0:
256,192,80774,1,0,0:0:0:0:
256,192,80970,1,0,0:0:0:0:
256,192,81166,1,8,0:0:0:0:
256,192,81362,1,8,0:0:0:0:
256,192,81460,1,8,0:0:0:0:
256,192,81559,1,0,0:0:0:0:
256,192,81657,1,0,0:0:0:0:
256,192,81755,1,8,0:0:0:0:
256,192,81951,1,0,0:0:0:0:
256,192,82049,1,0,0:0:0:0:
256,192,82147,1,8,0:0:0:0:
256,192,82343,1,0,0:0:0:0:
256,192,82604,1,8,0:0:0:0:
256,192,82670,1,8,0:0:0:0:
256,192,82735,1,0,0:0:0:0:
256,192,82931,1,8,0:0:0:0:
256,192,83127,1,0,0:0:0:0:
256,192,83421,1,0,0:0:0:0:
256,192,83519,1,8,0:0:0:0:
256,192,83715,1,0,0:0:0:0:
256,192,83813,1,0,0:0:0:0:
256,192,83911,1,0,0:0:0:0:
256,192,84108,1,0,0:0:0:0:
256,192,84206,1,0,0:0:0:0:
256,192,84304,1,8,0:0:0:0:
256,192,84500,1,8,0:0:0:0:
256,192,84696,1,0,0:0:0:0:
256,192,84794,1,0,0:0:0:0:
256,192,84892,1,0,0:0:0:0:
256,192,84990,1,8,0:0:0:0:
256,192,85088,1,0,0:0:0:0:
256,192,85284,1,8,0:0:0:0:
256,192,85480,1,8,0:0:0:0:
256,192,85578,1,8,0:0:0:0:
256,192,85676,1,0,0:0:0:0:
256,192,85774,1,0,0:0:0:0:
256,192,85872,1,8,0:0:0:0:
256,192,85970,1,0,0:0:0:0:
256,192,86068,1,8,0:0:0:0:
256,192,86166,1,8,0:0:0:0:
256,192,86264,1,0,0:0:0:0:
256,192,86460,1,0,0:0:0:0:
256,192,86657,1,8,0:0:0:0:
256,192,86853,1,8,0:0:0:0:
256,192,86951,1,8,0:0:0:0:
256,192,87049,1,0,0:0:0:0:
256,192,87245,1,0,0:0:0:0:
256,192,87441,1,8,0:0:0:0:
256,192,87506,1,0,0:0:0:0:
256,192,87572,1,0,0:0:0:0:
256,192,87637,1,8,0:0:0:0:
256,192,87735,1,8,0:0:0:0:
256,192,87833,1,0,0:0:0:0:
256,192,88029,1,0,0:0:0:0:
256,192,88127,1,0,0:0:0:0:
256,192,88225,1,8,0:0:0:0:
256,192,88421,1,8,0:0:0:0:
256,192,88617,1,0,0:0:0:0:
256,192,88879,1,8,0:0:0:0:
256,192,88944,1,8,0:0:0:0:
256,192,89009,1,0,0:0:0:0:
256,192,89206,1,8,0:0:0:0:
256,192,89402,1,0,0:0:0:0:
256,192,89696,1,0,0:0:0:0:
256,192,89794,1,8,0:0:0:0:
256,192,89990,1,0,0:0:0:0:
256,192,90088,1,8,0:0:0:0:
256,192,90186,1,0,0:0:0:0:
256,192,90382,1,0,0:0:0:0:
256,192,90480,1,0,0:0:0:0:
256,192,90578,1,8,0:0:0:0:
256,192,90774,1,8,0:0:0:0:
256,192,90970,1,0,0:0:0:0:
256,192,91068,1,0,0:0:0:0:
256,192,91264,1,8,0:0:0:0:
256,192,91362,1,8,0:0:0:0:
256,192,91460,1,0,0:0:0:0:
256,192,91559,1,8,0:0:0:0:
256,192,91755,1,0,0:0:0:0:
256,192,91853,1,8,0:0:0:0:
256,192,91951,1,0,0:0:0:0:
256,192,92147,1,8,0:0:0:0:
256,192,92343,1,8,0:0:0:0:
256,192,92441,1,8,0:0:0:0:
256,192,92539,1,0,0:0:0:0:
256,192,92833,1,0,0:0:0:0:
256,192,92931,1,8,0:0:0:0:
256,192,93127,1,8,0:0:0:0:
256,192,93225,1,8,0:0:0:0:
256,192,93323,1,0,0:0:0:0:
256,192,93519,1,0,0:0:0:0:
256,192,93715,1,8,0:0:0:0:
256,192,93911,1,0,0:0:0:0:
256,192,94009,1,8,0:0:0:0:
256,192,94108,1,0,0:0:0:0:
256,192,94206,1,0,0:0:0:0:
256,192,94304,1,8,0:0:0:0:
256,192,94500,1,0,0:0:0:0:
256,192,94598,1,0,0:0:0:0:
256,192,94696,1,8,0:0:0:0:
256,192,94892,1,0,0:0:0:0:
256,192,95153,1,8,0:0:0:0:
256,192,95219,1,8,0:0:0:0:
256,192,95284,1,0,0:0:0:0:
256,192,95480,1,8,0:0:0:0:
256,192,95676,1,0,0:0:0:0:
256,192,95970,1,0,0:0:0:0:
256,192,96068,1,8,0:0:0:0:
256,192,96264,1,0,0:0:0:0:
256,192,96362,1,0,0:0:0:0:
256,192,96460,1,0,0:0:0:0:
256,192,96657,1,0,0:0:0:0:
256,192,96755,1,0,0:0:0:0:
256,192,96853,1,8,0:0:0:0:
256,192,97049,1,8,0:0:0:0:
256,192,97245,1,0,0:0:0:0:
256,192,97343,1,0,0:0:0:0:
256,192,97539,1,8,0:0:0:0:
256,192,97637,1,0,0:0:0:0:
256,192,97735,1,0,0:0:0:0:
256,192,97833,1,8,0:0:0:0:
256,192,98029,1,8,0:0:0:0:
256,192,98127,1,0,0:0:0:0:
256,192,98225,1,0,0:0:0:0:
256,192,98323,1,0,0:0:0:0:
256,192,98421,1,8,0:0:0:0:
256,192,98519,1,0,0:0:0:0:
256,192,98617,1,8,0:0:0:0:
256,192,98715,1,8,0:0:0:0:
256,192,98813,1,0,0:0:0:0:
256,192,99009,1,0,0:0:0:0:
256,192,99108,1,0,0:0:0:0:
256,192,99206,1,8,0:0:0:0:
256,192,99402,1,8,0:0:0:0:
256,192,99500,1,8,0:0:0:0:
256,192,99598,1,0,0:0:0:0:
256,192,99696,1,8,0:0:0:0:
256,192,99794,1,0,0:0:0:0:
256,192,99892,1,0,0:0:0:0:
256,192,99990,1,8,0:0:0:0:
256,192,100055,1,0,0:0:0:0:
256,192,100121,1,0,0:0:0:0:
256,192,100186,1,8,0:0:0:0:
256,192,100284,1,8,0:0:0:0:
256,192,100382,1,0,0:0:0:0:
256,192,100676,1,0,0:0:0:0:
256,192,100774,1,8,0:0:0:0:
256,192,100970,1,0,0:0:0:0:
256,192,101068,1,0,0:0:0:0:
256,192,101166,1,0,0:0:0:0:
256,192,101264,1,8,0:0:0:0:
256,192,101460,1,0,0:0:0:0:
256,192,101559,1,8,0:0:0:0:
256,192,101755,1,8,0:0:0:0:
256,192,101853,1,0,0:0:0:0:
256,192,101951,1,0,0:0:0:0:
256,192,102147,1,0,0:0:0:0:
256,192,102343,1,8,0:0:0:0:
256,192,102539,1,8,0:0:0:0:
256,192,102637,1,8,0:0:0:0:
256,192,102735,1,0,0:0:0:0:
256,192,102931,1,0,0:0:0:0:
256,192,103029,1,0,0:0:0:0:
256,192,103127,1,8,0:0:0:0:
256,192,103323,1,0,0:0:0:0:
256,192,103421,1,0,0:0:0:0:
256,192,103519,1,0,0:0:0:0:
256,192,103617,1,8,0:0:0:0:
256,192,103813,1,0,0:0:0:0:
256,192,103911,1,8,0:0:0:0:
256,192,104108,1,8,0:0:0:0:
256,192,104206,1,0,0:0:0:0:
256,192,104304,1,0,0:0:0:0:
256,192,104500,1,0,0:0:0:0:
256,192,104696,1,8,0:0:0:0:
256,192,104794,1,0,0:0:0:0:
256,192,104892,1,8,0:0:0:0:
256,192,104990,1,8,0:0:0:0:
256,192,105088,1,0,0:0:0:0:
256,192,105382,1,0,0:0:0:0:
256,192,105480,1,8,0:0:0:0:
256,192,105676,1,0,0:0:0:0:
256,192,105774,1,0,0:0:0:0:
256,192,105872,1,0,0:0:0:0:
256,192,105970,1,8,0:0:0:0:
256,192,106166,1,0,0:0:0:0:
256,192,106264,1,8,0:0:0:0:
256,192,106460,1,8,0:0:0:0:
256,192,106559,1,0,0:0:0:0:
256,192,106657,1,0,0:0:0:0:
256,192,106853,1,0,0:0:0:0:
256,192,107049,1,8,0:0:0:0:
256,192,107245,1,8,0:0:0:0:
256,192,107343,1,8,0:0:0:0:
256,192,107441,1,0,0:0:0:0:
256,192,107539,1,8,0:0:0:0:
256,192,107735,1,0,0:0:0:0:
256,192,107833,1,8,0:0:0:0:
256,192,108029,1,0,0:0:0:0:
256,192,108127,1,0,0:0:0:0:
256,192,108225,1,0,0:0:0:0:
256,192,108323,1,8,0:0:0:0:
256,192,108519,1,0,0:0:0:0:
256,192,108617,1,8,0:0:0:0:
256,192,108813,1,8,0:0:0:0:
256,192,108911,1,0,0:0:0:0:
256,192,109009,1,0,0:0:0:0:
256,192,109206,1,0,0:0:0:0:
256,192,109402,1,8,0:0:0:0:
256,192,109500,1,0,0:0:0:0:
256,192,109598,1,8,0:0:0:0:
256,192,109696,1,8,0:0:0:0:
256,192,109794,1,0,0:0:0:0:
256,192,109892,1,0,0:0:0:0:
256,192,110088,1,8,0:0:0:0:
256,192,110186,1,0,0:0:0:0:
256,192,110382,1,8,0:0:0:0:
256,192,110480,1,0,0:0:0:0:
256,192,110578,1,0,0:0:0:0:
256,192,110676,1,8,0:0:0:0:
256,192,110872,1,0,0:0:0:0:
256,192,110970,1,8,0:0:0:0:
256,192,111166,1,0,0:0:0:0:
256,192,111264,1,8,0:0:0:0:
256,192,111362,1,0,0:0:0:0:
256,192,111460,1,0,0:0:0:0:
256,192,111559,1,8,0:0:0:0:
256,192,111755,1,8,0:0:0:0:
256,192,111853,1,0,0:0:0:0:
256,192,112049,1,8,0:0:0:0:
256,192,112147,1,0,0:0:0:0:
256,192,112245,1,0,0:0:0:0:
256,192,112441,1,8,0:0:0:0:
256,192,112539,1,0,0:0:0:0:
256,192,112637,1,0,0:0:0:0:
256,192,112735,1,8,0:0:0:0:
256,192,112931,1,0,0:0:0:0:
256,192,113029,1,8,0:0:0:0:
256,192,113225,1,8,0:0:0:0:
256,192,113323,1,0,0:0:0:0:
256,192,113519,1,0,0:0:0:0:
256,192,113617,1,8,0:0:0:0:
256,192,113715,1,0,0:0:0:0:
256,192,113813,1,0,0:0:0:0:
256,192,113911,1,8,0:0:0:0:
256,192,114108,1,0,0:0:0:0:
256,192,114206,1,0,0:0:0:0:
256,192,114304,1,0,0:0:0:0:
256,192,114402,1,8,0:0:0:0:
256,192,114500,1,0,0:0:0:0:
256,192,114598,1,0,0:0:0:0:
256,192,114794,1,8,0:0:0:0:
256,192,114892,1,0,0:0:0:0:
256,192,114990,1,0,0:0:0:0:
256,192,115088,1,8,0:0:0:0:
256,192,115284,1,0,0:0:0:0:
256,192,115382,1,8,0:0:0:0:
256,192,115480,1,0,0:0:0:0:
256,192,115578,1,0,0:0:0:0:
256,192,115676,1,8,0:0:0:0:
256,192,115774,1,0,0:0:0:0:
256,192,115872,1,8,0:0:0:0:
256,192,115970,1,8,0:0:0:0:
256,192,116068,12,0,122343,0:0:0:0:
