osu file format v14

[General]
AudioFilename: sennen no kotowari.mp3
AudioLeadIn: 0
PreviewTime: 76460
Countdown: 0
SampleSet: Soft
StackLeniency: 0.7
Mode: 2
LetterboxInBreaks: 0
WidescreenStoryboard: 1

[Editor]
Bookmarks: 1559,14108,26657,39206,45497,51755,64304,76853,89402,100382,109836,116113
DistanceSpacing: 1.1
BeatDivisor: 4
GridSize: 8
TimelineZoom: 1.5

[Metadata]
Title:Sennen no Kotowari
TitleUnicode:千年ノ理
Artist:Nekomata Master
ArtistUnicode:猫叉Master
Creator:Sinnoh
Version:Salad
Source:REFLEC BEAT groovin'!! Upper
Tags:WORLD/ELECTRONICA ZUN 千年幻想郷 ~ History of the Moon BEMANI× 東方Project Ultimate MasterPieces Naoyuki Sato beatmania IIDX 22 PENDUAL
BeatmapID:1477374
BeatmapSetID:695431

[Difficulty]
HPDrainRate:4
CircleSize:3
OverallDifficulty:7
ApproachRate:7
SliderMultiplier:1.5
SliderTickRate:2

[Events]
//Background and Video events
0,0,"celerih trigger.jpg",0,0
//Break Periods
//Storyboard Layer 0 (Background)
//Storyboard Layer 1 (Fail)
//Storyboard Layer 2 (Pass)
//Storyboard Layer 3 (Foreground)
//Storyboard Sound Samples

[TimingPoints]
1559,392.310710082385,4,2,1,60,1,0
14108,-90.9090909090909,4,2,1,60,0,0
39220,-90.9090909090909,4,2,1,60,0,1
51774,-90.9090909090909,4,2,1,50,0,0
64304,-90.9090909090909,4,2,1,60,0,0
76882,-90.9090909090909,4,2,1,65,0,1
82767,-90.9090909090909,4,2,1,65,0,0
83159,-90.9090909090909,4,2,1,65,0,1
89044,-90.9090909090909,4,2,1,65,0,0
89436,-90.9090909090909,4,2,1,65,0,1
95321,-90.9090909090909,4,2,1,65,0,0
95713,-90.9090909090909,4,2,1,65,0,1
100421,-90.9090909090909,4,2,1,60,0,0
109836,-90.9090909090909,4,2,1,70,0,0
116113,-90.9090909090909,4,2,1,80,0,0
116309,-90.9090909090909,4,2,1,50,0,0
116898,-90.9090909090909,4,2,1,45,0,0
117682,-90.9090909090909,4,2,1,40,0,0
118467,-90.9090909090909,4,2,1,35,0,0
119252,-90.9090909090909,4,2,1,30,0,0
120036,-90.9090909090909,4,2,1,25,0,0
120821,-90.9090909090909,4,2,1,15,0,0
121606,-90.9090909090909,4,2,69,5,0,0
122390,-90.9090909090909,4,2,69,5,0,0

[Colours]
Combo1 : 244,139,223
Combo2 : 135,166,249
Combo3 : 250,154,154
Combo4 : 100,136,242
Combo5 : 251,173,229
Combo6 : 0,128,192

[HitObjects]
377,207,1166,5,0,0:0:0:0:
94,205,1559,6,0,P|43:168|131:58,1,225,6|0,0:0|0:0,0:0:0:0:
196,197,2343,1,8,0:0:0:0:
322,164,2735,2,0,L|227:166,1,75,0|0,0:0|0:0,0:0:0:0:
155,228,3128,6,0,L|145:71,1,150,2|2,0:3|0:3,0:0:0:0:
311,119,3912,1,8,0:0:0:0:
387,147,4108,2,0,L|436:66,2,75,0|0|0,0:0|0:0|0:0,0:0:0:0:
197,274,4697,6,0,B|119:291|64:254|91:181|100:108,1,225,2|0,0:0|0:0,0:0:0:0:
187,125,5482,1,8,0:0:0:0:
300,83,5874,6,0,L|218:34,2,75,0|0|2,0:0|0:0|0:3,0:0:0:0:
485,261,6659,2,0,P|494:190|474:87,1,150,2|2,0:3|0:0,0:0:0:0:
321,101,7443,1,2,0:0:0:0:
17,262,7835,6,0,P|22:172|129:91,1,225,6|0,0:0|0:0,0:0:0:0:
209,112,8620,2,0,L|82:28,1,150,8|0,0:0|0:0,0:0:0:0:
374,271,9405,6,0,L|434:197,2,75,2|0|0,0:0|0:0|0:0,0:0:0:0:
280,284,9993,2,0,L|191:249,1,75,0|8,0:0|0:0,0:0:0:0:
84,199,10582,2,0,L|165:171,1,75,2|0,0:0|0:0,0:0:0:0:
253,184,10974,6,0,L|257:84,1,75,2|0,0:0|0:0,0:0:0:0:
162,84,11366,2,0,L|82:33,1,75,2|0,0:0|0:0,0:0:0:0:
225,215,11759,1,8,0:0:0:0:
255,193,11857,1,8,0:0:0:0:
266,158,11955,1,8,0:0:0:0:
255,123,12053,1,8,0:0:0:0:
225,102,12151,1,2,0:0:0:0:
47,205,12543,6,0,L|43:55,1,150,2|2,0:0|0:0,0:0:0:0:
335,262,13328,2,0,L|433:249,1,75,8|2,0:0|0:0,0:0:0:0:
423,213,13622,1,2,0:0:0:0:
412,173,13720,1,8,0:0:0:0:
146,212,14113,6,0,P|114:177|164:77,1,165.000005035401,6|8,0:0|0:0,0:0:0:0:
245,149,14701,1,2,0:3:0:0:
333,193,14897,2,0,L|406:111,2,82.5000025177003,2|2|8,0:0|0:3|0:0,0:0:0:0:
168,134,15682,6,0,L|348:86,1,165.000005035401,2|8,0:0|0:0,0:0:0:0:
182,278,16466,2,0,L|177:190,1,82.5000025177003,2|2,0:0|0:3,0:0:0:0:
299,200,16859,2,0,L|293:98,1,82.5000025177003,8|2,0:0|0:3,0:0:0:0:
187,122,17251,6,0,P|134:108|91:3,1,165.000005035401,2|8,0:0|0:0,0:0:0:0:
230,181,18036,2,0,L|128:135,1,82.5000025177003,2|2,0:0|0:3,0:0:0:0:
78,123,18428,1,8,0:0:0:0:
267,247,18820,5,2,0:0:0:0:
318,159,19016,2,0,L|307:82,1,41.2500012588501,2|2,0:3|0:3,0:0:0:0:
270,90,19213,1,8,0:0:0:0:
166,237,19409,2,0,L|240:160,1,82.5000025177003,2|2,0:3|0:0,0:0:0:0:
333,177,19801,2,0,L|247:110,1,82.5000025177003,2|8,0:3|0:0,0:0:0:0:
176,132,20193,1,2,0:3:0:0:
373,302,20389,6,0,P|436:268|449:161,1,165.000005035401,6|8,0:0|0:0,0:0:0:0:
288,180,21174,2,0,L|267:122,2,41.2500012588501,2|2|2,0:0|0:3|0:3,0:0:0:0:
374,184,21566,2,0,L|363:63,1,82.5000025177003,8|2,0:0|0:3,0:0:0:0:
255,303,21959,6,0,P|203:276|180:166,1,165.000005035401,2|8,0:0|0:0,0:0:0:0:
329,184,22743,2,0,L|335:81,1,82.5000025177003,2|2,0:0|0:3,0:0:0:0:
235,113,23136,2,0,L|224:11,1,82.5000025177003,8|2,0:0|0:3,0:0:0:0:
426,261,23528,6,0,P|470:232|424:157,1,123.75000377655,2|2,0:0|0:3,0:0:0:0:
414,149,23920,1,8,0:0:0:0:
324,160,24116,1,0,0:0:0:0:
236,170,24312,2,0,L|233:110,1,41.2500012588501,2|0,0:0|0:0,0:0:0:0:
264,106,24509,2,0,L|355:72,2,82.5000025177003,2|8|2,0:3|0:0|0:3,0:0:0:0:
150,127,25097,6,0,L|79:64,1,82.5000025177003,2|0,0:0|0:0,0:0:0:0:
196,214,25489,2,0,L|265:154,1,82.5000025177003,8|2,0:0|0:3,0:0:0:0:
136,132,25882,1,2,0:0:0:0:
108,100,25980,1,2,0:3:0:0:
81,69,26078,1,2,0:3:0:0:
190,50,26274,1,8,0:0:0:0:
489,174,26666,6,0,P|481:90|383:72,1,165.000005035401,6|8,0:0|0:0,0:0:0:0:
227,182,27451,1,2,0:0:0:0:
136,171,27647,2,0,P|96:163|106:100,2,82.5000025177003,2|8|2,0:3|0:0|0:3,0:0:0:0:
240,278,28236,6,0,P|295:257|329:132,1,165.000005035401,2|8,0:0|0:0,0:0:0:0:
169,157,29020,1,2,0:0:0:0:
92,143,29216,2,0,L|92:93,1,41.2500012588501,0|0,0:0|0:0,0:0:0:0:
121,84,29413,2,0,L|213:53,1,82.5000025177003,8|2,0:0|0:3,0:0:0:0:
269,142,29805,6,0,L|109:99,1,165.000005035401,2|8,0:0|0:0,0:0:0:0:
285,267,30589,1,2,0:0:0:0:
213,208,30786,2,0,L|137:141,1,82.5000025177003,2|8,0:3|0:0,0:0:0:0:
255,132,31178,1,2,0:3:0:0:
342,170,31374,6,0,P|391:137|310:89,1,165.000005035401,2|8,0:0|0:0,0:0:0:0:
179,89,32159,2,0,L|364:4,1,165.000005035401,2|2,0:0|0:3,0:0:0:0:
57,235,32943,6,0,P|42:191|141:142,1,165.000005035401,6|8,0:0|0:0,0:0:0:0:
297,228,33728,1,2,0:0:0:0:
310,188,33826,1,2,0:3:0:0:
323,149,33924,1,2,0:3:0:0:
206,154,34120,2,0,L|178:58,1,82.5000025177003,8|2,0:0|0:3,0:0:0:0:
287,201,34513,6,0,P|338:156|255:105,1,165.000005035401,2|8,0:0|0:0,0:0:0:0:
178,111,35101,2,0,L|94:32,2,82.5000025177003,2|2|2,0:3|0:0|0:3,0:0:0:0:
273,126,35690,2,0,L|289:84,2,41.2500012588501,8|2|2,0:0|0:3|0:3,0:0:0:0:
392,244,36082,6,0,P|442:206|373:143,1,165.000005035401,2|8,0:0|0:0,0:0:0:0:
294,142,36670,1,2,0:3:0:0:
205,155,36866,2,0,L|221:65,1,82.5000025177003,2|2,0:0|0:3,0:0:0:0:
314,169,37259,2,0,L|329:58,1,82.5000025177003,8|0,0:0|0:0,0:0:0:0:
141,229,37651,6,0,L|49:169,1,82.5000025177003,2|2,0:0|0:3,0:0:0:0:
172,156,38043,2,0,L|253:97,1,82.5000025177003,8|2,0:0|0:3,0:0:0:0:
134,190,38436,1,2,0:0:0:0:
137,148,38534,1,0,0:0:0:0:
140,107,38632,1,2,0:3:0:0:
45,122,38828,2,0,L|52:30,1,82.5000025177003,8|0,0:0|0:0,0:0:0:0:
253,227,39220,6,0,L|358:170,3,82.5000025177003,2|2|8|2,0:0|0:3|0:0|0:3,0:0:0:0:
446,169,40005,2,0,L|451:62,1,82.5000025177003,2|2,0:0|0:3,0:0:0:0:
341,72,40397,2,0,L|250:20,1,82.5000025177003,8|2,0:0|0:3,0:0:0:0:
363,222,40790,6,0,L|368:115,1,82.5000025177003,2|2,0:0|0:3,0:0:0:0:
258,125,41182,2,0,L|167:73,1,82.5000025177003,8|2,0:0|0:3,0:0:0:0:
100,248,41574,1,2,0:0:0:0:
97,206,41672,1,0,0:0:0:0:
95,165,41770,1,2,0:3:0:0:
215,248,41966,1,8,0:0:0:0:
212,206,42065,1,0,0:0:0:0:
210,165,42163,1,2,0:3:0:0:
129,138,42359,6,0,L|24:81,3,82.5000025177003,2|2|8|2,0:0|0:3|0:0|0:3,0:0:0:0:
168,150,43143,2,0,L|239:109,1,82.5000025177003,2|2,0:0|0:3,0:0:0:0:
133,97,43535,2,0,L|129:14,1,82.5000025177003,8|2,0:0|0:3,0:0:0:0:
241,238,43928,6,0,L|312:197,1,82.5000025177003,2|2,0:0|0:3,0:0:0:0:
206,185,44320,2,0,L|202:102,1,82.5000025177003,8|2,0:0|0:3,0:0:0:0:
302,77,44713,1,2,0:0:0:0:
287,39,44811,1,0,0:0:0:0:
250,24,44909,1,2,0:3:0:0:
171,76,45105,1,8,0:0:0:0:
185,38,45203,1,0,0:0:0:0:
222,23,45301,1,2,0:3:0:0:
419,161,45497,6,0,L|502:104,3,82.5000025177003,6|2|8|2,0:0|0:3|0:0|0:3,0:0:0:0:
396,254,46282,2,0,L|296:199,1,82.5000025177003,2|2,0:0|0:3,0:0:0:0:
206,165,46674,2,0,L|106:110,1,82.5000025177003,8|2,0:0|0:3,0:0:0:0:
231,232,47067,6,0,L|331:177,1,82.5000025177003,2|2,0:0|0:3,0:0:0:0:
421,143,47459,2,0,L|521:88,1,82.5000025177003,8|2,0:0|0:3,0:0:0:0:
396,254,47851,2,0,L|296:199,1,82.5000025177003,2|2,0:0|0:3,0:0:0:0:
229,178,48243,2,0,L|301:217,1,82.5000025177003,8|2,0:0|0:3,0:0:0:0:
195,313,48636,6,0,L|105:276,3,82.5000025177003,2|2|8|2,0:0|0:3|0:0|0:3,0:0:0:0:
218,235,49420,2,0,L|328:214,1,82.5000025177003,2|2,0:0|0:3,0:0:0:0:
212,155,49813,2,0,L|116:118,1,82.5000025177003,8|2,0:0|0:3,0:0:0:0:
34,88,50205,6,0,L|131:74,1,82.5000025177003,2|2,0:0|0:3,0:0:0:0:
220,95,50597,2,0,L|123:81,1,82.5000025177003,8|2,0:0|0:3,0:0:0:0:
255,133,50990,2,0,L|352:119,1,82.5000025177003,2|2,0:0|0:3,0:0:0:0:
441,84,51382,2,0,L|343:55,1,82.5000025177003,8|2,0:0|0:3,0:0:0:0:
166,274,51774,6,0,P|117:240|211:107,1,247.500007553101,6|0,0:0|0:0,0:0:0:0:
290,182,52559,2,0,L|298:86,1,82.5000025177003,8|0,0:0|0:0,0:0:0:0:
200,84,52951,2,0,L|106:16,1,82.5000025177003,0|0,0:0|0:0,0:0:0:0:
254,256,53344,6,0,L|424:169,2,165.000005035401,2|2|8,0:3|0:0|0:0,0:0:0:0:
154,257,54324,2,0,P|107:228|78:196,2,82.5000025177003,0|2|2,0:0|0:3|0:3,0:0:0:0:
350,281,54913,6,0,B|417:273|417:273|477:214|412:94|371:94,1,247.500007553101,2|0,0:0|0:0,0:0:0:0:
293,122,55697,2,0,L|193:90,1,82.5000025177003,8|0,0:0|0:0,0:0:0:0:
132,104,56090,2,0,L|206:39,1,82.5000025177003,0|0,0:0|0:0,0:0:0:0:
91,263,56482,6,0,P|16:222|0:137,2,165.000005035401,2|2|8,0:3|0:0|0:0,0:0:0:0:
262,301,57659,2,0,L|266:200,1,82.5000025177003,2|2,0:3|0:3,0:0:0:0:
79,211,58051,6,0,P|30:168|137:54,1,247.500007553101,6|0,0:0|0:0,0:0:0:0:
221,146,58836,2,0,L|237:38,1,82.5000025177003,8|0,0:0|0:0,0:0:0:0:
119,188,59228,2,0,L|112:99,1,82.5000025177003,2|0,0:3|0:0,0:0:0:0:
225,151,59620,5,2,0:0:0:0:
311,232,59817,2,0,P|320:158|312:123,1,82.5000025177003,0|2,0:0|0:3,0:0:0:0:
215,237,60209,1,2,0:0:0:0:
129,218,60405,1,8,0:0:0:0:
330,277,60797,2,0,L|322:189,1,82.5000025177003,2|2,0:3|0:3,0:0:0:0:
235,137,61190,5,2,0:0:0:0:
439,223,61582,2,0,L|431:135,1,82.5000025177003,2|2,0:0|0:3,0:0:0:0:
343,112,61974,2,0,L|233:67,1,82.5000025177003,8|0,0:0|0:0,0:0:0:0:
352,160,62367,2,0,L|427:102,1,82.5000025177003,2|0,0:0|0:0,0:0:0:0:
308,291,62759,6,0,P|213:234|194:153,2,165.000005035401,2|2|8,0:0|0:0|0:0,0:0:0:0:
405,299,63740,2,0,L|425:250,2,41.2500012588501,0|0|2,0:0|0:0|0:0,0:0:0:0:
100,307,64328,6,0,P|36:274|26:163,1,165.000005035401,6|2,0:0|0:0,0:0:0:0:
111,195,64917,1,0,0:0:0:0:
196,222,65113,2,0,L|198:128,1,82.5000025177003,8|0,0:0|0:0,0:0:0:0:
149,123,65407,1,0,0:0:0:0:
107,162,65505,2,0,L|102:69,1,82.5000025177003,2|0,0:0|0:0,0:0:0:0:
213,229,65897,6,0,P|297:207|363:120,2,165.000005035401,2|2|8,0:0|0:0|0:0,0:0:0:0:
120,231,66878,2,0,L|41:168,2,82.5000025177003,0|2|2,0:0|0:3|0:3,0:0:0:0:
314,264,67467,6,0,P|374:240|379:132,1,165.000005035401,2|2,0:0|0:0,0:0:0:0:
310,136,68055,1,0,0:0:0:0:
226,194,68251,2,0,L|219:97,1,82.5000025177003,8|0,0:0|0:0,0:0:0:0:
269,108,68546,1,0,0:0:0:0:
321,114,68644,2,0,L|317:20,1,82.5000025177003,2|0,0:0|0:0,0:0:0:0:
225,41,69036,5,2,0:0:0:0:
389,76,69428,1,2,0:0:0:0:
225,41,69821,2,0,L|382:120,1,165.000005035401,8|2,0:0|0:0,0:0:0:0:
62,258,70605,6,0,P|46:196|186:94,1,247.500007553101,6|0,0:0|0:0,0:0:0:0:
272,187,71390,2,0,L|431:112,1,165.000005035401,8|8,0:0|0:0,0:0:0:0:
156,273,72174,6,0,L|74:222,2,82.5000025177003,8|2|8,0:0|0:3|0:0,0:0:0:0:
261,271,72763,2,0,L|285:181,1,82.5000025177003,2|2,0:3|0:0,0:0:0:0:
130,201,73351,1,8,0:0:0:0:
117,161,73449,1,8,0:0:0:0:
116,123,73547,1,8,0:0:0:0:
129,84,73645,1,0,0:0:0:0:
158,55,73744,5,2,0:0:0:0:
312,198,74136,2,0,L|404:128,1,82.5000025177003,2|2,0:0|0:3,0:0:0:0:
273,151,74528,2,0,L|199:89,1,82.5000025177003,2|2,0:0|0:3,0:0:0:0:
293,197,74921,2,0,L|385:127,1,82.5000025177003,2|2,0:0|0:3,0:0:0:0:
162,240,75313,6,0,P|113:221|173:154,1,165.000005035401,2|2,0:0|0:0,0:0:0:0:
261,151,75901,1,2,0:3:0:0:
322,150,76098,2,0,L|310:47,1,82.5000025177003,2|2,0:0|0:3,0:0:0:0:
209,85,76490,1,8,0:0:0:0:
170,69,76588,1,8,0:0:0:0:
132,53,76686,1,2,0:0:0:0:
323,271,76882,6,0,P|389:245|396:139,1,165.000005035401,6|8,0:0|0:0,0:0:0:0:
199,177,77667,2,0,L|194:81,1,82.5000025177003,2|2,0:0|0:3,0:0:0:0:
297,160,78059,2,0,L|303:58,1,82.5000025177003,8|2,0:0|0:3,0:0:0:0:
118,173,78451,6,0,P|70:152|146:96,1,165.000005035401,2|8,0:0|0:0,0:0:0:0:
204,189,79040,1,2,0:3:0:0:
286,232,79236,1,2,0:0:0:0:
311,200,79334,1,0,0:0:0:0:
319,160,79432,1,2,0:3:0:0:
307,121,79530,1,0,0:0:0:0:
278,92,79628,1,8,0:0:0:0:
193,94,79824,1,2,0:3:0:0:
8,165,80021,6,0,P|12:103|101:44,1,165.000005035401,2|8,0:0|0:0,0:0:0:0:
243,146,80805,2,0,L|184:77,1,82.5000025177003,2|2,0:0|0:3,0:0:0:0:
92,119,81198,2,0,L|167:68,1,82.5000025177003,8|2,0:0|0:3,0:0:0:0:
262,254,81590,6,0,P|321:247|339:136,1,165.000005035401,2|8,0:0|0:0,0:0:0:0:
265,88,82178,1,2,0:3:0:0:
168,262,82375,2,0,P|118:198|124:170,1,82.5000025177003,2|2,0:0|0:3,0:0:0:0:
173,127,82767,1,8,0:0:0:0:
487,196,83159,6,0,P|487:109|447:32,1,165.000005035401,6|8,0:0|0:0,0:0:0:0:
322,304,83944,1,2,0:0:0:0:
369,291,84042,1,0,0:0:0:0:
403,257,84140,1,2,0:3:0:0:
416,209,84238,1,0,0:0:0:0:
403,162,84336,2,0,L|327:94,1,82.5000025177003,8|2,0:0|0:3,0:0:0:0:
232,213,84728,6,0,L|43:153,1,165.000005035401,2|8,0:0|0:0,0:0:0:0:
181,125,85317,1,2,0:3:0:0:
255,146,85513,2,0,L|258:48,1,82.5000025177003,2|2,0:0|0:3,0:0:0:0:
165,132,85905,2,0,L|139:89,2,41.2500012588501,8|0|2,0:0|0:0|0:3,0:0:0:0:
362,165,86298,6,0,L|466:143,1,82.5000025177003,2|2,0:0|0:3,0:0:0:0:
339,98,86690,2,0,L|252:38,1,82.5000025177003,8|2,0:0|0:3,0:0:0:0:
365,124,87082,2,0,L|391:25,1,82.5000025177003,2|2,0:0|0:3,0:0:0:0:
305,218,87475,2,0,L|277:174,2,41.2500012588501,8|0|0,0:0|0:0|0:0,0:0:0:0:
411,270,87867,6,0,P|464:233|389:184,1,165.000005035401,2|8,0:0|0:0,0:0:0:0:
256,158,88651,2,0,L|407:62,1,165.000005035401,2|8,0:0|0:0,0:0:0:0:
115,231,89436,6,0,P|71:181|152:120,1,165.000005035401,6|8,0:0|0:0,0:0:0:0:
275,132,90221,2,0,L|181:73,1,82.5000025177003,2|2,0:0|0:3,0:0:0:0:
112,70,90613,2,0,L|194:1,1,82.5000025177003,8|2,0:0|0:3,0:0:0:0:
368,205,91005,6,0,P|414:179|348:109,1,165.000005035401,2|8,0:0|0:0,0:0:0:0:
273,107,91594,1,2,0:3:0:0:
362,287,91790,1,2,0:0:0:0:
391,258,91888,1,0,0:0:0:0:
400,219,91986,1,2,0:3:0:0:
385,181,92084,1,0,0:0:0:0:
352,157,92182,1,8,0:0:0:0:
286,159,92378,1,2,0:3:0:0:
91,168,92575,6,0,B|36:121|36:121|100:40,1,165.000005035401,2|8,0:0|0:0,0:0:0:0:
274,85,93359,2,0,L|348:32,1,82.5000025177003,2|2,0:0|0:3,0:0:0:0:
427,118,93752,2,0,L|334:63,1,82.5000025177003,8|2,0:0|0:3,0:0:0:0:
250,203,94144,6,0,P|206:185|264:110,1,165.000005035401,2|8,0:0|0:0,0:0:0:0:
345,135,94732,1,2,0:3:0:0:
437,185,94928,2,0,P|475:141|462:93,1,82.5000025177003,2|2,0:0|0:3,0:0:0:0:
413,66,95321,1,8,0:0:0:0:
102,263,95713,6,0,P|76:167|120:101,1,165.000005035401,6|8,0:0|0:0,0:0:0:0:
273,171,96498,1,2,0:0:0:0:
299,130,96596,1,0,0:0:0:0:
287,79,96694,1,2,0:3:0:0:
248,57,96792,1,0,0:0:0:0:
200,59,96890,2,0,L|103:62,1,82.5000025177003,8|2,0:0|0:3,0:0:0:0:
210,265,97282,6,0,P|269:241|287:140,1,165.000005035401,2|8,0:0|0:0,0:0:0:0:
202,145,97871,1,2,0:3:0:0:
115,139,98067,2,0,P|111:74|115:44,1,82.5000025177003,2|2,0:0|0:3,0:0:0:0:
215,50,98459,1,8,0:0:0:0:
220,35,98557,1,0,0:0:0:0:
200,1,98655,1,2,0:3:0:0:
93,222,98852,6,0,L|95:140,1,82.5000025177003,2|8,0:0|0:0,0:0:0:0:
203,230,99244,2,0,L|207:147,1,82.5000025177003,2|8,0:0|0:0,0:0:0:0:
307,236,99636,2,0,L|311:153,1,82.5000025177003,2|8,0:0|0:0,0:0:0:0:
427,154,100029,1,2,0:0:0:0:
456,125,100127,1,0,0:0:0:0:
486,96,100225,1,8,0:0:0:0:
291,130,100421,6,0,L|126:79,1,165.000005035401,6|8,0:0|0:0,0:0:0:0:
233,294,101009,2,0,P|286:249|222:202,1,165.000005035401,0|0,0:0|0:0,0:0:0:0:
131,195,101598,6,0,P|78:150|142:103,1,165.000005035401,8|2,0:0|0:0,0:0:0:0:
228,120,102186,2,0,L|423:98,1,165.000005035401,0|0,0:0|0:0,0:0:0:0:
304,280,102775,6,0,P|229:252|213:174,1,165.000005035401,2|8,0:0|0:0,0:0:0:0:
304,152,103363,2,0,P|368:144|464:96,1,165.000005035401
360,136,103952,2,0,P|288:96|200:112,1,165.000005035401,8|2,0:0|0:0,0:0:0:0:
352,176,104736,2,0,L|328:56,1,82.5000025177003,8|0,0:0|0:0,0:0:0:0:
155,205,105129,6,0,P|102:158|172:106,1,165.000005035401,6|8,0:0|0:0,0:0:0:0:
267,173,105717,2,0,P|324:144|354:43,1,165.000005035401,0|0,0:0|0:0,0:0:0:0:
265,279,106305,6,0,P|215:237|280:175,1,165.000005035401,8|2,0:0|0:0,0:0:0:0:
351,158,106894,2,0,L|184:120,1,165.000005035401,0|0,0:0|0:0,0:0:0:0:
102,196,107482,6,0,L|89:96,1,82.5000025177003,2|0,0:0|0:0,0:0:0:0:
191,98,107875,2,0,L|182:-9,1,82.5000025177003,8|0,0:0|0:0,0:0:0:0:
99,224,108267,6,0,L|108:124,1,82.5000025177003,2|0,0:0|0:0,0:0:0:0:
287,213,108659,2,0,L|304:116,1,82.5000025177003,8|0,0:0|0:0,0:0:0:0:
180,119,109052,2,0,L|167:37,1,82.5000025177003,2|0,0:0|0:0,0:0:0:0:
276,27,109444,1,8,0:0:0:0:
16,207,109836,6,0,P|13:150|81:92,1,123.75000377655,6|8,0:0|0:0,0:0:0:0:
96,87,110229,1,0,0:0:0:0:
212,222,110425,2,0,P|275:186|279:116,1,123.75000377655,2|8,0:0|0:0,0:0:0:0:
277,91,110817,1,0,0:0:0:0:
175,142,111013,6,0,P|133:115|158:48,1,123.75000377655,6|8,0:0|0:0,0:0:0:0:
183,34,111405,1,0,0:0:0:0:
281,77,111602,1,2,0:0:0:0:
351,74,111798,2,0,L|343:-2,1,41.2500012588501,8|2,0:0|0:0,0:0:0:0:
112,207,112190,6,0,P|87:158|134:88,1,123.75000377655,6|0,0:0|0:0,0:0:0:0:
148,56,112582,1,8,0:0:0:0:
253,141,112779,2,0,L|390:91,1,123.75000377655,2|8,0:0|0:0,0:0:0:0:
406,59,113171,1,0,0:0:0:0:
206,211,113367,6,0,P|184:149|185:74,1,123.75000377655,6|8,0:0|0:0,0:0:0:0:
306,172,113956,2,0,L|295:76,1,82.5000025177003,6|8,0:0|0:0,0:0:0:0:
261,62,114250,1,2,0:0:0:0:
47,209,114544,6,0,P|37:145|110:114,1,123.75000377655,6|0,0:0|0:0,0:0:0:0:
125,109,114936,1,0,0:0:0:0:
159,86,115034,1,0,0:0:0:0:
194,64,115132,1,6,0:0:0:0:
84,84,115329,2,0,L|75:34,1,41.2500012588501,0|6,0:0|0:0,0:0:0:0:
174,69,115623,2,0,L|208:32,1,41.2500012588501,0|12,0:0|0:0,0:0:0:0:
496,56,116113,5,6,0:0:0:0:
256,192,116506,12,0,122390,0:0:0:0:
