osu file format v14

[General]
AudioFilename: sennen no kotowari.mp3
AudioLeadIn: 0
PreviewTime: 76460
Countdown: 0
SampleSet: Soft
StackLeniency: 0.7
Mode: 2
LetterboxInBreaks: 0
WidescreenStoryboard: 1

[Editor]
Bookmarks: 1559,14108,26657,39206,45497,51755,64304,76853,89402,100382,109836,116113
DistanceSpacing: 1
BeatDivisor: 4
GridSize: 8
TimelineZoom: 1.5

[Metadata]
Title:Sennen no Kotowari
TitleUnicode:千年ノ理
Artist:Nekomata Master
ArtistUnicode:猫叉Master
Creator:Sinnoh
Version:Platter
Source:REFLEC BEAT groovin'!! Upper
Tags:WORLD/ELECTRONICA ZUN 千年幻想郷 ~ History of the Moon BEMANI× 東方Project Ultimate MasterPieces Naoyuki Sato beatmania IIDX 22 PENDUAL
BeatmapID:1475366
BeatmapSetID:695431

[Difficulty]
HPDrainRate:5
CircleSize:3.5
OverallDifficulty:8
ApproachRate:8
SliderMultiplier:2
SliderTickRate:2

[Events]
//Background and Video events
0,0,"celerih trigger.jpg",0,0
//Break Periods
//Storyboard Layer 0 (Background)
//Storyboard Layer 1 (Fail)
//Storyboard Layer 2 (Pass)
//Storyboard Layer 3 (Foreground)
//Storyboard Sound Samples

[TimingPoints]
1559,392.310710082385,4,2,1,60,1,0
14108,-90.9090909090909,4,2,1,60,0,0
39220,-90.9090909090909,4,2,1,60,0,1
51774,-90.9090909090909,4,2,1,50,0,0
64304,-90.9090909090909,4,2,1,60,0,0
76882,-90.9090909090909,4,2,1,65,0,1
82767,-90.9090909090909,4,2,1,65,0,0
83159,-90.9090909090909,4,2,1,65,0,1
89044,-90.9090909090909,4,2,1,65,0,0
89436,-90.9090909090909,4,2,1,65,0,1
95321,-90.9090909090909,4,2,1,65,0,0
95713,-90.9090909090909,4,2,1,65,0,1
100421,-90.9090909090909,4,2,1,60,0,0
109836,-90.9090909090909,4,2,1,70,0,0
116113,-90.9090909090909,4,2,1,80,0,0
116309,-90.9090909090909,4,2,1,50,0,0
116898,-90.9090909090909,4,2,1,45,0,0
117682,-90.9090909090909,4,2,1,40,0,0
118467,-90.9090909090909,4,2,1,35,0,0
119252,-90.9090909090909,4,2,1,30,0,0
120036,-90.9090909090909,4,2,1,25,0,0
120821,-90.9090909090909,4,2,1,15,0,0
121606,-90.9090909090909,4,2,69,5,0,0
122390,-90.9090909090909,4,2,69,5,0,0

[Colours]
Combo1 : 244,139,223
Combo2 : 135,166,249
Combo3 : 250,154,154
Combo4 : 100,136,242
Combo5 : 251,173,229
Combo6 : 0,128,192

[HitObjects]
401,349,1166,6,0,L|404:226,1,100,0|0,0:0|0:0,0:0:0:0:
146,265,1559,2,0,P|95:244|156:147,1,200,6|0,0:0|0:0,0:0:0:0:
253,154,2147,2,0,L|337:69,1,100,0|8,0:0|0:0,0:0:0:0:
195,152,2539,2,0,L|188:84,1,50
256,96,2735,2,0,L|365:39,1,100,0|0,0:0|0:0,0:0:0:0:
226,329,3128,6,0,P|88:252|66:203,2,200,2|2|8,0:3|0:3|0:0,0:0:0:0:
324,335,4109,2,0,L|397:267,2,100,0|0|0,0:0|0:0|0:0,0:0:0:0:
123,349,4697,6,0,P|60:311|138:242,1,200,2|0,0:0|0:0,0:0:0:0:
232,214,5285,2,0,L|139:128,1,100,0|8,0:0|0:0,0:0:0:0:
64,96,5678,2,0,L|129:41,1,50
152,64,5874,2,0,L|248:145,1,100,0|0,0:0|0:0,0:0:0:0:
332,274,6266,6,0,P|407:244|447:111,2,200,2|2|2,0:3|0:3|0:0,0:0:0:0:
166,282,7443,2,0,L|143:161,1,100,2|0,0:0|0:0,0:0:0:0:
408,221,7835,6,0,P|464:174|363:100,1,200,6|0,0:0|0:0,0:0:0:0:
291,132,8424,2,0,L|281:77,1,50,0|0,0:0|0:0,0:0:0:0:
330,306,8620,1,8,0:0:0:0:
369,277,8718,1,0,0:0:0:0:
374,229,8816,1,0,0:0:0:0:
342,192,8914,1,0,0:0:0:0:
290,181,9012,2,0,L|179:104,1,100,0|0,0:0|0:0,0:0:0:0:
400,363,9405,6,0,L|408:238,1,100,2|0,0:0|0:0,0:0:0:0:
365,250,9699,1,0,0:0:0:0:
311,248,9797,1,0,0:0:0:0:
263,231,9895,1,0,0:0:0:0:
216,215,9993,1,0,0:0:0:0:
211,192,10091,1,0,0:0:0:0:
232,134,10189,6,0,L|314:68,1,100,8|0,0:0|0:0,0:0:0:0:
128,195,10582,2,0,L|120:83,1,100,2|0,0:0|0:0,0:0:0:0:
232,167,10974,2,0,L|226:49,1,100,2|0,0:0|0:0,0:0:0:0:
110,63,11366,6,0,L|200:-5,1,100,2|0,0:0|0:0,0:0:0:0:
280,67,11759,1,8,0:0:0:0:
240,36,11857,1,8,0:0:0:0:
200,6,11955,1,8,0:0:0:0:
110,63,12151,2,0,L|200:-5,1,100,2|0,0:0|0:0,0:0:0:0:
373,236,12543,6,0,P|428:200|345:110,1,200,2|2,0:0|0:0,0:0:0:0:
72,209,13328,2,0,L|65:85,1,100,8|2,0:0|0:0,0:0:0:0:
117,94,13622,1,2,0:0:0:0:
169,79,13720,2,0,P|123:99|54:88,1,100,8|0,0:0|0:0,0:0:0:0:
350,210,14112,6,0,P|415:165|415:64,1,165.000005035401,6|0,0:0|0:0,0:0:0:0:
378,74,14505,1,8,0:0:0:0:
263,74,14701,1,2,0:3:0:0:
159,83,14897,2,0,L|137:18,2,55.0000016784668,2|0|2,0:0|0:0|0:3,0:0:0:0:
268,126,15289,2,0,L|373:68,1,110.000003356934,8|2,0:0|0:3,0:0:0:0:
156,250,15682,6,0,P|122:187|199:144,1,165.000005035401,2|0,0:0|0:0,0:0:0:0:
230,139,16074,1,8,0:0:0:0:
114,101,16270,2,0,L|15:23,1,110.000003356934,2|2,0:3|0:0,0:0:0:0:
150,154,16662,2,0,L|58:72,2,110.000003356934,2|8|2,0:3|0:0|0:3,0:0:0:0:
343,179,17251,6,0,P|386:119|313:61,1,165.000005035401,2|0,0:0|0:0,0:0:0:0:
289,37,17643,1,8,0:0:0:0:
195,115,17839,1,2,0:3:0:0:
296,130,18036,1,2,0:0:0:0:
339,96,18134,1,0,0:0:0:0:
382,61,18232,1,2,0:3:0:0:
272,87,18428,2,0,L|139:14,1,110.000003356934,8|2,0:0|0:3,0:0:0:0:
390,271,18820,5,2,0:0:0:0:
434,240,18918,1,0,0:0:0:0:
451,189,19016,1,2,0:3:0:0:
433,138,19114,1,2,0:3:0:0:
388,108,19212,1,8,0:0:0:0:
277,89,19409,2,0,L|374:19,1,110.000003356934,2|2,0:3|0:0,0:0:0:0:
234,20,19801,2,0,L|347:102,1,110.000003356934,2|8,0:3|0:0,0:0:0:0:
194,140,20193,1,2,0:3:0:0:
482,230,20389,6,0,P|507:170|460:80,1,165.000005035401,6|0,0:0|0:0,0:0:0:0:
403,88,20782,1,8,0:0:0:0:
303,105,20978,1,0,0:0:0:0:
204,206,21174,1,2,0:0:0:0:
188,150,21272,1,2,0:3:0:0:
200,96,21370,1,2,0:3:0:0:
331,282,21566,2,0,L|336:167,1,110.000003356934,8|2,0:0|0:3,0:0:0:0:
149,197,21959,6,0,P|86:132|117:78,1,165.000005035401,2|0,0:0|0:0,0:0:0:0:
175,68,22351,2,0,L|280:-3,1,110.000003356934,8|0,0:0|0:0,0:0:0:0:
120,262,22743,2,0,L|115:145,1,110.000003356934,2|2,0:0|0:3,0:0:0:0:
209,113,23136,2,0,L|99:49,1,110.000003356934,8|2,0:0|0:3,0:0:0:0:
374,218,23528,6,0,L|433:118,1,110.000003356934,2|0,0:0|0:0,0:0:0:0:
374,81,23822,2,0,L|279:40,1,55.0000016784668,2|8,0:3|0:0,0:0:0:0:
243,88,24116,1,0,0:0:0:0:
336,235,24313,1,2,0:0:0:0:
335,180,24411,1,0,0:0:0:0:
308,163,24509,2,0,L|179:82,2,110.000003356934,2|8|2,0:3|0:0|0:3,0:0:0:0:
114,229,25097,6,0,P|60:159|54:96,1,110.000003356934,2|0,0:0|0:0,0:0:0:0:
175,123,25489,2,0,P|229:53|235:-10,1,110.000003356934,8|2,0:0|0:3,0:0:0:0:
117,144,25882,2,0,L|67:51,2,55.0000016784668,2|2|2,0:0|0:3|0:3,0:0:0:0:
200,81,26274,2,0,L|54:16,1,110.000003356934,8|2,0:0|0:3,0:0:0:0:
380,246,26666,6,0,P|426:139|378:76,1,165.000005035401,6|0,0:0|0:0,0:0:0:0:
351,70,27059,1,8,0:0:0:0:
258,149,27255,1,2,0:3:0:0:
256,93,27353,1,0,0:0:0:0:
256,38,27451,1,2,0:0:0:0:
367,144,27647,2,0,L|457:65,2,110.000003356934,2|8|2,0:3|0:0|0:3,0:0:0:0:
179,205,28236,6,0,B|124:157|124:157|182:69,1,165.000005035401,2|0,0:0|0:0,0:0:0:0:
216,49,28628,1,8,0:0:0:0:
102,101,28824,2,0,L|6:11,1,110.000003356934,2|2,0:3|0:0,0:0:0:0:
127,217,29216,1,0,0:0:0:0:
157,171,29314,1,0,0:0:0:0:
167,117,29412,1,8,0:0:0:0:
155,64,29510,1,0,0:0:0:0:
124,19,29608,1,2,0:3:0:0:
302,234,29805,6,0,P|377:186|374:87,1,165.000005035401,2|0,0:0|0:0,0:0:0:0:
325,104,30197,1,8,0:0:0:0:
232,106,30393,2,0,L|204:40,2,55.0000016784668,2|0|2,0:3|0:0|0:0,0:0:0:0:
342,127,30786,2,0,L|421:38,2,110.000003356934,2|8|2,0:3|0:0|0:3,0:0:0:0:
244,239,31374,6,0,L|469:163,1,220.000006713867,2|8,0:0|0:0,0:0:0:0:
356,180,31963,1,0,0:0:0:0:
274,192,32159,2,0,P|207:144|294:49,1,220.000006713867,2|2,0:0|0:3,0:0:0:0:
370,50,32747,1,0,0:0:0:0:
88,219,32943,6,0,P|56:160|115:74,1,165.000005035401,6|0,0:0|0:0,0:0:0:0:
154,82,33336,2,0,L|271:5,1,110.000003356934,8|0,0:0|0:0,0:0:0:0:
356,72,33728,2,0,L|230:138,1,110.000003356934,2|2,0:0|0:3,0:0:0:0:
141,144,34120,2,0,L|257:203,1,110.000003356934,8|2,0:0|0:3,0:0:0:0:
348,275,34513,6,0,P|394:233|338:138,1,165.000005035401,2|0,0:0|0:0,0:0:0:0:
319,123,34905,1,8,0:0:0:0:
209,123,35101,2,0,L|120:34,2,110.000003356934,2|2|2,0:3|0:0|0:3,0:0:0:0:
111,182,35690,2,0,L|81:110,2,55.0000016784668,8|2|2,0:0|0:3|0:3,0:0:0:0:
302,265,36082,6,0,P|373:208|347:108,1,165.000005035401,2|0,0:0|0:0,0:0:0:0:
320,111,36474,1,8,0:0:0:0:
218,114,36670,1,2,0:3:0:0:
316,101,36866,2,0,L|314:30,1,55.0000016784668,2|0,0:0|0:0,0:0:0:0:
259,79,37063,2,0,L|163:-12,2,110.000003356934,2|8|0,0:3|0:0|0:0,0:0:0:0:
385,263,37651,6,0,L|383:145,1,110.000003356934,2|2,0:0|0:3,0:0:0:0:
199,224,38043,2,0,L|190:101,1,110.000003356934,8|2,0:0|0:3,0:0:0:0:
303,100,38436,2,0,L|213:36,1,110.000003356934,2|2,0:0|0:3,0:0:0:0:
107,117,38828,2,0,L|212:43,1,110.000003356934,8|0,0:0|0:0,0:0:0:0:
459,366,39220,5,2,0:0:0:0:
487,319,39318,1,0,0:0:0:0:
497,265,39416,1,2,0:3:0:0:
487,211,39514,1,0,0:0:0:0:
460,164,39612,1,8,0:0:0:0:
417,129,39710,1,0,0:0:0:0:
366,120,39808,1,2,0:3:0:0:
311,120,39906,1,0,0:0:0:0:
255,132,40005,6,0,L|147:32,1,110.000003356934,2|2,0:0|0:3,0:0:0:0:
318,181,40397,2,0,L|403:88,1,110.000003356934,8|2,0:0|0:3,0:0:0:0:
255,132,40790,2,0,L|147:32,1,110.000003356934,2|2,0:0|0:3,0:0:0:0:
318,181,41182,2,0,L|403:88,1,110.000003356934,8|2,0:0|0:3,0:0:0:0:
110,304,41574,6,0,L|39:272,1,55.0000016784668,2|0,0:0|0:0,0:0:0:0:
22,245,41770,2,0,L|0:181,1,55.0000016784668,2|0,0:3|0:0,0:0:0:0:
7,137,41967,2,0,L|33:89,1,55.0000016784668,8|0,0:0|0:0,0:0:0:0:
76,55,42163,2,0,L|145:37,1,55.0000016784668,2|2,0:3|0:3,0:0:0:0:
200,310,42359,5,2,0:0:0:0:
245,281,42457,1,0,0:0:0:0:
258,228,42555,1,2,0:3:0:0:
231,182,42653,1,0,0:0:0:0:
177,146,42751,1,8,0:0:0:0:
150,100,42849,1,0,0:0:0:0:
163,47,42947,1,2,0:3:0:0:
208,18,43045,1,0,0:0:0:0:
266,140,43143,6,0,L|270:24,1,110.000003356934,2|2,0:0|0:3,0:0:0:0:
159,157,43536,2,0,L|71:81,1,110.000003356934,8|2,0:0|0:3,0:0:0:0:
194,137,43928,2,0,L|198:21,1,110.000003356934,2|2,0:0|0:3,0:0:0:0:
94,114,44320,2,0,L|6:38,1,110.000003356934,8|2,0:0|0:3,0:0:0:0:
326,225,44713,6,0,L|381:136,2,55.0000016784668,2|0|2,0:0|0:0|0:3,0:0:0:0:
133,230,45105,2,0,L|78:141,2,55.0000016784668,8|0|2,0:0|0:0|0:3,0:0:0:0:
435,339,45497,5,6,0:0:0:0:
493,321,45595,1,0,0:0:0:0:
500,269,45693,1,2,0:3:0:0:
458,236,45791,1,0,0:0:0:0:
408,216,45890,1,8,0:0:0:0:
375,189,45988,1,0,0:0:0:0:
380,147,46086,1,2,0:3:0:0:
420,131,46184,1,0,0:0:0:0:
475,119,46282,6,0,L|361:55,1,110.000003356934,2|2,0:0|0:3,0:0:0:0:
264,117,46674,2,0,L|150:53,1,110.000003356934,8|2,0:0|0:3,0:0:0:0:
315,82,47067,2,0,L|201:18,1,110.000003356934,2|2,0:0|0:3,0:0:0:0:
116,81,47459,2,0,L|2:17,1,110.000003356934,8|2,0:0|0:3,0:0:0:0:
164,135,47851,6,0,L|50:71,1,110.000003356934,2|2,0:0|0:3,0:0:0:0:
270,169,48243,2,0,L|298:26,1,110.000003356934,8|2,0:0|0:3,0:0:0:0:
155,366,48636,5,2,0:0:0:0:
104,345,48734,1,0,0:0:0:0:
65,307,48832,1,2,0:3:0:0:
43,257,48930,1,0,0:0:0:0:
43,202,49028,1,8,0:0:0:0:
65,152,49126,1,0,0:0:0:0:
104,114,49224,1,2,0:3:0:0:
154,94,49322,1,0,0:3:0:0:
214,97,49420,6,0,L|324:43,1,110.000003356934,2|2,0:0|0:3,0:0:0:0:
200,189,49813,2,0,L|110:114,1,110.000003356934,8|2,0:0|0:3,0:0:0:0:
390,203,50205,2,0,L|499:141,1,110.000003356934,2|2,0:0|0:3,0:0:0:0:
368,147,50597,2,0,L|372:35,1,110.000003356934,8|2,0:0|0:3,0:0:0:0:
61,206,50990,6,0,L|54:83,1,110.000003356934,2|2,0:0|0:3,0:0:0:0:
170,119,51382,2,0,L|54:53,1,110.000003356934,8|2,0:0|0:3,0:0:0:0:
417,284,51774,6,0,P|493:245|359:95,1,330.000010070801,6|0,0:0|0:0,0:0:0:0:
302,94,52559,1,8,0:0:0:0:
207,224,52755,2,0,L|205:170,1,55.0000016784668,0|0,0:0|0:0,0:0:0:0:
256,147,52951,2,0,L|352:53,1,110.000003356934,0|0,0:0|0:0,0:0:0:0:
197,271,53344,6,0,P|144:244|213:134,1,220.000006713867,2|2,0:3|0:0,0:0:0:0:
373,145,54128,1,8,0:0:0:0:
445,73,54324,2,0,L|341:20,2,110.000003356934,0|2|2,0:0|0:3|0:3,0:0:0:0:
171,280,54913,6,0,P|111:255|183:58,1,330.000010070801,2|0,0:0|0:0,0:0:0:0:
284,213,55697,2,0,L|294:66,1,110.000003356934,8|0,0:0|0:0,0:0:0:0:
230,89,55992,1,0,0:0:0:0:
169,86,56090,2,0,L|53:29,1,110.000003356934,0|0,0:0|0:0,0:0:0:0:
173,275,56482,6,0,P|237:231|151:136,1,220.000006713867,2|2,0:3|0:0,0:0:0:0:
24,121,57267,1,8,0:0:0:0:
171,113,57659,2,0,L|69:40,1,110.000003356934,2|2,0:3|0:3,0:0:0:0:
341,299,58051,6,0,P|406:264|357:136,1,220.000006713867,6|2,0:0|0:3,0:0:0:0:
290,222,58640,2,0,L|281:148,1,55.0000016784668,0|0,0:0|0:0,0:0:0:0:
345,160,58836,2,0,L|432:82,1,110.000003356934,8|0,0:0|0:0,0:0:0:0:
304,123,59228,2,0,L|217:45,1,110.000003356934,2|0,0:3|0:0,0:0:0:0:
414,288,59620,6,0,P|449:237|409:195,1,110.000003356934,2|0,0:0|0:0,0:0:0:0:
364,197,59915,1,0,0:0:0:0:
316,190,60013,2,0,L|216:107,1,110.000003356934,2|2,0:3|0:0,0:0:0:0:
335,223,60405,2,0,P|391:172|281:77,1,220.000006713867,8|2,0:0|0:3,0:0:0:0:
230,92,60994,1,2,0:3:0:0:
130,223,61190,6,0,L|123:104,1,110.000003356934,2|2,0:0|0:3,0:0:0:0:
244,195,61582,2,0,L|237:76,1,110.000003356934,2|2,0:0|0:3,0:0:0:0:
126,218,61974,2,0,L|16:143,1,110.000003356934,8|0,0:0|0:0,0:0:0:0:
141,143,62367,2,0,L|251:68,1,110.000003356934,2|0,0:0|0:0,0:0:0:0:
53,232,62759,6,0,P|10:188|116:86,1,220.000006713867,2|2,0:0|0:0,0:0:0:0:
181,125,63347,1,2,0:3:0:0:
281,164,63544,2,0,L|281:37,1,110.000003356934,8|0,0:0|0:0,0:0:0:0:
219,51,63838,1,0,0:0:0:0:
168,118,63936,2,0,L|75:44,1,110.000003356934,2|2,0:0|0:3,0:0:0:0:
359,287,64328,6,0,P|415:267|360:124,1,220.000006713867,6|2,0:0|0:0,0:0:0:0:
302,133,64917,1,0,0:0:0:0:
205,219,65113,2,0,L|202:103,1,110.000003356934,8|0,0:0|0:0,0:0:0:0:
251,103,65407,1,0,0:0:0:0:
303,106,65505,2,0,L|395:38,1,110.000003356934,2|0,0:0|0:0,0:0:0:0:
282,278,65897,6,0,L|285:165,1,110.000003356934,2|2,0:0|0:3,0:0:0:0:
171,278,66290,2,0,L|174:165,1,110.000003356934,2|2,0:0|0:3,0:0:0:0:
284,168,66682,1,8,0:0:0:0:
372,181,66878,2,0,P|424:122|414:50,2,110.000003356934,0|2|2,0:0|0:3|0:3,0:0:0:0:
183,215,67467,6,0,P|122:184|190:83,1,220.000006713867,2|2,0:0|0:0,0:0:0:0:
285,84,68055,1,0,0:0:0:0:
186,188,68251,1,8,0:0:0:0:
101,184,68447,2,0,L|100:115,1,55.0000016784668,0|0,0:0|0:0,0:0:0:0:
139,104,68644,2,0,L|234:30,1,110.000003356934,2|0,0:0|0:0,0:0:0:0:
424,211,69036,6,0,L|426:94,1,110.000003356934,2|0,0:0|0:0,0:0:0:0:
311,182,69428,2,0,L|209:99,1,110.000003356934,2|0,0:0|0:0,0:0:0:0:
336,139,69821,2,0,L|438:56,1,110.000003356934,8|0,0:0|0:0,0:0:0:0:
294,106,70213,2,0,L|382:29,1,110.000003356934,2|2,0:0|0:3,0:0:0:0:
110,264,70605,6,0,P|42:223|127:147,1,220.000006713867,6|2,0:0|0:3,0:0:0:0:
228,209,71194,2,0,L|218:128,1,55.0000016784668
160,145,71390,1,8,0:0:0:0:
137,107,71488,1,0,0:0:0:0:
136,84,71586,1,2,0:3:0:0:
183,50,71684,1,0,0:0:0:0:
234,134,71782,2,0,L|344:50,1,110.000003356934,8|2,0:0|0:3,0:0:0:0:
136,216,72174,6,0,L|56:128,1,110.000003356934,8|2,0:0|0:3,0:0:0:0:
114,313,72469,1,0,0:0:0:0:
161,288,72567,1,8,0:0:0:0:
180,238,72665,1,0,0:0:0:0:
160,188,72763,1,2,0:3:0:0:
112,165,72861,1,0,0:0:0:0:
53,154,72959,6,0,L|156:48,1,110.000003356934,2|2,0:0|0:3,0:0:0:0:
253,261,73351,1,8,0:0:0:0:
284,217,73449,1,8,0:0:0:0:
280,164,73547,1,8,0:0:0:0:
240,127,73645,1,0,0:0:0:0:
185,171,73744,6,0,L|174:44,1,110.000003356934,2|0,0:0|0:0,0:0:0:0:
300,247,74136,2,0,L|303:131,1,110.000003356934,2|2,0:0|0:3,0:0:0:0:
428,185,74528,2,0,L|460:68,1,110.000003356934,2|2,0:0|0:3,0:0:0:0:
377,69,74921,2,0,L|478:-2,1,110.000003356934,2|2,0:0|0:3,0:0:0:0:
262,241,75313,6,0,P|209:215|284:101,1,220.000006713867,2|2,0:0|0:0,0:0:0:0:
364,88,75901,1,2,0:3:0:0:
263,157,76098,2,0,L|159:85,1,110.000003356934,2|2,0:0|0:3,0:0:0:0:
429,246,76490,2,0,L|458:193,2,55.0000016784668,8|8|2,0:0|0:0|0:0,0:0:0:0:
138,286,76882,6,0,P|103:233|119:130,1,165.000005035401,6|0,0:0|0:0,0:0:0:0:
174,250,77274,2,0,L|260:172,1,110.000003356934,8|2,0:0|0:3,0:0:0:0:
461,179,77667,2,0,L|469:59,1,110.000003356934,2|2,0:0|0:3,0:0:0:0:
344,57,78059,2,0,L|441:3,1,110.000003356934,8|2,0:0|0:3,0:0:0:0:
164,240,78451,6,0,B|120:182|120:182|119:64,1,165.000005035401,2|0,0:0|0:0,0:0:0:0:
161,110,78844,1,8,0:0:0:0:
250,62,79040,1,2,0:3:0:0:
62,189,79236,1,2,0:0:0:0:
37,139,79334,1,0,0:0:0:0:
30,85,79432,1,2,0:3:0:0:
41,31,79530,1,0,0:0:0:0:
68,0,79628,1,8,0:0:0:0:
184,127,79824,1,2,0:3:0:0:
450,322,80021,6,0,B|491:283|491:283|499:234|488:175,1,165.000005035401,2|0,0:0|0:0,0:0:0:0:
439,160,80413,2,0,L|333:99,1,110.000003356934,8|2,0:0|0:3,0:0:0:0:
238,148,80805,2,0,L|359:72,1,110.000003356934,2|2,0:0|0:3,0:0:0:0:
226,199,81198,2,0,L|218:76,1,110.000003356934,8|2,0:0|0:3,0:0:0:0:
417,193,81590,6,0,L|418:76,1,110.000003356934,2|2,0:0|0:3,0:0:0:0:
367,67,81884,1,0,0:0:0:0:
312,44,81982,1,8,0:0:0:0:
210,103,82178,1,2,0:3:0:0:
108,320,82375,1,2,0:0:0:0:
86,269,82473,1,0,0:0:0:0:
86,215,82571,1,2,0:3:0:0:
99,181,82636,1,0,0:0:0:0:
121,151,82701,1,0,0:0:0:0:
154,123,82767,2,0,L|58:56,1,110.000003356934,8|2,0:0|0:3,0:0:0:0:
331,254,83159,6,0,P|380:199|352:96,1,165.000005035401,6|0,0:0|0:0,0:0:0:0:
322,101,83551,2,0,L|225:31,1,110.000003356934,8|2,0:0|0:3,0:0:0:0:
362,226,83944,2,0,L|454:143,1,110.000003356934,2|2,0:0|0:3,0:0:0:0:
343,174,84336,2,0,L|342:54,1,110.000003356934,8|2,0:0|0:3,0:0:0:0:
156,243,84728,6,0,P|110:199|148:88,1,165.000005035401,2|0,0:0|0:0,0:0:0:0:
169,85,85121,1,8,0:0:0:0:
275,109,85317,1,2,0:3:0:0:
167,150,85513,2,0,L|91:59,1,110.000003356934,2|2,0:0|0:3,0:0:0:0:
316,288,85905,1,8,0:0:0:0:
346,242,86003,1,0,0:0:0:0:
356,189,86101,1,2,0:3:0:0:
344,136,86199,1,0,0:0:0:0:
311,92,86297,5,2,0:0:0:0:
187,115,86494,2,0,L|89:40,2,110.000003356934,2|8|2,0:3|0:0|0:3,0:0:0:0:
388,249,87082,2,0,L|403:128,1,110.000003356934,2|2,0:0|0:3,0:0:0:0:
285,135,87475,2,0,L|237:55,2,55.0000016784668,8|0|0,0:0|0:0|0:0,0:0:0:0:
411,179,87867,6,0,L|487:97,1,110.000003356934,2|2,0:0|0:3,0:0:0:0:
372,119,88259,2,0,L|274:37,1,110.000003356934,8|2,0:0|0:3,0:0:0:0:
464,301,88651,1,2,0:0:0:0:
490,253,88749,1,0,0:0:0:0:
492,173,88848,1,2,0:3:0:0:
479,139,88913,1,0,0:0:0:0:
459,108,88978,1,0,0:0:0:0:
433,82,89044,2,0,L|342:1,1,110.000003356934,8|2,0:0|0:3,0:0:0:0:
66,252,89436,6,0,P|43:192|101:107,1,165.000005035401,6|0,0:0|0:0,0:0:0:0:
138,100,89828,2,0,L|234:20,1,110.000003356934,8|2,0:0|0:3,0:0:0:0:
419,116,90221,2,0,P|430:170|429:225,1,110.000003356934,2|2,0:0|0:3,0:0:0:0:
304,158,90613,2,0,L|212:78,1,110.000003356934,8|2,0:0|0:3,0:0:0:0:
492,176,91005,6,0,P|506:118|416:22,1,165.000005035401,2|0,0:0|0:0,0:0:0:0:
397,34,91398,1,8,0:0:0:0:
298,128,91594,1,2,0:3:0:0:
199,239,91790,1,2,0:0:0:0:
173,191,91888,1,0,0:0:0:0:
174,136,91986,1,2,0:3:0:0:
202,89,92084,1,0,0:0:0:0:
237,68,92182,2,0,L|334:-5,1,110.000003356934,8|2,0:0|0:3,0:0:0:0:
50,233,92575,6,0,P|40:142|106:90,1,165.000005035401,2|0,0:0|0:0,0:0:0:0:
165,143,92967,2,0,L|239:57,1,110.000003356934,8|2,0:0|0:3,0:0:0:0:
117,104,93359,2,0,L|34:15,1,110.000003356934,2|2,0:0|0:3,0:0:0:0:
157,175,93752,2,0,L|160:57,1,110.000003356934,8|2,0:0|0:3,0:0:0:0:
378,268,94144,6,0,P|428:208|385:126,1,165.000005035401,2|0,0:0|0:0,0:0:0:0:
349,119,94536,2,0,L|467:50,1,110.000003356934,8|2,0:0|0:3,0:0:0:0:
354,309,94928,1,2,0:0:0:0:
308,279,95026,1,0,0:0:0:0:
289,229,95125,1,2,0:3:0:0:
294,193,95190,1,0,0:0:0:0:
313,162,95255,1,0,0:0:0:0:
343,141,95321,2,0,L|424:63,1,110.000003356934,8|2,0:0|0:3,0:0:0:0:
131,277,95713,6,0,P|72:217|122:148,1,165.000005035401,6|0,0:0|0:0,0:0:0:0:
154,143,96105,2,0,L|264:68,1,110.000003356934,8|2,0:0|0:3,0:0:0:0:
359,123,96498,2,0,L|262:51,1,110.000003356934,2|2,0:0|0:3,0:0:0:0:
402,223,96890,2,0,L|405:86,1,110.000003356934,8|2,0:0|0:3,0:0:0:0:
233,170,97282,6,0,P|189:127|260:31,1,165.000005035401,2|0,0:0|0:0,0:0:0:0:
265,30,97675,1,8,0:0:0:0:
367,41,97871,1,2,0:3:0:0:
220,257,98067,2,0,L|216:140,1,110.000003356934,2|2,0:0|0:3,0:0:0:0:
328,132,98459,1,8,0:0:0:0:
281,102,98557,1,0,0:0:0:0:
234,73,98655,1,2,0:3:0:0:
188,44,98753,1,0,0:0:0:0:
141,15,98851,5,2,0:0:0:0:
227,165,99048,2,0,L|316:233,2,110.000003356934,8|2|8,0:0|0:0|0:0,0:0:0:0:
114,163,99636,2,0,L|75:81,2,55.0000016784668,2|0|8,0:0|0:0|0:0,0:0:0:0:
200,174,100028,1,2,0:0:0:0:
212,137,100093,1,0,0:0:0:0:
198,101,100159,1,0,0:0:0:0:
170,72,100224,1,8,0:0:0:0:
446,257,100421,6,0,P|504:219|415:134,1,220.000006713867,6|8,0:0|0:0,0:0:0:0:
314,141,101009,1,0,0:0:0:0:
230,211,101205,1,2,0:0:0:0:
218,157,101303,1,0,0:0:0:0:
228,103,101401,1,0,0:0:0:0:
259,58,101499,1,0,0:0:0:0:
304,28,101597,1,8,0:0:0:0:
181,114,101794,6,0,L|92:44,2,110.000003356934,0|2|0,0:0|0:0|0:0,0:0:0:0:
266,230,102382,1,8,0:0:0:0:
221,197,102480,1,0,0:0:0:0:
177,164,102578,1,0,0:0:0:0:
133,131,102676,1,0,0:0:0:0:
89,98,102774,1,2,0:0:0:0:
219,127,102971,2,0,L|322:43,1,110.000003356934,0|8,0:0|0:0,0:0:0:0:
212,39,103363,1,0,0:0:0:0:
321,231,103559,5,2,0:0:0:0:
359,217,103657,1,0,0:0:0:0:
374,179,103755,1,0,0:0:0:0:
187,213,103951,1,8,0:0:0:0:
199,143,104148,1,0,0:0:0:0:
333,266,104344,2,0,L|336:150,1,110.000003356934,2|0,0:0|0:0,0:0:0:0:
453,191,104736,2,0,L|443:76,1,110.000003356934,8|0,0:0|0:0,0:0:0:0:
139,210,105129,6,0,P|77:172|166:73,1,220.000006713867,6|8,0:0|0:0,0:0:0:0:
229,114,105717,1,0,0:0:0:0:
321,188,105913,1,2,0:0:0:0:
319,133,106011,1,0,0:0:0:0:
294,85,106109,1,0,0:0:0:0:
249,54,106207,1,0,0:0:0:0:
195,47,106305,1,8,0:0:0:0:
321,246,106502,6,0,L|412:173,2,110.000003356934,0|2|0,0:0|0:0|0:0,0:0:0:0:
134,268,107090,2,0,L|125:154,1,110.000003356934,8|0,0:0|0:0,0:0:0:0:
234,158,107482,2,0,L|351:76,1,110.000003356934,2|0,0:0|0:0,0:0:0:0:
218,100,107875,2,0,L|101:18,1,110.000003356934,8|0,0:0|0:0,0:0:0:0:
258,248,108267,6,0,L|266:118,1,110.000003356934,2|0,0:0|0:0,0:0:0:0:
73,166,108659,2,0,P|24:105|4:59,1,110.000003356934,8|0,0:0|0:0,0:0:0:0:
119,184,109052,2,0,L|214:85,1,110.000003356934,2|0,0:0|0:0,0:0:0:0:
94,76,109444,2,0,L|75:-1,2,55.0000016784668,8|0|0,0:0|0:0|0:0,0:0:0:0:
423,230,109836,6,0,P|446:167|418:89,1,110.000003356934,6|0,0:0|0:0,0:0:0:0:
399,86,110130,1,8,0:0:0:0:
356,68,110229,1,0,0:0:0:0:
176,189,110425,1,2,0:0:0:0:
289,190,110621,1,0,0:0:0:0:
293,136,110719,1,8,0:0:0:0:
298,81,110817,1,0,0:0:0:0:
124,83,111013,6,0,L|23:0,1,110.000003356934,6|0,0:0|0:0,0:0:0:0:
90,30,111307,1,8,0:0:0:0:
136,51,111405,1,0,0:0:0:0:
318,210,111602,1,2,0:0:0:0:
422,200,111798,2,0,L|429:112,1,55.0000016784668,8|2,0:0|0:0,0:0:0:0:
375,94,111994,1,0,0:0:0:0:
105,170,112190,6,0,L|12:74,1,110.000003356934,6|0,0:0|0:0,0:0:0:0:
59,120,112484,2,0,L|99:163,1,55.0000016784668,0|8,0:0|0:0,0:0:0:0:
278,202,112779,2,0,P|311:148|310:96,1,110.000003356934,2|0,0:0|0:0,0:0:0:0:
261,98,113073,1,8,0:0:0:0:
205,90,113171,1,0,0:0:0:0:
487,243,113367,6,0,P|506:174|494:90,1,110.000003356934,6|0,0:0|0:0,0:0:0:0:
492,90,113661,1,8,0:0:0:0:
438,62,113759,1,0,0:0:0:0:
265,165,113955,1,6,0:0:0:0:
346,131,114152,2,0,L|370:69,2,55.0000016784668,8|2|0,0:0|0:0|0:0,0:0:0:0:
68,187,114544,6,0,L|57:64,1,110.000003356934,6|0,0:0|0:0,0:0:0:0:
343,198,114936,2,0,L|379:119,2,55.0000016784668,0|0|6,0:0|0:0|0:0,0:0:0:0:
216,221,115329,2,0,L|187:144,1,55.0000016784668,0|6,0:0|0:0,0:0:0:0:
337,178,115623,1,0,0:0:0:0:
374,140,115721,1,12,0:0:0:0:
371,86,115819,1,8,0:0:0:0:
330,52,115917,1,2,0:0:0:0:
63,74,116113,1,6,0:0:0:0:
256,192,116309,12,0,122390,0:0:0:0:
