osu file format v14

[General]
AudioFilename: sennen no kotowari.mp3
AudioLeadIn: 0
PreviewTime: 76460
Countdown: 0
SampleSet: Soft
StackLeniency: 0.7
Mode: 2
LetterboxInBreaks: 0
WidescreenStoryboard: 1

[Editor]
Bookmarks: 1559,14108,26657,39206,45497,51755,64304,76853,89402,100382,109836,116113
DistanceSpacing: 1.1
BeatDivisor: 4
GridSize: 8
TimelineZoom: 1.5

[Metadata]
Title:Sennen no Kotowari
TitleUnicode:千年ノ理
Artist:Nekomata Master
ArtistUnicode:猫叉Master
Creator:Sinnoh
Version:Cup
Source:REFLEC BEAT groovin'!! Upper
Tags:WORLD/ELECTRONICA ZUN 千年幻想郷 ~ History of the Moon BEMANI× 東方Project Ultimate MasterPieces Naoyuki Sato beatmania IIDX 22 PENDUAL
BeatmapID:1479016
BeatmapSetID:695431

[Difficulty]
HPDrainRate:3
CircleSize:2.5
OverallDifficulty:6
ApproachRate:6
SliderMultiplier:1.3
SliderTickRate:1

[Events]
//Background and Video events
0,0,"celerih trigger.jpg",0,0
//Break Periods
2,51974,63278
//Storyboard Layer 0 (Background)
//Storyboard Layer 1 (Fail)
//Storyboard Layer 2 (Pass)
//Storyboard Layer 3 (Foreground)
//Storyboard Sound Samples

[TimingPoints]
1559,392.310710082385,4,2,1,60,1,0
14108,-90.9090909090909,4,2,1,60,0,0
39220,-90.9090909090909,4,2,1,60,0,1
51774,-90.9090909090909,4,2,1,50,0,0
64304,-90.9090909090909,4,2,1,60,0,0
76882,-90.9090909090909,4,2,1,65,0,1
82767,-90.9090909090909,4,2,1,65,0,0
83159,-90.9090909090909,4,2,1,65,0,1
89044,-90.9090909090909,4,2,1,65,0,0
89436,-90.9090909090909,4,2,1,65,0,1
95321,-90.9090909090909,4,2,1,65,0,0
95713,-90.9090909090909,4,2,1,65,0,1
100421,-90.9090909090909,4,2,1,60,0,0
109836,-90.9090909090909,4,2,1,70,0,0
116113,-90.9090909090909,4,2,1,80,0,0
116309,-90.9090909090909,4,2,1,50,0,0
116898,-90.9090909090909,4,2,1,45,0,0
117682,-90.9090909090909,4,2,1,40,0,0
118467,-90.9090909090909,4,2,1,35,0,0
119252,-90.9090909090909,4,2,1,30,0,0
120036,-90.9090909090909,4,2,1,25,0,0
120821,-90.9090909090909,4,2,1,15,0,0
121606,-90.9090909090909,4,2,69,5,0,0

[Colours]
Combo1 : 244,139,223
Combo2 : 135,166,249
Combo3 : 250,154,154
Combo4 : 100,136,242
Combo5 : 251,173,229
Combo6 : 0,128,192

[HitObjects]
308,338,1559,6,0,P|378:299|285:176,1,260,6|8,0:0|0:0,0:0:0:0:
143,247,2735,2,0,L|135:112,1,130,0|2,0:0|0:3,0:0:0:0:
420,97,3912,1,8,0:0:0:0:
354,60,4109,2,0,L|291:35,1,65
149,244,4697,6,0,L|424:236,1,260,2|8,0:0|0:0,0:0:0:0:
274,155,5874,1,0,0:0:0:0:
134,199,6266,2,0,L|5:163,2,130,2|2|2,0:3|0:3|0:0,0:0:0:0:
277,209,7443,1,2,0:0:0:0:
455,214,7835,6,0,P|462:116|315:78,1,260,6|8,0:0|0:0,0:0:0:0:
197,108,9012,1,0,0:0:0:0:
378,261,9405,2,0,L|398:124,1,130,2|0,0:0|0:0,0:0:0:0:
251,120,10189,1,8,0:0:0:0:
110,154,10582,6,0,L|232:67,1,130,2|2,0:0|0:0,0:0:0:0:
321,147,11366,2,0,L|199:60,1,130,2|8,0:0|0:0,0:0:0:0:
100,145,12151,1,2,0:0:0:0:
256,179,12543,6,0,P|226:71|200:56,1,130,2|2,0:0|0:0,0:0:0:0:
72,138,13328,1,8,0:0:0:0:
67,112,13720,1,8,0:0:0:0:
258,178,14112,6,0,L|399:125,1,143.000004364014,6|8,0:0|0:0,0:0:0:0:
240,192,14897,2,0,P|192:152|240:112,1,143.000004364014,2|8,0:0|0:0,0:0:0:0:
414,165,15682,2,0,B|463:167|481:141|481:141|496:118|502:52,2,143.000004364014,2|8|2,0:0|0:0|0:0,0:0:0:0:
325,213,16663,1,2,0:3:0:0:
137,241,17055,1,2,0:3:0:0:
112,204,17251,6,0,P|107:147|174:83,1,143.000004364014,2|8,0:0|0:0,0:0:0:0:
325,81,18036,2,0,L|158:34,1,143.000004364014,2|8,0:0|0:0,0:0:0:0:
36,155,18820,6,0,L|23:83,2,71.5000021820069,2|2|8,0:0|0:3|0:0,0:0:0:0:
111,194,19409,1,2,0:3:0:0:
258,195,19801,1,2,0:3:0:0:
411,194,20193,1,2,0:3:0:0:
320,178,20389,6,0,L|166:103,1,143.000004364014,6|8,0:0|0:0,0:0:0:0:
353,171,21174,2,0,L|484:96,1,143.000004364014,2|8,0:0|0:0,0:0:0:0:
285,294,21959,2,0,P|223:258|321:106,1,286.000008728028,2|2,0:0|0:0,0:0:0:0:
443,103,23136,1,8,0:0:0:0:
295,222,23528,6,0,L|148:195,1,143.000004364014,2|8,0:0|0:0,0:0:0:0:
306,156,24312,2,0,L|348:61,2,71.5000021820069,2|2|8,0:0|0:3|0:0,0:0:0:0:
182,180,25097,1,2,0:0:0:0:
21,155,25489,1,8,0:0:0:0:
175,110,25882,1,2,0:0:0:0:
56,73,26274,1,8,0:0:0:0:
237,254,26666,6,0,L|382:220,1,143.000004364014,6|8,0:0|0:0,0:0:0:0:
212,193,27451,1,2,0:0:0:0:
137,164,27647,2,0,L|106:86,2,71.5000021820069,2|8|2,0:3|0:0|0:3,0:0:0:0:
201,174,28236,6,0,L|355:155,1,143.000004364014,2|8,0:0|0:0,0:0:0:0:
483,114,29020,1,2,0:0:0:0:
502,54,29216,2,0,L|399:37,1,71.5000021820069,0|8,0:0|0:0,0:0:0:0:
337,46,29609,1,2,0:3:0:0:
255,244,29805,6,0,P|210:220|268:166,1,143.000004364014,2|8,0:0|0:0,0:0:0:0:
384,144,30589,1,2,0:0:0:0:
299,130,30786,2,0,L|210:111,1,71.5000021820069,2|8,0:3|0:0,0:0:0:0:
135,193,31178,2,0,P|72:121|167:51,1,214.500006546021,2|8,0:3|0:0,0:0:0:0:
284,257,32159,2,0,L|296:103,1,143.000004364014,2|2,0:0|0:3,0:0:0:0:
119,244,32943,6,0,B|54:241|54:241|43:164,1,143.000004364014,6|8,0:0|0:0,0:0:0:0:
182,172,33728,2,0,L|331:115,1,143.000004364014,2|8,0:0|0:0,0:0:0:0:
169,193,34513,2,0,P|173:125|352:22,1,286.000008728028,2|2,0:0|0:0,0:0:0:0:
474,208,35690,2,0,L|440:112,1,71.5000021820069,8|2,0:0|0:3,0:0:0:0:
352,157,36082,6,0,L|193:105,1,143.000004364014,2|8,0:0|0:0,0:0:0:0:
350,284,36866,2,0,P|400:237|398:149,1,143.000004364014,2|8,0:0|0:0,0:0:0:0:
244,151,37651,1,2,0:0:0:0:
124,106,38043,1,8,0:0:0:0:
277,86,38436,1,2,0:0:0:0:
392,49,38828,1,8,0:0:0:0:
201,188,39220,6,0,L|46:136,3,143.000004364014,2|8|2|8,0:0|0:0|0:0|0:0,0:0:0:0:
207,259,40790,6,0,L|218:111,1,143.000004364014,2|8,0:0|0:0,0:0:0:0:
376,184,41574,2,0,L|446:132,1,71.5000021820069,2|2,0:0|0:3,0:0:0:0:
352,113,41967,2,0,L|275:54,1,71.5000021820069,8|2,0:0|0:3,0:0:0:0:
376,170,42359,6,0,L|531:118,3,143.000004364014,2|8|2|8,0:0|0:0|0:0|0:0,0:0:0:0:
367,92,43928,5,2,0:0:0:0:
209,93,44320,1,8,0:0:0:0:
75,252,44713,2,0,L|71:160,1,71.5000021820069,2|2,0:0|0:3,0:0:0:0:
156,192,45105,2,0,L|152:102,1,71.5000021820069,8|2,0:0|0:3,0:0:0:0:
252,157,45497,6,0,L|388:65,3,143.000004364014,6|8|2|8,0:0|0:0|0:0|0:0,0:0:0:0:
238,261,47067,2,0,P|199:232|258:167,1,143.000004364014,2|8,0:0|0:0,0:0:0:0:
382,211,47851,2,0,P|421:182|362:117,1,143.000004364014,2|8,0:0|0:0,0:0:0:0:
233,146,48636,6,0,L|97:54,3,143.000004364014,2|8|2|8,0:0|0:0|0:0|0:0,0:0:0:0:
253,67,50205,6,0,L|390:127,1,143.000004364014,2|8,0:0|0:0,0:0:0:0:
243,71,50990,2,0,L|119:156,1,143.000004364014,2|8,0:0|0:0,0:0:0:0:
313,233,51774,1,6,0:0:0:0:
423,169,64328,6,0,L|272:109,1,143.000004364014,6|2,0:0|0:0,0:0:0:0:
165,169,65113,2,0,L|316:109,1,143.000004364014,8|2,0:0|0:0,0:0:0:0:
150,83,65897,2,0,L|17:12,2,143.000004364014,2|2|8,0:0|0:0|0:0,0:0:0:0:
278,178,67074,1,2,0:3:0:0:
135,222,67467,6,0,B|63:221|63:221|145:221,1,143.000004364014,2|2,0:0|0:0,0:0:0:0:
292,159,68251,2,0,L|428:86,1,143.000004364014,8|2,0:0|0:0,0:0:0:0:
276,54,69036,1,2,0:0:0:0:
410,72,69428,1,2,0:0:0:0:
278,134,69821,1,8,0:0:0:0:
143,123,70213,1,2,0:0:0:0:
315,292,70605,6,0,P|395:245|290:124,1,286.000008728028,6|8,0:0|0:0,0:0:0:0:
150,132,71782,1,8,0:0:0:0:
22,257,72174,2,0,L|19:107,1,143.000004364014,8|8,0:0|0:0,0:0:0:0:
169,124,72959,1,2,0:0:0:0:
304,138,73351,6,0,L|322:-10,1,143.000004364014,8|2,0:0|0:0,0:0:0:0:
165,121,74136,2,0,L|321:68,2,143.000004364014,2|2|2,0:0|0:0|0:0,0:0:0:0:
331,264,75313,2,0,P|338:160|338:115,1,143.000004364014,2|2,0:0|0:0,0:0:0:0:
224,118,76098,1,2,0:0:0:0:
346,69,76490,1,8,0:0:0:0:
167,149,76882,6,0,L|22:77,2,143.000004364014,6|8|2,0:0|0:0|0:0,0:0:0:0:
303,156,78059,1,8,0:0:0:0:
441,89,78451,2,0,L|314:14,1,143.000004364014,2|8,0:0|0:0,0:0:0:0:
178,175,79236,2,0,L|143:94,2,71.5000021820069,2|2|8,0:0|0:3|0:0,0:0:0:0:
331,225,80021,6,0,P|379:203|315:171,1,143.000004364014,2|8,0:0|0:0,0:0:0:0:
180,169,80805,2,0,L|51:82,1,143.000004364014,2|8,0:0|0:0,0:0:0:0:
217,179,81590,2,0,P|269:124|167:62,1,214.500006546021,2|2,0:0|0:3,0:0:0:0:
98,211,82375,2,0,P|80:119|92:68,1,143.000004364014,2|8,0:0|0:0,0:0:0:0:
285,271,83159,6,0,L|433:243,2,143.000004364014,6|8|2,0:0|0:0|0:0,0:0:0:0:
145,130,84336,1,8,0:0:0:0:
279,170,84728,6,0,P|297:122|216:94,1,143.000004364014,2|8,0:0|0:0,0:0:0:0:
95,196,85513,2,0,L|98:115,1,71.5000021820069,2|2,0:0|0:3,0:0:0:0:
185,112,85905,2,0,L|188:22,1,71.5000021820069,8|2,0:0|0:3,0:0:0:0:
293,57,86298,5,2,0:0:0:0:
395,138,86690,2,0,L|239:88,1,143.000004364014,8|2,0:0|0:0,0:0:0:0:
141,78,87474,2,0,L|211:32,1,71.5000021820069,8|2,0:0|0:3,0:0:0:0:
296,144,87867,2,0,L|443:102,3,143.000004364014,2|8|2|8,0:0|0:0|0:0|0:0,0:0:0:0:
232,245,89436,6,0,L|96:166,2,143.000004364014,6|8|2,0:0|0:0|0:0,0:0:0:0:
369,199,90613,1,8,0:0:0:0:
209,189,91005,2,0,P|163:155|218:106,1,143.000004364014,2|8,0:0|0:0,0:0:0:0:
334,103,91790,2,0,L|356:21,2,71.5000021820069,2|2|8,0:0|0:3|0:0,0:0:0:0:
177,113,92575,6,0,L|29:72,1,143.000004364014,2|8,0:0|0:0,0:0:0:0:
156,254,93359,2,0,P|200:214|138:169,1,143.000004364014,2|8,0:0|0:0,0:0:0:0:
7,174,94144,2,0,B|14:92|14:92|162:73,1,214.500006546021,2|2,0:0|0:3,0:0:0:0:
198,243,94928,2,0,L|89:145,1,143.000004364014,2|8,0:0|0:0,0:0:0:0:
289,177,95713,6,0,L|446:124,2,143.000004364014,6|8|2,0:0|0:0|0:0,0:0:0:0:
144,172,96890,1,8,0:0:0:0:
282,197,97282,6,0,P|323:177|260:116,1,143.000004364014,2|8,0:0|0:0,0:0:0:0:
146,167,98067,2,0,L|158:85,1,71.5000021820069,2|2,0:0|0:3,0:0:0:0:
251,111,98459,2,0,L|237:29,1,71.5000021820069,8|2,0:0|0:3,0:0:0:0:
133,110,98852,6,0,L|63:41,2,71.5000021820069,2|8|2,0:0|0:0|0:0,0:0:0:0:
300,122,99636,2,0,L|370:53,2,71.5000021820069,2|8|2,0:0|0:0|0:0,0:0:0:0:
119,178,100421,6,0,P|94:131|162:82,1,143.000004364014,6|8,0:0|0:0,0:0:0:0:
241,111,101009,2,0,L|243:27,1,71.5000021820069,0|2,0:0|0:0,0:0:0:0:
83,194,101598,2,0,L|67:43,1,143.000004364014,8|2,0:0|0:0,0:0:0:0:
157,67,102186,2,0,L|243:47,1,71.5000021820069,0|8,0:0|0:0,0:0:0:0:
373,213,102775,6,0,P|415:185|345:134,1,143.000004364014,2|8,0:0|0:0,0:0:0:0:
283,129,103363,2,0,L|278:52,1,71.5000021820069,0|2,0:0|0:0,0:0:0:0:
410,58,103952,2,0,L|262:14,1,143.000004364014,8|2,0:0|0:0,0:0:0:0:
197,43,104540,2,0,L|280:73,1,71.5000021820069,0|8,0:0|0:0,0:0:0:0:
112,257,105129,6,0,P|38:217|29:139,1,143.000004364014,6|8,0:0|0:0,0:0:0:0:
95,143,105717,2,0,L|174:109,1,71.5000021820069,0|2,0:0|0:0,0:0:0:0:
293,190,106305,2,0,P|288:128|201:106,1,143.000004364014,8|2,0:0|0:0,0:0:0:0:
157,92,106894,2,0,L|237:49,1,71.5000021820069,0|8,0:0|0:0,0:0:0:0:
380,171,107482,6,0,L|512:109,2,143.000004364014,2|8|2,0:0|0:0|0:0,0:0:0:0:
242,193,108659,2,0,L|380:156,1,143.000004364014,8|2,0:0|0:0,0:0:0:0:
236,150,109444,1,8,0:0:0:0:
59,199,109836,6,0,P|49:143|68:64,1,107.25000327301,6|8,0:0|0:0,0:0:0:0:
177,137,110425,2,0,P|185:89|182:27,1,107.25000327301,2|8,0:0|0:0,0:0:0:0:
321,139,111013,6,0,L|441:86,1,107.25000327301,6|8,0:0|0:0,0:0:0:0:
280,74,111602,2,0,L|197:34,1,71.5000021820069,2|8,0:0|0:0,0:0:0:0:
382,214,112190,6,0,P|374:157|326:142,1,107.25000327301,6|0,0:0|0:0,0:0:0:0:
221,141,112779,2,0,P|178:123|166:48,1,107.25000327301,2|8,0:0|0:0,0:0:0:0:
302,91,113367,6,0,L|403:35,2,107.25000327301,6|8|6,0:0|0:0|0:0,0:0:0:0:
175,123,114250,1,2,0:0:0:0:
43,206,114544,2,0,P|52:131|122:103,1,143.000004364014,6|0,0:0|0:0,0:0:0:0:
174,99,115132,1,6,0:0:0:0:
317,179,115427,1,6,0:0:0:0:
217,157,115721,1,12,0:0:0:0:
411,131,116113,5,6,0:0:0:0:
256,192,116506,12,0,122390,0:0:0:0:
