osu file format v14

[General]
AudioFilename: sennen no kotowari.mp3
AudioLeadIn: 0
PreviewTime: 76460
Countdown: 0
SampleSet: Soft
StackLeniency: 0.7
Mode: 2
LetterboxInBreaks: 0
WidescreenStoryboard: 1

[Editor]
Bookmarks: 1559,14108,26657,39206,45497,51755,64304,76853,89402,100382,109836,116113
DistanceSpacing: 1.1
BeatDivisor: 4
GridSize: 32
TimelineZoom: 1.5

[Metadata]
Title:Sennen no Kotowari
TitleUnicode:千年ノ理
Artist:Nekomata Master
ArtistUnicode:猫叉Master
Creator:Sinnoh
Version:Rain
Source:REFLEC BEAT groovin'!! Upper
Tags:WORLD/ELECTRONICA ZUN 千年幻想郷 ~ History of the Moon BEMANI× 東方Project Ultimate MasterPieces Naoyuki Sato beatmania IIDX 22 PENDUAL
BeatmapID:1475261
BeatmapSetID:695431

[Difficulty]
HPDrainRate:7
CircleSize:4
OverallDifficulty:9
ApproachRate:9
SliderMultiplier:2
SliderTickRate:2

[Events]
//Background and Video events
0,0,"celerih trigger.jpg",0,0
//Break Periods
//Storyboard Layer 0 (Background)
//Storyboard Layer 1 (Fail)
//Storyboard Layer 2 (Pass)
//Storyboard Layer 3 (Foreground)
//Storyboard Sound Samples

[TimingPoints]
1559,392.310710082385,4,2,1,60,1,0
14108,-90.9090909090909,4,2,1,60,0,0
39220,-80,4,2,1,60,0,1
51774,-90.9090909090909,4,2,1,50,0,0
64304,-83.3333333333333,4,2,1,60,0,0
76882,-80,4,2,1,65,0,1
82767,-80,4,2,1,65,0,0
83159,-80,4,2,1,65,0,1
89044,-80,4,2,1,65,0,0
89436,-80,4,2,1,65,0,1
95321,-80,4,2,1,65,0,0
95713,-80,4,2,1,65,0,1
100421,-83.3333333333333,4,2,1,60,0,0
109836,-83.3333333333333,4,2,1,70,0,0
116113,-83.3333333333333,4,2,1,80,0,0
116309,-83.3333333333333,4,2,1,50,0,0
116898,-83.3333333333333,4,2,1,45,0,0
117682,-83.3333333333333,4,2,1,40,0,0
118467,-83.3333333333333,4,2,1,35,0,0
119252,-83.3333333333333,4,2,1,30,0,0
120036,-83.3333333333333,4,2,1,25,0,0
120821,-83.3333333333333,4,2,1,15,0,0
121606,-83.3333333333333,4,2,69,5,0,0
122390,-83.3333333333333,4,2,69,5,0,0

[Colours]
Combo1 : 244,139,223
Combo2 : 135,166,249
Combo3 : 250,154,154
Combo4 : 100,136,242
Combo5 : 251,173,229
Combo6 : 0,128,192

[HitObjects]
391,224,1166,6,0,L|393:108,1,100,0|0,0:0|0:0,0:0:0:0:
331,106,1460,1,0,0:0:0:0:
158,168,1559,6,0,P|96:136|182:67,1,200,6|0,0:0|0:0,0:0:0:0:
274,56,2147,1,0,0:0:0:0:
397,53,2343,1,8,0:0:0:0:
259,255,2539,2,0,L|235:186,2,50,0|0|0,0:0|0:0|0:0,0:0:0:0:
364,246,2932,1,0,0:0:0:0:
497,286,3128,6,0,L|500:162,1,100,2|2,0:3|0:3,0:0:0:0:
367,185,3520,2,0,L|371:78,1,100,2|2,0:3|0:3,0:0:0:0:
211,79,3912,1,8,0:0:0:0:
83,90,4109,2,0,P|34:82|3:44,2,100,0|0|0,0:0|0:0|0:0,0:0:0:0:
353,247,4697,6,0,P|404:221|317:142,1,200,2|0,0:0|0:0,0:0:0:0:
224,123,5285,2,0,L|350:121,1,100,0|8,0:0|0:0,0:0:0:0:
242,202,5678,2,0,L|233:171,2,25,0|0|0,0:0|0:0|0:0,0:0:0:0:
315,211,5874,2,0,L|429:210,1,100,0|0,0:0|0:0,0:0:0:0:
263,343,6266,6,0,L|268:234,1,100,2|2,0:3|0:3,0:0:0:0:
150,251,6659,2,0,L|155:142,1,100,2|2,0:3|0:3,0:0:0:0:
364,135,7051,2,0,L|469:132,1,100,2|0,0:0|0:0,0:0:0:0:
345,290,7443,2,0,L|348:161,1,100,2|0,0:0|0:0,0:0:0:0:
58,291,7835,5,6,0:0:0:0:
35,247,7933,1,0,0:0:0:0:
34,197,8031,1,0,0:0:0:0:
56,152,8129,1,0,0:0:0:0:
95,122,8227,1,0,0:0:0:0:
144,113,8325,1,0,0:0:0:0:
211,123,8424,2,0,L|221:89,2,25,0|0|0,0:0|0:0|0:0,0:0:0:0:
133,156,8620,6,0,L|124:87,1,50,8|0,0:0|0:0,0:0:0:0:
205,89,8816,2,0,L|208:39,1,50,0|0,0:0|0:0,0:0:0:0:
126,36,9012,2,0,L|60:38,1,50,0|0,0:0|0:0,0:0:0:0:
145,101,9209,2,0,L|206:104,1,50,0|0,0:0|0:0,0:0:0:0:
370,267,9405,5,2,0:0:0:0:
402,229,9503,1,0,0:0:0:0:
418,180,9601,2,0,L|398:106,1,50,0|0,0:0|0:0,0:0:0:0:
341,123,9797,2,0,L|278:124,1,50,0|0,0:0|0:0,0:0:0:0:
360,161,9993,2,0,L|443:162,1,50,0|0,0:0|0:0,0:0:0:0:
355,300,10189,5,8,0:0:0:0:
315,272,10287,1,0,0:0:0:0:
312,224,10385,1,0,0:0:0:0:
348,192,10483,1,0,0:0:0:0:
416,179,10582,2,0,L|409:107,1,50,2|0,0:0|0:0,0:0:0:0:
483,108,10778,2,0,L|476:36,1,50,0|0,0:0|0:0,0:0:0:0:
260,113,10974,6,0,L|143:109,1,100,2|0,0:0|0:0,0:0:0:0:
296,44,11366,2,0,L|403:46,1,100,2|0,0:0|0:0,0:0:0:0:
123,260,11759,5,8,0:0:0:0:
78,239,11857,1,8,0:0:0:0:
60,194,11955,1,8,0:0:0:0:
77,149,12053,1,8,0:0:0:0:
122,128,12151,2,0,L|244:123,1,100,2|0,0:0|0:0,0:0:0:0:
83,226,12543,6,0,L|79:117,1,100,2|0,0:0|0:0,0:0:0:0:
239,206,12936,2,0,L|240:95,1,100,2|0,0:0|0:0,0:0:0:0:
493,224,13328,2,0,L|495:104,1,100,8|2,0:0|0:0,0:0:0:0:
436,98,13622,1,2,0:0:0:0:
281,158,13720,2,0,P|275:86|375:63,1,150,8|0,0:0|0:0,0:0:0:0:
107,233,14112,6,0,P|57:147|62:121,1,110.000003356934,6|2,0:0|0:3,0:0:0:0:
104,100,14407,2,0,L|161:61,1,55.0000016784668,0|8,0:0|0:0,0:0:0:0:
287,145,14701,2,0,L|311:62,2,55.0000016784668,2|0|2,0:3|0:0|0:0,0:0:0:0:
138,131,15093,2,0,L|265:126,2,110.000003356934,2|8|2,0:3|0:0|0:3,0:0:0:0:
392,260,15682,6,0,P|423:209|411:157,1,110.000003356934,2|2,0:0|0:3,0:0:0:0:
356,148,15976,2,0,L|284:114,1,55.0000016784668,0|8,0:0|0:0,0:0:0:0:
178,174,16270,2,0,L|173:109,1,55.0000016784668,2|0,0:3|0:3,0:0:0:0:
234,93,16466,2,0,L|302:87,1,55.0000016784668,2|0,0:0|0:0,0:0:0:0:
120,156,16662,2,0,L|85:71,1,55.0000016784668,2|0,0:3|0:0,0:0:0:0:
135,63,16859,1,8,0:0:0:0:
197,43,16957,1,0,0:0:0:0:
365,164,17055,2,0,L|392:108,1,55.0000016784668,2|0,0:3|0:0,0:0:0:0:
220,91,17251,6,0,L|105:92,1,110.000003356934,2|2,0:0|0:3,0:0:0:0:
161,55,17545,2,0,L|233:49,1,55.0000016784668,0|8,0:0|0:0,0:0:0:0:
364,169,17839,1,2,0:3:0:0:
366,114,17937,1,0,0:0:0:0:
368,59,18035,1,2,0:0:0:0:
253,49,18232,2,0,L|365:50,1,110.000003356934,2|8,0:3|0:0,0:0:0:0:
490,55,18624,1,2,0:3:0:0:
214,244,18820,6,0,P|157:220|171:155,1,110.000003356934,2|2,0:0|0:3,0:0:0:0:
208,144,19114,2,0,L|269:103,1,55.0000016784668,2|8,0:3|0:0,0:0:0:0:
109,129,19409,2,0,L|108:52,1,55.0000016784668,2|0,0:3|0:0,0:0:0:0:
184,48,19605,1,2,0:0:0:0:
322,125,19801,2,0,L|323:48,1,55.0000016784668,2|0,0:3|0:0,0:0:0:0:
247,44,19997,1,8,0:0:0:0:
366,243,20193,2,0,L|374:164,1,55.0000016784668,2|0,0:3|0:0,0:0:0:0:
155,154,20389,6,0,L|32:155,1,110.000003356934,6|2,0:0|0:3,0:0:0:0:
104,202,20684,2,0,L|193:206,1,55.0000016784668,0|8,0:0|0:0,0:0:0:0:
291,131,20978,1,0,0:0:0:0:
230,128,21076,1,0,0:0:0:0:
169,126,21174,2,0,L|161:4,1,110.000003356934,2|2,0:0|0:3,0:0:0:0:
333,133,21566,2,0,L|341:23,1,110.000003356934,8|2,0:0|0:3,0:0:0:0:
56,217,21959,6,0,L|42:97,1,110.000003356934,2|2,0:0|0:3,0:0:0:0:
106,91,22253,2,0,L|194:84,1,55.0000016784668,0|8,0:0|0:0,0:0:0:0:
295,135,22547,2,0,L|297:49,1,55.0000016784668,0|0,0:0|0:0,0:0:0:0:
217,52,22743,2,0,L|105:49,2,110.000003356934,2|2|8,0:0|0:3|0:0,0:0:0:0:
71,113,23332,1,2,0:3:0:0:
337,181,23528,6,0,L|455:180,1,110.000003356934,2|0,0:0|0:0,0:0:0:0:
283,144,23822,2,0,L|203:146,1,55.0000016784668,2|8,0:3|0:0,0:0:0:0:
351,107,24116,2,0,L|361:34,1,55.0000016784668,0|0,0:0|0:0,0:0:0:0:
288,46,24313,6,0,L|222:14,1,55.0000016784668,2|0,0:0|0:0,0:0:0:0:
124,185,24509,2,0,P|121:141|129:95,1,55.0000016784668,2|0,0:3|0:3,0:3:0:0:
376,149,24705,1,8,0:0:0:0:
380,64,24901,2,0,L|287:57,1,55.0000016784668,2|2,0:3|0:3,0:0:0:0:
145,217,25097,6,0,P|76:167|74:126,1,110.000003356934,2|0,0:0|0:0,0:0:0:0:
351,182,25489,2,0,P|420:132|422:91,1,110.000003356934,8|2,0:0|0:3,0:0:0:0:
311,89,25882,2,0,L|270:36,2,55.0000016784668,2|2|2,0:0|0:3|0:3,0:0:0:0:
462,200,26274,2,0,L|471:70,1,110.000003356934,8|2,0:0|0:3,0:0:0:0:
185,85,26666,6,0,L|63:120,1,110.000003356934,6|2,0:0|0:3,0:0:0:0:
135,141,26961,2,0,L|207:142,1,55.0000016784668,0|8,0:0|0:0,0:0:0:0:
63,235,27255,2,0,L|53:176,1,55.0000016784668,2|0,0:3|0:0,0:0:0:0:
114,165,27451,1,2,0:0:0:0:
242,151,27647,2,0,L|361:139,2,110.000003356934,2|8|2,0:3|0:0|0:3,0:0:0:0:
496,212,28236,6,0,P|492:140|471:91,1,110.000003356934,2|2,0:0|0:3,0:0:0:0:
414,98,28530,2,0,L|331:97,1,55.0000016784668,0|8,0:0|0:0,0:0:0:0:
186,233,28824,1,2,0:3:0:0:
133,190,28922,1,0,0:0:0:0:
133,122,29020,5,2,0:0:0:0:
185,81,29118,1,0,0:0:0:0:
245,84,29216,2,0,L|264:51,2,27.5000008392334,0|0|0,0:0|0:0|0:0,0:0:0:0:
166,95,29413,1,8,0:0:0:0:
114,78,29511,1,0,0:0:0:0:
83,34,29609,1,2,0:3:0:0:
391,223,29805,6,0,P|428:164|386:110,1,110.000003356934,2|2,0:0|0:3,0:0:0:0:
358,123,30099,2,0,L|277:89,1,55.0000016784668,0|8,0:0|0:0,0:0:0:0:
458,109,30393,2,0,L|476:50,2,55.0000016784668,2|0|2,0:3|0:0|0:0,0:0:0:0:
324,87,30786,2,0,L|438:68,2,110.000003356934,2|8|2,0:3|0:0|0:3,0:0:0:0:
61,198,31374,6,0,P|47:123|91:88,1,110.000003356934,2|2,0:0|0:3,0:0:0:0:
126,70,31668,1,0,0:0:0:0:
285,223,31766,2,0,P|317:166|308:122,1,110.000003356934,8|0,0:0|0:0,0:0:0:0:
262,102,32061,1,2,0:3:0:0:
198,107,32159,2,0,L|77:84,1,110.000003356934,2|0,0:0|0:0,0:0:0:0:
233,43,32551,2,0,L|364:29,1,110.000003356934,2|0,0:3|0:0,0:0:0:0:
75,288,32943,6,0,P|30:234|53:189,1,110.000003356934,6|2,0:0|0:3,0:0:0:0:
101,180,33238,2,0,L|174:156,1,55.0000016784668,0|8,0:0|0:0,0:0:0:0:
302,162,33532,2,0,L|311:88,1,55.0000016784668,0|0,0:0|0:0,0:0:0:0:
249,91,33728,2,0,L|185:31,2,55.0000016784668,2|2|2,0:0|0:3|0:3,0:0:0:0:
389,146,34120,2,0,L|493:107,1,110.000003356934,8|2,0:0|0:3,0:0:0:0:
219,118,34513,6,0,L|99:96,1,110.000003356934,2|2,0:0|0:3,0:0:0:0:
176,65,34807,2,0,L|254:51,1,55.0000016784668,0|8,0:0|0:0,0:0:0:0:
75,36,35101,2,0,L|201:32,2,110.000003356934,2|2|2,0:3|0:0|0:3,0:0:0:0:
212,210,35690,1,8,0:0:0:0:
214,155,35788,1,2,0:3:0:0:
217,100,35886,1,2,0:3:0:0:
484,187,36082,6,0,L|488:71,1,110.000003356934,2|2,0:0|0:3,0:0:0:0:
327,83,36376,1,0,0:0:0:0:
254,83,36474,1,8,0:0:0:0:
137,51,36670,2,0,L|206:50,1,55.0000016784668,2|0,0:3|0:0,0:0:0:0:
252,47,36866,2,0,L|332:45,1,55.0000016784668,2|0,0:0|0:0,0:0:0:0:
114,150,37063,2,0,L|8:79,1,110.000003356934,2|8,0:3|0:0,0:0:0:0:
159,198,37455,2,0,L|241:188,1,55.0000016784668,0|0,0:0|0:0,0:0:0:0:
379,167,37651,6,0,L|496:158,1,110.000003356934,2|2,0:0|0:3,0:0:0:0:
345,84,38043,2,0,L|480:81,1,110.000003356934,8|2,0:0|0:3,0:0:0:0:
385,60,38338,1,0,0:0:0:0:
315,49,38436,2,0,L|199:46,1,110.000003356934,2|2,0:0|0:3,0:0:0:0:
363,211,38828,2,0,L|372:75,1,110.000003356934,8|0,0:0|0:0,0:0:0:0:
74,331,39220,5,2,0:0:0:0:
32,287,39318,1,0,0:0:0:0:
43,228,39416,1,2,0:3:0:0:
98,203,39514,1,0,0:0:0:0:
179,187,39613,1,8,0:0:0:0:
221,143,39711,1,0,0:0:0:0:
210,84,39809,1,2,0:3:0:0:
155,59,39907,1,0,0:0:0:0:
74,331,40005,5,2,0:0:0:0:
32,287,40103,1,0,0:0:0:0:
43,228,40201,1,2,0:3:0:0:
98,203,40299,1,2,0:3:0:0:
262,200,40397,6,0,L|301:128,1,62.5,8|0,0:0|0:0,0:0:0:0:
216,120,40593,2,0,L|177:59,1,62.5,2|0,0:3|0:0,0:0:0:0:
251,300,40790,1,2,0:0:0:0:
292,256,40888,1,0,0:0:0:0:
283,196,40986,1,2,0:3:0:0:
229,168,41084,1,0,0:0:0:0:
401,310,41182,2,0,L|455:243,1,62.5,8|0,0:0|0:0,0:0:0:0:
444,153,41378,2,0,L|377:113,1,62.5,2|2,0:3|0:3,0:0:0:0:
315,106,41574,6,0,L|287:23,3,62.5,2|0|2|0,0:0|0:0|0:3|0:0,0:0:0:0:
352,155,41967,2,0,L|414:108,3,62.5,8|0|2|2,0:0|0:0|0:3|0:3,0:0:0:0:
468,313,42359,5,2,0:0:0:0:
510,269,42457,1,0,0:0:0:0:
499,210,42555,1,2,0:3:0:0:
444,185,42653,1,0,0:0:0:0:
363,169,42751,1,8,0:0:0:0:
321,125,42849,1,0,0:0:0:0:
332,66,42947,1,2,0:3:0:0:
387,41,43045,1,0,0:0:0:0:
468,313,43144,5,2,0:0:0:0:
510,269,43242,1,0,0:0:0:0:
499,210,43340,1,2,0:3:0:0:
444,185,43438,1,2,0:3:0:0:
277,189,43536,2,0,L|219:136,1,62.5,8|0,0:0|0:0,0:0:0:0:
314,129,43732,2,0,L|359:63,1,62.5,2|0,0:3|0:0,0:0:0:0:
284,328,43928,5,2,0:0:0:0:
229,303,44026,1,0,0:0:0:0:
218,244,44124,1,2,0:3:0:0:
260,200,44222,1,0,0:0:0:0:
314,163,44320,1,8,0:0:0:0:
356,119,44418,1,0,0:0:0:0:
345,60,44516,1,2,0:3:0:0:
290,35,44614,1,2,0:3:0:0:
121,150,44713,6,0,L|111:72,1,62.5,2|0,0:0|0:0,0:0:0:0:
177,69,44909,2,0,L|250:64,1,62.5,2|0,0:3|0:0,0:0:0:0:
424,157,45105,2,0,L|434:79,1,62.5,8|0,0:0|0:0,0:0:0:0:
370,79,45301,2,0,L|297:74,1,62.5,2|2,0:3|0:3,0:0:0:0:
141,260,45497,5,0,0:0:0:0:
80,251,45595,1,0,0:0:0:0:
38,207,45693,1,0,0:0:0:0:
33,146,45791,1,0,0:0:0:0:
113,169,45890,1,0,0:0:0:0:
174,160,45988,1,0,0:0:0:0:
216,116,46086,1,0,0:0:0:0:
221,55,46184,1,0,0:0:0:0:
141,260,46282,5,0,0:0:0:0:
80,251,46380,1,0,0:0:0:0:
38,207,46478,1,0,0:0:0:0:
33,146,46576,1,0,0:0:0:0:
213,257,46674,2,0,L|276:186,1,62.5,8|0,0:0|0:0,0:0:0:0:
176,174,46870,2,0,L|108:135,1,62.5,2|0,0:3|0:0,0:0:0:0:
212,246,47067,5,2,0:0:0:0:
268,217,47165,1,0,0:0:0:0:
324,190,47263,1,2,0:3:0:0:
381,163,47361,1,0,0:0:0:0:
443,276,47459,1,8,0:0:0:0:
387,247,47557,1,0,0:0:0:0:
331,220,47655,1,2,0:3:0:0:
274,193,47753,1,0,0:0:0:0:
208,161,47851,5,2,0:0:0:0:
264,132,47949,1,0,0:0:0:0:
320,105,48047,1,2,0:3:0:0:
376,79,48145,1,0,0:0:0:0:
216,113,48243,2,0,L|139:101,1,62.5,8|0,0:0|0:0,0:0:0:0:
92,89,48440,2,0,L|19:78,1,62.5,2|0,0:3|0:0,0:0:0:0:
268,293,48636,5,0,0:0:0:0:
329,284,48734,1,0,0:0:0:0:
371,240,48832,1,0,0:0:0:0:
376,179,48930,1,0,0:0:0:0:
296,202,49029,1,0,0:0:0:0:
235,193,49127,1,0,0:0:0:0:
193,149,49225,1,0,0:0:0:0:
188,88,49323,1,0,0:0:0:0:
268,293,49421,5,0,0:0:0:0:
329,284,49519,1,0,0:0:0:0:
371,240,49617,1,0,0:0:0:0:
376,179,49715,1,0,0:0:0:0:
300,136,49813,2,0,L|289:67,1,62.5,8|0,0:0|0:0,0:0:0:0:
367,119,50009,2,0,L|384:21,1,62.5,2|0,0:3|0:0,0:0:0:0:
174,116,50205,6,0,L|93:77,1,62.5,2|0,0:0|0:0,0:0:0:0:
180,45,50401,2,0,L|247:21,1,62.5,2|0,0:3|0:0,0:0:0:0:
405,199,50597,2,0,L|471:159,1,62.5,8|0,0:0|0:0,0:0:0:0:
388,136,50793,2,0,L|312:126,1,62.5,2|0,0:3|0:0,0:0:0:0:
164,182,50990,6,0,L|98:142,1,62.5,2|2,0:0|0:3,0:0:0:0:
181,111,51186,2,0,L|254:109,1,62.5,2|2,0:3|0:3,0:0:0:0:
480,200,51382,2,0,L|485:112,1,62.5,8|0,0:0|0:3,0:0:0:0:
411,127,51578,1,2,0:3:0:0:
155,248,51774,6,0,P|98:224|175:123,1,220.000006713867,6|0,0:0|0:0,0:0:0:0:
285,121,52363,1,0,0:0:0:0:
128,219,52559,2,0,L|123:97,1,110.000003356934,8|0,0:0|0:0,0:0:0:0:
191,83,52853,1,0,0:0:0:0:
257,75,52951,2,0,L|394:65,1,110.000003356934,0|0,0:0|0:0,0:0:0:0:
225,38,53344,6,0,L|99:32,1,110.000003356934,2|0,0:3|0:0,0:0:0:0:
259,250,53736,2,0,L|263:131,1,110.000003356934,2|2,0:0|0:3,0:0:0:0:
455,131,54128,1,8,0:0:0:0:
346,97,54324,2,0,L|237:39,2,110.000003356934,0|2|2,0:0|0:3|0:3,0:0:0:0:
92,239,54913,6,0,P|46:181|132:89,1,220.000006713867,2|0,0:0|0:0,0:0:0:0:
262,109,55501,1,0,0:0:0:0:
440,197,55697,2,0,L|445:61,1,110.000003356934,8|0,0:0|0:0,0:0:0:0:
415,69,55943,1,0,0:0:0:0:
389,54,55992,1,0,0:0:0:0:
320,167,56090,2,0,L|221:112,1,110.000003356934,0|0,0:0|0:0,0:0:0:0:
370,193,56482,6,0,L|371:80,1,110.000003356934,2|2,0:3|0:3,0:0:0:0:
241,57,56874,2,0,L|120:11,1,110.000003356934,2|2,0:0|0:3,0:0:0:0:
287,136,57267,2,0,L|413:94,1,110.000003356934,8|0,0:0|0:0,0:0:0:0:
498,31,57659,2,0,L|358:52,1,110.000003356934,2|2,0:3|0:3,0:0:0:0:
126,224,58051,6,0,P|56:185|137:103,1,220.000006713867,6|2,0:0|0:3,0:0:0:0:
239,101,58640,2,0,L|260:62,2,27.5000008392334,0|0|0,0:0|0:0|0:0,0:0:0:0:
164,101,58836,2,0,L|59:50,1,110.000003356934,8|0,0:0|0:0,0:0:0:0:
198,230,59228,2,0,L|203:115,1,110.000003356934,2|0,0:3|0:0,0:0:0:0:
366,114,59620,6,0,L|500:114,1,110.000003356934,2|0,0:0|0:0,0:0:0:0:
411,98,59915,1,0,0:0:0:0:
351,83,60013,2,0,L|229:80,1,110.000003356934,2|2,0:3|0:0,0:0:0:0:
396,262,60405,2,0,L|399:136,1,110.000003356934,8|0,0:0|0:0,0:0:0:0:
283,125,60797,2,0,L|372:50,1,110.000003356934,2|2,0:3|0:3,0:0:0:0:
188,192,61190,6,0,L|182:67,1,110.000003356934,2|2,0:0|0:3,0:0:0:0:
63,168,61582,2,0,L|56:44,1,110.000003356934,2|2,0:0|0:3,0:0:0:0:
236,117,61974,2,0,L|354:70,1,110.000003356934,8|0,0:0|0:0,0:0:0:0:
191,53,62367,2,0,L|85:85,1,110.000003356934,2|0,0:0|0:0,0:0:0:0:
385,315,62759,6,0,L|389:181,1,110.000003356934,2|0,0:0|0:0,0:0:0:0:
242,177,63151,2,0,L|355:151,1,110.000003356934,2|2,0:0|0:3,0:0:0:0:
178,90,63544,1,8,0:0:0:0:
62,126,63740,2,0,L|53:83,2,27.5000008392334,0|0|0,0:0|0:0|0:0,0:0:0:0:
117,131,63936,2,0,L|254:172,1,110.000003356934,2|2,0:0|0:3,0:0:0:0:
485,227,64328,6,0,L|489:104,1,119.999996337891,6|0,0:0|0:0,0:0:0:0:
353,100,64720,2,0,L|195:78,1,119.999996337891,2|0,0:0|0:0,0:0:0:0:
433,225,65113,2,0,L|431:100,1,119.999996337891,8|0,0:0|0:0,0:0:0:0:
356,91,65407,1,0,0:0:0:0:
286,176,65505,2,0,L|280:46,1,119.999996337891,2|0,0:0|0:0,0:0:0:0:
423,54,65897,6,0,L|289:24,1,119.999996337891,2|2,0:0|0:3,0:0:0:0:
181,92,66290,2,0,L|300:55,1,119.999996337891,2|2,0:0|0:3,0:0:0:0:
133,61,66682,1,8,0:0:0:0:
42,89,66878,2,0,L|140:9,2,119.999996337891,0|2|2,0:0|0:3|0:3,0:0:0:0:
305,293,67467,6,0,P|367:262|270:149,1,239.999992675781,2|2,0:0|0:0,0:0:0:0:
166,137,68055,1,0,0:0:0:0:
355,223,68251,2,0,L|354:65,1,119.999996337891,8|0,0:0|0:0,0:0:0:0:
316,86,68497,1,0,0:0:0:0:
282,72,68546,1,0,0:0:0:0:
220,73,68644,2,0,L|359:63,1,119.999996337891,2|0,0:0|0:0,0:0:0:0:
211,250,69036,6,0,L|206:129,1,119.999996337891,2|0,0:0|0:0,0:0:0:0:
356,252,69428,2,0,L|351:131,1,119.999996337891,2|0,0:0|0:0,0:0:0:0:
200,110,69821,2,0,L|66:64,1,119.999996337891,8|0,0:0|0:0,0:0:0:0:
209,55,70213,2,0,L|76:12,1,119.999996337891,2|2,0:0|0:3,0:0:0:0:
397,314,70605,5,6,0:0:0:0:
450,289,70703,1,0,0:0:0:0:
482,239,70801,1,2,0:3:0:0:
480,180,70899,1,0,0:0:0:0:
446,132,70997,1,2,0:3:0:0:
391,111,71095,1,0,0:0:0:0:
312,158,71194,1,0,0:0:0:0:
307,127,71243,1,0,0:0:0:0:
303,97,71292,1,0,0:0:0:0:
385,132,71390,6,0,L|469:19,1,119.999996337891,8|2,0:0|0:3,0:0:0:0:
287,232,71782,2,0,L|277:156,1,59.9999981689454,8|0,0:0|0:0,0:0:0:0:
357,176,71978,2,0,L|353:112,1,59.9999981689454,2|0,0:3|0:0,0:0:0:0:
139,232,72174,5,8,0:0:0:0:
91,199,72272,1,0,0:0:0:0:
86,141,72371,2,0,L|138:92,1,59.9999981689454,2|0,0:3|0:0,0:0:0:0:
209,204,72567,2,0,L|208:123,1,59.9999981689454,8|0,0:0|0:0,0:0:0:0:
289,138,72763,2,0,L|285:57,1,59.9999981689454,2|0,0:3|0:0,0:0:0:0:
110,325,72959,5,2,0:0:0:0:
63,283,73057,1,0,0:0:0:0:
73,225,73155,1,2,0:3:0:0:
110,178,73253,1,0,0:0:0:0:
171,158,73351,2,0,L|114:109,1,59.9999981689454,8|8,0:0|0:0,0:0:0:0:
48,104,73548,2,0,L|107:36,1,59.9999981689454,8|8,0:0|0:0,0:0:0:0:
260,242,73744,5,2,0:0:0:0:
312,213,73842,1,0,0:0:0:0:
336,154,73940,1,0,0:0:0:0:
305,99,74038,1,0,0:0:0:0:
252,86,74136,2,0,L|196:47,1,59.9999981689454,2|0,0:0|0:0,0:0:0:0:
270,57,74332,2,0,L|330:15,1,59.9999981689454,2|0,0:3|0:0,0:0:0:0:
146,210,74528,6,0,L|21:131,1,119.999996337891,2|2,0:0|0:3,0:0:0:0:
188,121,74921,2,0,L|317:49,1,119.999996337891,2|2,0:0|0:3,0:0:0:0:
37,178,75313,6,0,L|33:26,1,119.999996337891,2|2,0:0|0:3,0:0:0:0:
170,87,75705,2,0,L|315:86,1,119.999996337891,2|2,0:0|0:3,0:0:0:0:
35,272,76097,2,0,L|32:144,1,119.999996337891,2|2,0:0|0:3,0:0:0:0:
92,128,76392,1,0,0:0:0:0:
255,149,76490,2,0,L|318:96,1,59.9999981689454,8|8,0:0|0:0,0:0:0:0:
137,166,76686,2,0,L|74:113,1,59.9999981689454,2|2,0:0|0:0,0:0:0:0:
356,280,76882,6,0,P|407:237|328:144,1,187.5,6|0,0:0|0:0,0:0:0:0:
278,133,77274,2,0,L|155:58,1,125,8|2,0:0|0:3,0:0:0:0:
460,173,77667,2,0,P|457:80|445:43,1,125,2|2,0:0|0:3,0:0:0:0:
384,40,77961,1,0,0:0:0:0:
323,210,78059,2,0,L|439:135,1,125,8|2,0:0|0:3,0:0:0:0:
139,214,78451,6,0,P|88:172|153:89,1,187.5,2|0,0:0|0:0,0:0:0:0:
203,91,78844,1,8,0:0:0:0:
354,83,79040,1,2,0:3:0:0:
94,222,79236,1,2,0:0:0:0:
48,182,79334,1,0,0:0:0:0:
45,121,79432,1,2,0:3:0:0:
88,78,79530,1,0,0:0:0:0:
148,55,79628,2,0,L|284:4,1,125,8|2,0:0|0:3,0:0:0:0:
208,47,79923,1,0,0:0:0:0:
51,264,80021,6,0,P|45:184|59:112,1,125,2|2,0:0|0:3,0:0:0:0:
117,108,80315,1,0,0:0:0:0:
279,100,80413,2,0,L|418:45,1,125,8|2,0:0|0:3,0:0:0:0:
238,173,80805,2,0,L|123:126,1,125,2|2,0:0|0:3,0:0:0:0:
268,111,81198,2,0,L|150:58,1,125,8|2,0:0|0:3,0:0:0:0:
465,313,81590,6,0,P|489:246|460:172,1,125,2|2,0:0|0:3,0:0:0:0:
415,182,81884,1,0,0:0:0:0:
342,180,81982,2,0,L|224:97,1,125,8|2,0:0|0:3,0:0:0:0:
284,62,82276,1,0,0:0:0:0:
471,167,82375,5,2,0:0:0:0:
508,111,82473,1,0,0:0:0:0:
479,59,82571,1,2,0:3:0:0:
430,52,82636,1,0,0:0:0:0:
388,48,82701,1,0,0:0:0:0:
360,173,82767,1,8,0:0:0:0:
360,110,82865,1,0,0:0:0:0:
407,96,82963,1,2,0:3:0:0:
144,209,83159,6,0,P|91:151|104:48,1,187.5,6|0,0:0|0:0,0:0:0:0:
162,48,83552,2,0,L|305:8,1,125,8|2,0:0|0:3,0:0:0:0:
20,244,83944,2,0,L|5:171,2,62.5,2|0|2,0:0|0:0|0:3,0:0:0:0:
151,194,84336,2,0,L|25:125,1,125,8|2,0:0|0:3,0:0:0:0:
306,257,84728,6,0,P|375:180|351:98,1,187.5,2|0,0:0|0:0,0:0:0:0:
280,100,85121,1,8,0:0:0:0:
418,60,85317,1,2,0:3:0:0:
312,187,85513,2,0,L|424:111,1,125,2|2,0:0|0:3,0:0:0:0:
119,139,85905,2,0,L|97:72,1,62.5,8|0,0:0|0:0,0:0:0:0:
266,121,86101,2,0,L|288:43,1,62.5,2|0,0:3|0:0,0:0:0:0:
18,240,86298,6,0,L|13:99,1,125,2|2,0:0|0:3,0:0:0:0:
139,76,86690,2,0,L|-10:-2,1,125,8|2,0:0|0:3,0:0:0:0:
351,202,87082,2,0,L|464:147,1,125,2|2,0:0|0:3,0:0:0:0:
340,138,87475,1,8,0:0:0:0:
315,102,87540,1,0,0:0:0:0:
321,58,87605,1,0,0:0:0:0:
356,32,87671,1,2,0:3:0:0:
82,253,87867,6,0,L|76:114,1,125,2|2,0:0|0:3,0:0:0:0:
220,114,88259,2,0,L|343:73,1,125,8|2,0:0|0:3,0:0:0:0:
66,77,88651,2,0,L|198:29,1,125,2|2,0:0|0:3,0:0:0:0:
217,105,88913,1,0,0:0:0:0:
221,171,88978,1,0,0:0:0:0:
191,263,89044,2,0,L|80:191,1,125,8|2,0:0|0:3,0:0:0:0:
440,211,89436,6,0,P|480:141|404:61,1,187.5,6|0,0:0|0:0,0:0:0:0:
350,58,89828,2,0,L|471:-2,1,125,8|2,0:0|0:3,0:0:0:0:
202,254,90221,2,0,L|181:127,1,125,2|2,0:0|0:3,0:0:0:0:
257,120,90515,1,0,0:0:0:0:
335,111,90613,2,0,L|462:40,1,125,8|2,0:0|0:3,0:0:0:0:
151,148,91005,6,0,P|96:91|188:39,1,187.5,2|0,0:0|0:0,0:0:0:0:
231,34,91398,1,8,0:0:0:0:
128,199,91594,2,0,L|121:121,1,62.5,2|0,0:3|0:0,0:0:0:0:
301,234,91790,1,2,0:0:0:0:
344,193,91888,1,0,0:0:0:0:
327,136,91986,1,2,0:3:0:0:
269,125,92084,1,0,0:0:0:0:
207,120,92182,2,0,L|343:44,1,125,8|2,0:0|0:3,0:0:0:0:
381,32,92477,1,0,0:0:0:0:
165,214,92575,6,0,P|82:170|52:140,1,125,2|2,0:0|0:3,0:0:0:0:
112,124,92869,1,0,0:0:0:0:
280,117,92967,2,0,P|370:79|398:46,1,125,8|2,0:0|0:3,0:0:0:0:
247,312,93359,2,0,L|237:163,1,125,2|2,0:0|0:3,0:0:0:0:
392,284,93752,2,0,L|402:135,1,125,8|2,0:0|0:3,0:0:0:0:
145,154,94144,6,0,P|133:51|139:21,1,125,2|2,0:0|0:3,0:0:0:0:
207,31,94438,1,0,0:0:0:0:
287,134,94536,2,0,L|402:83,1,125,8|2,0:0|0:3,0:0:0:0:
358,42,94830,1,0,0:0:0:0:
144,276,94928,5,2,0:0:0:0:
76,271,95026,1,0,0:0:0:0:
37,203,95124,1,2,0:3:0:0:
40,179,95190,1,0,0:0:0:0:
95,138,95255,1,0,0:0:0:0:
142,103,95321,2,0,L|193:46,2,62.5,8|0|2,0:0|0:0|0:3,0:0:0:0:
400,222,95713,6,0,P|434:164|326:110,1,187.5,6|0,0:0|0:0,0:0:0:0:
282,83,96105,2,0,L|429:-6,1,125,8|2,0:0|0:3,0:0:0:0:
134,154,96498,2,0,L|87:81,2,62.5,2|0|2,0:0|0:0|0:3,0:0:0:0:
253,133,96890,2,0,L|144:56,1,125,8|2,0:0|0:3,0:0:0:0:
426,195,97282,6,0,P|482:133|439:46,1,187.5,2|0,0:0|0:0,0:0:0:0:
372,45,97675,2,0,L|202:39,1,125,8|2,0:0|0:3,0:0:0:0:
122,185,98067,2,0,L|112:35,1,125,2|2,0:0|0:3,0:0:0:0:
377,128,98459,2,0,L|399:61,1,62.5,8|0,0:0|0:0,0:0:0:0:
230,110,98655,2,0,L|208:32,1,62.5,2|0,0:3|0:0,0:0:0:0:
478,229,98852,6,0,L|483:88,1,125,2|8,0:0|0:0,0:0:0:0:
350,79,99244,2,0,L|459:8,1,125,2|8,0:0|0:0,0:0:0:0:
196,245,99636,1,2,0:0:0:0:
148,209,99734,1,0,0:0:0:0:
156,150,99832,1,8,0:0:0:0:
212,129,99930,1,0,0:0:0:0:
368,174,100028,1,2,0:0:0:0:
388,138,100093,1,0,0:0:0:0:
390,97,100158,1,0,0:0:0:0:
371,60,100225,2,0,L|300:11,1,62.5,8|0,0:0|0:0,0:0:0:0:
109,286,100421,5,6,0:0:0:0:
64,246,100519,1,0,0:0:0:0:
49,189,100617,1,0,0:0:0:0:
68,134,100715,1,0,0:0:0:0:
116,98,100813,2,0,L|196:93,1,59.9999981689454,8|0,0:0|0:0,0:0:0:0:
242,199,101009,6,0,L|245:93,1,59.9999981689454,0|0,0:0|0:0,0:0:0:0:
171,138,101205,1,2,0:0:0:0:
128,98,101303,1,0,0:0:0:0:
128,98,101401,1,0,0:0:0:0:
170,137,101499,1,0,0:0:0:0:
346,302,101598,6,0,L|426:301,1,59.9999981689454,8|0,0:0|0:0,0:0:0:0:
453,260,101794,1,0,0:0:0:0:
462,201,101892,1,0,0:0:0:0:
436,148,101990,1,2,0:0:0:0:
385,118,102088,1,0,0:0:0:0:
306,167,102186,6,0,L|301:69,1,59.9999981689454
385,118,102382,2,0,L|382:22,1,59.9999981689454,8|0,0:0|0:0,0:0:0:0:
464,83,102579,2,0,L|460:-10,1,59.9999981689454,0|0,0:0|0:0,0:0:0:0:
297,283,102775,6,0,L|227:281,1,59.9999981689454,2|0,0:0|0:0,0:0:0:0:
300,267,102971,1,0,0:0:0:0:
325,213,103069,1,0,0:0:0:0:
315,155,103167,1,8,0:0:0:0:
272,111,103265,1,0,0:0:0:0:
219,89,103363,5,0,0:0:0:0:
162,97,103461,1,0,0:0:0:0:
109,135,103559,2,0,L|166:193,1,59.9999981689454,2|0,0:0|0:0,0:0:0:0:
216,193,103755,2,0,L|163:268,1,59.9999981689454,0|0,0:0|0:0,0:0:0:0:
367,297,103952,5,8,0:0:0:0:
402,250,104050,1,0,0:0:0:0:
399,191,104148,1,0,0:0:0:0:
359,148,104246,1,0,0:0:0:0:
290,142,104344,6,0,L|346:101,1,59.9999981689454,2|0,0:0|0:0,0:0:0:0:
388,72,104540,2,0,L|450:28,1,59.9999981689454,0|0,0:0|0:0,0:0:0:0:
358,141,104736,2,0,L|302:100,1,59.9999981689454,8|0,0:0|0:0,0:0:0:0:
260,71,104932,2,0,L|198:27,1,59.9999981689454,0|0,0:0|0:0,0:0:0:0:
439,284,105129,5,6,0:0:0:0:
484,244,105227,1,0,0:0:0:0:
499,187,105325,1,0,0:0:0:0:
480,132,105423,1,0,0:0:0:0:
432,96,105521,2,0,L|352:91,1,59.9999981689454,8|0,0:0|0:0,0:0:0:0:
295,91,105717,5,0,0:0:0:0:
340,131,105815,1,0,0:0:0:0:
355,188,105913,1,2,0:0:0:0:
336,243,106011,1,0,0:0:0:0:
288,279,106109,2,0,L|208:284,1,59.9999981689454,0|0,0:0|0:0,0:0:0:0:
61,269,106305,6,0,L|55:183,1,59.9999981689454,8|0,0:0|0:0,0:0:0:0:
116,198,106502,1,0,0:0:0:0:
140,144,106600,1,0,0:0:0:0:
124,88,106698,1,2,0:0:0:0:
74,57,106796,1,0,0:0:0:0:
3,64,106894,2,0,L|70:0,1,59.9999981689454,0|0,0:0|0:0,0:0:0:0:
224,255,107090,5,8,0:0:0:0:
266,215,107188,1,0,0:0:0:0:
259,158,107286,1,0,0:0:0:0:
210,128,107384,1,0,0:0:0:0:
140,115,107482,1,2,0:0:0:0:
199,104,107580,1,0,0:0:0:0:
258,93,107678,1,0,0:0:0:0:
317,83,107776,1,0,0:0:0:0:
271,230,107875,5,8,0:0:0:0:
229,190,107973,1,0,0:0:0:0:
236,133,108071,1,0,0:0:0:0:
285,103,108169,1,0,0:0:0:0:
355,90,108267,1,2,0:0:0:0:
296,79,108365,1,0,0:0:0:0:
237,68,108463,1,0,0:0:0:0:
178,58,108561,1,0,0:0:0:0:
434,288,108659,5,8,0:0:0:0:
464,238,108757,1,0,0:0:0:0:
450,181,108855,1,0,0:0:0:0:
399,152,108953,1,0,0:0:0:0:
340,142,109052,1,2,0:0:0:0:
310,92,109150,1,0,0:0:0:0:
324,35,109248,1,0,0:0:0:0:
375,6,109346,1,0,0:0:0:0:
203,287,109444,5,8,0:0:0:0:
148,264,109542,1,0,0:0:0:0:
122,211,109640,1,0,0:0:0:0:
136,154,109738,1,0,0:0:0:0:
367,137,109836,6,0,L|503:128,1,119.999996337891,6|0,0:0|0:0,0:0:0:0:
426,79,110130,2,0,L|342:69,1,59.9999981689454,8|0,0:0|0:0,0:0:0:0:
112,160,110425,2,0,L|1:101,1,119.999996337891,2|0,0:0|0:0,0:0:0:0:
60,66,110719,2,0,L|101:-35,2,59.9999981689454,8|0|0,0:0|0:0|0:0,0:0:0:0:
250,244,111013,6,0,P|254:182|242:107,1,119.999996337891,6|0,0:0|0:0,0:0:0:0:
184,113,111307,2,0,L|95:76,1,59.9999981689454,8|0,0:0|0:0,0:0:0:0:
383,190,111602,2,0,L|381:107,1,59.9999981689454
309,126,111798,1,8,0:0:0:0:
239,115,111896,2,0,P|201:64|207:-3,1,119.999996337891,2|0,0:0|0:0,0:0:0:0:
466,203,112190,6,0,P|502:148|493:78,1,119.999996337891,6|0,0:0|0:0,0:0:0:0:
432,94,112484,2,0,L|369:110,1,59.9999981689454,0|8,0:0|0:0,0:0:0:0:
117,205,112779,2,0,P|132:137|186:111,1,119.999996337891
252,127,113073,2,0,L|310:62,2,59.9999981689454,0|8|0,0:0|0:0|0:0,0:0:0:0:
30,222,113367,6,0,L|24:84,1,119.999996337891,6|0,0:0|0:0,0:0:0:0:
106,218,113661,2,0,L|118:72,1,119.999996337891,8|0,0:0|0:0,0:0:0:0:
276,88,113956,2,0,L|337:17,1,59.9999981689454,6|0,0:0|0:0,0:0:0:0:
156,89,114152,2,0,L|122:27,2,59.9999981689454,8|2|0,0:0|0:0|0:0,0:0:0:0:
451,226,114544,6,0,P|469:154|434:96,1,119.999996337891,6|0,0:0|0:0,0:0:0:0:
386,97,114838,1,0,0:0:0:0:
297,140,114936,2,0,L|285:78,1,59.9999981689454,0|0,0:0|0:0,0:0:0:0:
471,146,115132,6,0,L|480:5,1,119.999996337891,6|0,0:0|0:0,0:0:0:0:
231,199,115427,2,0,L|222:58,1,119.999996337891,6|0,0:0|0:0,0:0:0:0:
412,141,115721,2,0,L|434:62,1,59.9999981689454,12|8,0:0|0:0,0:0:0:0:
224,98,115917,2,0,L|205:28,1,59.9999981689454,2|2,0:0|0:0,0:0:0:0:
363,29,116113,1,6,0:0:0:0:
256,192,116309,12,0,122390,0:0:0:0:
