osu file format v14

[General]
AudioFilename: sennen no kotowari.mp3
AudioLeadIn: 0
PreviewTime: 76460
Countdown: 0
SampleSet: Soft
StackLeniency: 0.7
Mode: 2
LetterboxInBreaks: 0
WidescreenStoryboard: 0

[Editor]
Bookmarks: 1559,14108,26657,39206,51755,64304,76853,89402,100382,109836,116113
DistanceSpacing: 2
BeatDivisor: 4
GridSize: 32
TimelineZoom: 1.5

[Metadata]
Title:Sennen no Kotowari
TitleUnicode:千年ノ理
Artist:Nekomata Master
ArtistUnicode:猫叉Master
Creator:Sinnoh
Version:Overdose
Source:REFLEC BEAT groovin'!! Upper
Tags:WORLD/ELECTRONICA ZUN 千年幻想郷 ~ History of the Moon BEMANI× 東方Project Ultimate MasterPieces Naoyuki Sato beatmania IIDX 22 PENDUAL
BeatmapID:1473502
BeatmapSetID:695431

[Difficulty]
HPDrainRate:8
CircleSize:4
OverallDifficulty:9.2
ApproachRate:9.2
SliderMultiplier:2
SliderTickRate:2

[Events]
//Background and Video events
0,0,"celerih trigger.jpg",0,0
//Break Periods
//Storyboard Layer 0 (Background)
//Storyboard Layer 1 (Fail)
//Storyboard Layer 2 (Pass)
//Storyboard Layer 3 (Foreground)
//Storyboard Sound Samples

[TimingPoints]
1559,392.310710082385,4,2,1,60,1,0
14108,-90.9090909090909,4,2,1,60,0,0
39220,-80,4,2,1,60,0,1
51186,-71.4285714285714,4,2,1,60,0,1
51774,-90.9090909090909,4,2,1,50,0,0
64304,-83.3333333333333,4,2,1,60,0,0
76882,-80,4,2,1,65,0,1
82767,-80,4,2,1,65,0,0
83159,-80,4,2,1,65,0,1
89044,-80,4,2,1,65,0,0
89436,-80,4,2,1,65,0,1
95321,-80,4,2,1,65,0,0
95713,-80,4,2,1,65,0,1
100421,-83.3333333333333,4,2,1,60,0,0
109836,-83.3333333333333,4,2,1,70,0,0
116113,-83.3333333333333,4,2,1,80,0,0
116309,-83.3333333333333,4,2,1,50,0,0
116898,-83.3333333333333,4,2,1,45,0,0
117682,-83.3333333333333,4,2,1,40,0,0
118467,-83.3333333333333,4,2,1,35,0,0
119252,-83.3333333333333,4,2,1,30,0,0
120036,-83.3333333333333,4,2,1,25,0,0
120821,-83.3333333333333,4,2,1,15,0,0
121606,-83.3333333333333,4,2,69,5,0,0
122390,-83.3333333333333,4,2,69,5,0,0

[Colours]
Combo1 : 244,139,223
Combo2 : 135,166,249
Combo3 : 250,154,154
Combo4 : 100,136,242
Combo5 : 251,173,229
Combo6 : 0,128,192

[HitObjects]
386,231,1166,6,0,L|385:112,1,100,0|0,0:0|0:0,0:0:0:0:
332,115,1460,1,0,0:0:0:0:
128,263,1559,6,0,P|70:228|142:142,1,200,6|0,0:0|0:0,0:0:0:0:
241,130,2147,1,0,0:0:0:0:
45,221,2343,2,0,L|45:88,1,100,8|0,0:0|0:0,0:0:0:0:
117,121,2637,1,0,0:0:0:0:
179,119,2735,2,0,L|317:120,1,100,0|0,0:0|0:0,0:0:0:0:
155,300,3128,5,2,0:3:0:0:
152,250,3226,1,0,0:0:0:0:
149,200,3324,1,2,0:3:0:0:
302,233,3520,1,2,0:3:0:0:
299,183,3618,1,0,0:0:0:0:
296,133,3716,1,2,0:3:0:0:
479,116,3912,1,8,0:0:0:0:
358,58,4109,2,0,L|465:60,2,100,0|0|0,0:0|0:0|0:0,0:0:0:0:
86,242,4697,6,0,P|89:168|221:139,1,200,2|0,0:0|0:0,0:0:0:0:
323,128,5285,1,0,0:0:0:0:
136,113,5482,1,8,0:0:0:0:
49,195,5678,2,0,L|42:158,2,25,0|0|0,0:0|0:0|0:0,0:0:0:0:
74,217,5874,2,0,L|176:217,1,100,0|0,0:0|0:0,0:0:0:0:
310,239,6266,5,2,0:3:0:0:
313,189,6364,1,0,0:0:0:0:
316,139,6462,1,2,0:3:0:0:
163,172,6659,1,2,0:3:0:0:
166,122,6757,1,0,0:0:0:0:
100,121,6855,2,0,L|43:121,1,50,2|0,0:3|0:0,0:0:0:0:
214,52,7051,2,0,L|323:53,1,100,2|0,0:0|0:0,0:0:0:0:
188,274,7443,2,0,L|180:151,1,100,2|0,0:0|0:0,0:0:0:0:
468,293,7835,5,6,0:0:0:0:
407,282,7934,1,0,0:0:0:0:
356,242,8032,1,0,0:0:0:0:
336,184,8130,1,0,0:0:0:0:
356,127,8228,1,0,0:0:0:0:
417,92,8326,1,0,0:0:0:0:
487,78,8424,2,0,L|501:36,2,25,0|0|0,0:0|0:0|0:0,0:0:0:0:
245,338,8620,6,0,L|238:275,1,50,8|0,0:0|0:0,0:0:0:0:
327,247,8816,2,0,L|377:249,1,50
282,175,9012,2,0,L|233:175,1,50,0|0,0:0|0:0,0:0:0:0:
329,96,9209,2,0,L|379:97,1,50
177,262,9405,6,0,L|175:198,1,50,2|0,0:0|0:0,0:0:0:0:
102,201,9601,2,0,L|20:195,1,50
222,137,9797,2,0,L|282:136,1,50
176,88,9993,2,0,L|91:92,1,50
331,259,10189,5,8,0:0:0:0:
378,222,10287,1,0,0:0:0:0:
377,173,10385,1,0,0:0:0:0:
329,139,10484,1,0,0:0:0:0:
169,163,10582,2,0,L|165:100,1,50,2|0,0:0|0:0,0:0:0:0:
260,93,10778,2,0,L|264:36,1,50,0|0,0:0|0:0,0:0:0:0:
55,206,10974,5,2,0:0:0:0:
17,167,11072,1,0,0:0:0:0:
17,113,11170,1,0,0:0:0:0:
68,79,11268,1,0,0:0:0:0:
228,119,11366,2,0,L|295:121,1,50,2|0,0:0|0:0,0:0:0:0:
390,85,11562,2,0,L|320:82,1,50
130,153,11759,6,0,L|206:156,1,50,8|8,0:0|0:0,0:0:0:0:
418,155,11955,2,0,L|368:155,1,50,8|8,0:0|0:0,0:0:0:0:
208,269,12151,2,0,L|204:209,1,50,2|0,0:0|0:0,0:0:0:0:
297,178,12347,2,0,L|293:118,1,50,0|0,0:0|0:0,0:0:0:0:
482,74,12543,5,2,0:0:0:0:
441,74,12641,1,0,0:0:0:0:
382,74,12739,1,0,0:0:0:0:
247,163,12936,1,2,0:0:0:0:
304,164,13034,1,0,0:0:0:0:
346,163,13132,1,0,0:0:0:0:
27,128,13328,5,8,0:0:0:0:
159,97,13524,2,0,L|97:94,1,50,2|2,0:0|0:0,0:0:0:0:
274,258,13720,2,0,P|295:199|227:142,1,150,8|0,0:0|0:0,0:0:0:0:
464,254,14112,6,0,L|462:129,1,110.000003356934,6|2,0:0|0:3,0:0:0:0:
275,116,14407,2,0,L|200:115,1,55.0000016784668,0|8,0:0|0:0,0:0:0:0:
361,185,14701,2,0,L|381:118,1,55.0000016784668,2|0,0:3|0:0,0:0:0:0:
220,138,14897,6,0,L|160:128,1,55.0000016784668,2|0,0:0|0:0,0:0:0:0:
241,87,15093,2,0,L|307:77,1,55.0000016784668,2|0,0:3|0:0,0:0:0:0:
104,140,15289,2,0,B|45:137|45:137|8:80,1,110.000003356934,8|2,0:0|0:3,0:0:0:0:
273,167,15682,6,0,L|406:166,1,110.000003356934,2|2,0:0|0:3,0:0:0:0:
187,189,15976,2,0,L|171:117,1,55.0000016784668,0|8,0:0|0:0,0:0:0:0:
297,193,16270,2,0,L|367:164,1,55.0000016784668,2|0,0:3|0:3,0:0:0:0:
284,123,16466,5,2,0:0:0:0:
219,106,16564,1,0,0:0:0:0:
482,190,16662,2,0,L|490:98,1,55.0000016784668,2|0,0:3|0:0,0:0:0:0:
401,116,16859,2,0,L|408:39,1,55.0000016784668,8|0,0:0|0:0,0:0:0:0:
249,209,17055,2,0,L|153:211,1,55.0000016784668,2|0,0:3|0:0,0:0:0:0:
421,229,17251,6,0,L|503:231,2,55.0000016784668,2|0|2,0:0|0:0|0:3,0:0:0:0:
265,272,17545,2,0,L|336:267,1,55.0000016784668,0|8,0:0|0:0,0:0:0:0:
176,215,17839,2,0,L|167:156,1,55.0000016784668,2|0,0:3|0:0,0:0:0:0:
343,160,18036,6,0,L|343:69,1,55.0000016784668,2|0,0:0|0:0,0:0:0:0:
251,97,18232,2,0,L|252:20,1,55.0000016784668,2|0,0:3|0:0,0:0:0:0:
444,175,18428,2,0,P|457:120|434:58,1,110.000003356934,8|2,0:0|0:3,0:0:0:0:
189,228,18820,5,2,0:0:0:0:
128,181,18918,1,0,0:0:0:0:
146,117,19016,1,2,0:3:0:0:
220,109,19114,1,2,0:3:0:0:
296,117,19212,1,8,0:0:0:0:
26,318,19409,2,0,L|20:263,1,55.0000016784668,2|0,0:3|0:0,0:0:0:0:
105,258,19605,5,2,0:0:0:0:
273,227,19801,2,0,L|283:133,1,55.0000016784668,2|0,0:3|0:0,0:0:0:0:
194,167,19997,1,8,0:0:0:0:
359,141,20193,2,0,L|369:74,1,55.0000016784668,2|0,0:3|0:0,0:0:0:0:
139,90,20389,6,0,L|-19:88,1,110.000003356934,6|2,0:0|0:3,0:0:0:0:
186,198,20684,2,0,L|202:127,1,55.0000016784668,0|8,0:0|0:0,0:0:0:0:
82,96,20978,2,0,L|75:151,1,55.0000016784668,0|0,0:0|0:0,0:0:0:0:
266,120,21174,5,2,0:0:0:0:
200,120,21272,1,2,0:3:0:0:
141,120,21370,1,2,0:3:0:0:
321,86,21566,2,0,L|431:87,1,110.000003356934,8|2,0:0|0:3,0:0:0:0:
445,43,21861,1,0,0:0:0:0:
278,228,21959,6,0,L|137:227,1,110.000003356934,2|2,0:0|0:3,0:0:0:0:
235,162,22253,2,0,L|337:162,1,55.0000016784668,0|8,0:0|0:0,0:0:0:0:
152,130,22547,2,0,L|149:57,1,55.0000016784668,0|0,0:0|0:0,0:0:0:0:
327,109,22743,6,0,L|362:62,2,55.0000016784668,2|0|2,0:0|0:0|0:3,0:0:0:0:
257,119,23038,1,0,0:0:0:0:
322,212,23136,2,0,L|395:214,1,55.0000016784668,8|0,0:0|0:0,0:0:0:0:
208,261,23332,2,0,L|135:258,1,55.0000016784668,2|0,0:3|0:0,0:0:0:0:
428,347,23528,5,2,0:0:0:0:
474,305,23626,1,0,0:0:0:0:
427,255,23724,1,0,0:0:0:0:
248,180,23822,2,0,L|170:176,1,55.0000016784668,2|8,0:3|0:0,0:0:0:0:
323,87,24116,2,0,L|244:84,1,55.0000016784668,0|0,0:0|0:0,0:0:0:0:
198,47,24313,6,0,L|266:49,1,55.0000016784668,2|0,0:0|0:0,0:0:0:0:
65,212,24509,2,0,L|54:143,1,55.0000016784668,2|0,0:3|0:0,0:0:0:0:
265,221,24705,2,0,P|299:183|316:113,1,110.000003356934,8|2,0:0|0:3,0:0:0:0:
260,110,24999,1,2,0:3:0:0:
477,198,25097,6,0,L|489:121,1,55.0000016784668,2|0,0:0|0:0,0:0:0:0:
405,130,25293,2,0,L|415:34,1,55.0000016784668
217,198,25489,2,0,L|84:198,1,110.000003356934,8|2,0:0|0:3,0:0:0:0:
181,168,25784,1,0,0:0:0:0:
250,139,25882,6,0,L|169:138,1,55.0000016784668,2|2,0:0|0:3,0:0:0:0:
127,134,26078,1,2,0:3:0:0:
427,218,26274,2,0,L|425:103,1,110.000003356934,8|2,0:0|0:3,0:0:0:0:
358,77,26568,1,0,0:0:0:0:
89,60,26666,6,0,L|246:60,1,110.000003356934,6|2,0:0|0:3,0:0:0:0:
379,147,26961,2,0,L|385:64,1,55.0000016784668,0|8,0:0|0:0,0:0:0:0:
259,196,27255,1,2,0:3:0:0:
331,196,27353,1,0,0:0:0:0:
404,195,27451,5,2,0:0:0:0:
477,195,27549,1,0,0:0:0:0:
270,292,27647,2,0,L|197:290,1,55.0000016784668,2|0,0:3|0:0,0:0:0:0:
419,249,27843,2,0,L|422:169,1,55.0000016784668,8|0,0:0|0:0,0:0:0:0:
337,175,28039,2,0,L|338:113,1,55.0000016784668,2|0,0:3|0:0,0:0:0:0:
115,155,28236,6,0,L|69:100,2,55.0000016784668,2|0|2,0:0|0:0|0:3,0:0:0:0:
282,144,28530,2,0,L|214:90,1,55.0000016784668,0|8,0:0|0:0,0:0:0:0:
377,141,28824,2,0,L|382:51,1,55.0000016784668,2|0,0:3|0:0,0:0:0:0:
200,197,29020,6,0,L|121:191,1,55.0000016784668,2|0,0:0|0:0,0:0:0:0:
211,153,29216,2,0,L|224:117,2,27.5000008392334,0|0|0,0:0|0:0|0:0,0:0:0:0:
137,128,29413,2,0,L|81:128,1,55.0000016784668,8|0,0:0|0:0,0:0:0:0:
249,80,29609,2,0,L|304:80,1,55.0000016784668,2|0,0:3|0:0,0:0:0:0:
63,266,29805,5,2,0:0:0:0:
37,220,29903,1,0,0:0:0:0:
64,173,30001,1,2,0:3:0:0:
261,177,30099,2,0,L|336:179,1,55.0000016784668,0|8,0:0|0:0,0:0:0:0:
195,83,30393,1,2,0:3:0:0:
245,122,30491,1,0,0:0:0:0:
248,182,30589,5,2,0:0:0:0:
195,83,30688,1,0,0:0:0:0:
24,194,30786,2,0,L|81:148,1,55.0000016784668,2|0,0:3|0:0,0:0:0:0:
152,135,30982,2,0,L|108:84,1,55.0000016784668,8|0,0:0|0:0,0:0:0:0:
23,116,31178,2,0,L|77:68,1,55.0000016784668,2|0,0:3|0:0,0:0:0:0:
273,237,31374,6,0,P|315:161|306:119,1,110.000003356934,2|2,0:0|0:3,0:0:0:0:
255,118,31668,1,0,0:0:0:0:
442,234,31766,2,0,P|484:158|475:116,1,110.000003356934,8|0,0:0|0:0,0:0:0:0:
424,115,32061,1,2,0:3:0:0:
263,271,32159,5,2,0:0:0:0:
209,237,32257,1,0,0:0:0:0:
201,184,32355,1,0,0:0:0:0:
244,142,32453,1,0,0:0:0:0:
335,132,32551,2,0,L|379:61,2,55.0000016784668,2|0|0,0:3|0:0|0:0,0:0:0:0:
40,120,32943,6,0,L|166:121,1,110.000003356934,6|2,0:0|0:3,0:0:0:0:
311,157,33238,2,0,L|315:91,1,55.0000016784668,0|8,0:0|0:0,0:0:0:0:
177,85,33532,2,0,L|173:140,1,55.0000016784668,0|0,0:0|0:0,0:0:0:0:
343,232,33728,5,2,0:0:0:0:
403,186,33826,1,2,0:3:0:0:
395,134,33924,1,2,0:3:0:0:
343,232,34022,1,0,0:0:0:0:
182,52,34120,1,8,0:0:0:0:
243,52,34218,1,0,0:0:0:0:
303,52,34316,1,2,0:3:0:0:
361,51,34415,1,2,0:3:0:0:
123,236,34513,6,0,P|116:151|148:97,1,110.000003356934,2|2,0:0|0:3,0:0:0:0:
189,113,34807,1,0,0:0:0:0:
355,113,34905,1,8,0:0:0:0:
246,119,35101,2,0,L|235:53,1,55.0000016784668,2|0,0:3|0:0,0:0:0:0:
427,167,35297,6,0,L|482:116,1,55.0000016784668,2|0,0:0|0:0,0:0:0:0:
380,98,35493,2,0,L|301:51,1,55.0000016784668,2|0,0:3|0:3,0:0:0:0:
452,255,35690,1,8,0:0:0:0:
491,204,35788,1,2,0:3:0:0:
460,139,35886,1,2,0:3:0:0:
204,139,36082,6,0,L|78:137,1,110.000003356934,2|2,0:0|0:3,0:0:0:0:
279,92,36376,2,0,L|367:92,2,55.0000016784668,0|8|0,0:0|0:0|0:0,0:0:0:0:
217,86,36670,2,0,L|296:83,1,55.0000016784668,2|0,0:3|0:0,0:0:0:0:
49,257,36866,6,0,L|43:182,1,55.0000016784668,2|0,0:0|0:0,0:0:0:0:
211,214,37063,2,0,L|214:144,1,55.0000016784668,2|0,0:3|0:0,0:0:0:0:
25,141,37259,2,0,P|23:70|49:26,1,110.000003356934,8|0,0:0|0:0,0:0:0:0:
106,45,37553,1,0,0:0:0:0:
268,120,37651,6,0,L|335:119,1,55.0000016784668,2|0,0:0|0:0,0:0:0:0:
240,52,37847,2,0,L|157:51,1,55.0000016784668,2|0,0:3|0:0,0:0:0:0:
434,137,38043,1,8,0:0:0:0:
334,264,38240,2,0,L|346:194,1,55.0000016784668,2|0,0:3|0:0,0:0:0:0:
160,222,38436,6,0,L|99:220,1,55.0000016784668,2|0,0:0|0:0,0:0:0:0:
203,157,38632,2,0,L|265:159,1,55.0000016784668,2|0,0:3|0:0,0:0:0:0:
174,147,38828,2,0,L|167:76,1,55.0000016784668,8|0,0:0|0:0,0:0:0:0:
265,97,39024,2,0,L|269:22,1,55.0000016784668,0|0,0:0|0:0,0:0:0:0:
69,269,39220,5,2,0:0:0:0:
14,227,39318,1,0,0:0:0:0:
33,166,39416,1,2,0:3:0:0:
104,160,39515,1,0,0:0:0:0:
185,153,39613,1,8,0:0:0:0:
130,111,39711,1,0,0:0:0:0:
149,50,39809,1,2,0:3:0:0:
223,44,39907,1,0,0:0:0:0:
297,203,40005,5,2,0:0:0:0:
242,161,40103,1,0,0:0:0:0:
261,100,40201,1,2,0:3:0:0:
332,94,40299,1,2,0:3:0:0:
162,263,40397,2,0,L|160:188,1,62.5,8|0,0:0|0:0,0:0:0:0:
85,192,40593,2,0,L|3:190,1,62.5,2|0,0:3|0:0,0:0:0:0:
107,171,40790,5,2,0:0:0:0:
173,133,40888,1,0,0:0:0:0:
163,68,40986,1,2,0:3:0:0:
85,65,41084,1,0,0:0:0:0:
293,252,41182,2,0,L|295:177,1,62.5,8|0,0:0|0:0,0:0:0:0:
370,181,41378,2,0,L|452:179,1,62.5,2|2,0:3|0:3,0:0:0:0:
221,181,41574,6,0,L|145:179,3,62.5,2|0|2|0,0:0|0:0|0:3|0:0,0:0:0:0:
322,111,41967,2,0,L|398:109,3,62.5,8|0|2|2,0:0|0:0|0:3|0:3,0:0:0:0:
454,294,42359,5,2,0:0:0:0:
509,252,42457,1,0,0:0:0:0:
490,191,42555,1,2,0:3:0:0:
419,185,42653,1,0,0:0:0:0:
338,178,42751,1,8,0:0:0:0:
393,136,42849,1,0,0:0:0:0:
374,75,42947,1,2,0:3:0:0:
300,69,43045,1,0,0:0:0:0:
226,228,43143,5,2,0:0:0:0:
281,186,43242,1,0,0:0:0:0:
265,123,43340,1,2,0:3:0:0:
206,122,43438,1,2,0:3:0:0:
403,175,43536,2,0,L|465:176,1,62.5,8|0,0:0|0:0,0:0:0:0:
389,117,43732,2,0,L|390:54,1,62.5,2|0,0:3|0:0,0:0:0:0:
291,287,43928,5,2,0:0:0:0:
226,255,44026,1,0,0:0:0:0:
230,192,44124,1,2,0:3:0:0:
304,134,44222,2,0,L|221:131,1,62.5,0|8,0:0|0:0,0:0:0:0:
175,133,44418,1,0,0:0:0:0:
170,79,44517,1,2,0:3:0:0:
243,43,44615,1,2,0:3:0:0:
29,259,44713,6,0,L|23:176,1,62.5,2|0,0:0|0:0,0:0:0:0:
113,194,44909,2,0,L|108:111,1,62.5,2|0,0:3|0:0,0:0:0:0:
292,211,45105,2,0,L|298:128,1,62.5,8|0,0:0|0:0,0:0:0:0:
208,146,45301,2,0,L|213:63,1,62.5,2|2,0:3|0:3,0:0:0:0:
452,94,45497,5,6,0:0:0:0:
389,94,45595,1,0,0:0:0:0:
327,94,45693,1,2,0:3:0:0:
264,94,45792,1,0,0:0:0:0:
342,138,45890,1,8,0:0:0:0:
279,138,45988,1,0,0:0:0:0:
217,138,46086,1,2,0:3:0:0:
154,138,46184,1,0,0:0:0:0:
233,178,46282,5,2,0:0:0:0:
170,178,46380,1,0,0:0:0:0:
108,178,46478,1,2,0:3:0:0:
45,178,46576,1,0,0:0:0:0:
260,359,46674,2,0,L|334:331,3,62.5,8|0|2|0,0:0|0:0|0:3|0:0,0:0:0:0:
251,176,47067,5,2,0:0:0:0:
314,176,47165,1,0,0:0:0:0:
376,176,47263,1,2,0:3:0:0:
439,176,47361,1,0,0:0:0:0:
222,201,47459,2,0,L|138:170,3,62.5,8|0|2|0,0:0|0:0|0:3|0:0,0:0:0:0:
231,76,47851,5,2,0:0:0:0:
168,76,47949,1,0,0:0:0:0:
106,76,48047,1,2,0:3:0:0:
43,76,48145,1,0,0:0:0:0:
256,230,48243,2,0,L|333:230,1,62.5,8|0,0:0|0:0,0:0:0:0:
245,181,48440,2,0,L|165:179,1,62.5,2|0,0:3|0:0,0:0:0:0:
359,154,48636,5,2,0:0:0:0:
357,93,48734,1,0,0:0:0:0:
292,94,48832,1,2,0:3:0:0:
224,97,48930,1,0,0:0:0:0:
313,100,49028,1,8,0:0:0:0:
376,100,49126,1,0,0:0:0:0:
438,100,49224,1,2,0:3:0:0:
501,100,49322,1,0,0:3:0:0:
408,103,49420,5,2,0:0:0:0:
345,103,49518,1,0,0:0:0:0:
283,103,49617,1,2,0:3:0:0:
220,103,49715,1,0,0:0:0:0:
406,222,49813,2,0,L|481:218,3,62.5,8|0|2|0,0:0|0:0|0:3|0:0,0:0:0:0:
261,235,50205,6,0,L|255:158,1,62.5,2|0,0:0|0:0,0:0:0:0:
330,157,50401,2,0,L|408:153,1,62.5,2|0,0:3|0:0,0:0:0:0:
131,163,50597,2,0,L|150:92,1,62.5,8|0,0:0|0:0,0:0:0:0:
228,89,50793,2,0,L|306:85,1,62.5,2|0,0:3|0:0,0:0:0:0:
16,81,50990,6,0,L|102:74,1,62.5,2|2,0:0|0:3,0:0:0:0:
240,43,51186,2,0,L|318:39,1,69.9999978637696,2|2,0:3|0:3,0:0:0:0:
472,95,51382,2,0,L|379:97,1,69.9999978637696,8|0,0:0|0:0,0:0:0:0:
138,140,51578,2,0,L|213:136,1,69.9999978637696,2|0,0:3|0:0,0:0:0:0:
384,311,51774,6,0,P|440:290|354:197,1,220.000006713867,6|0,0:0|0:0,0:0:0:0:
263,186,52363,1,0,0:0:0:0:
424,101,52559,2,0,L|299:98,1,110.000003356934,8|0,0:0|0:0,0:0:0:0:
252,98,52853,1,0,0:0:0:0:
197,69,52951,2,0,L|319:68,1,110.000003356934,0|0,0:0|0:0,0:0:0:0:
163,243,53344,5,2,0:3:0:0:
160,188,53442,1,0,0:0:0:0:
157,133,53540,1,2,0:3:0:0:
317,81,53736,1,2,0:0:0:0:
262,84,53834,1,0,0:0:0:0:
207,86,53932,1,2,0:3:0:0:
52,93,54128,1,8,0:0:0:0:
183,208,54324,2,0,L|321:202,2,110.000003356934,0|2|2,0:0|0:3|0:3,0:0:0:0:
476,274,54913,6,0,P|472:203|321:157,1,220.000006713867,2|0,0:0|0:0,0:0:0:0:
230,159,55501,1,0,0:0:0:0:
50,163,55697,1,8,0:0:0:0:
168,151,55894,2,0,L|189:106,2,27.5000008392334,0|0|0,0:0|0:0|0:0,0:0:0:0:
117,153,56090,2,0,L|-2:156,1,110.000003356934,0|0,0:0|0:0,0:0:0:0:
139,285,56482,6,0,L|176:204,2,55.0000016784668,2|0|2,0:3|0:0|0:3,0:0:0:0:
311,157,56874,1,2,0:0:0:0:
365,154,56972,1,0,0:0:0:0:
420,152,57070,1,2,0:3:0:0:
246,102,57267,2,0,L|122:104,1,110.000003356934,8|0,0:0|0:0,0:0:0:0:
288,44,57659,2,0,L|409:44,1,110.000003356934,2|2,0:3|0:3,0:0:0:0:
88,100,58051,6,0,P|19:52|6:21,2,110.000003356934,6|0|2,0:0|0:0|0:3,0:0:0:0:
206,170,58640,2,0,L|214:143,2,27.5000008392334,0|0|0,0:0|0:0|0:0,0:0:0:0:
300,180,58836,2,0,L|427:177,1,110.000003356934,8|0,0:0|0:0,0:0:0:0:
256,90,59228,2,0,L|388:88,1,110.000003356934,2|0,0:3|0:0,0:0:0:0:
47,241,59620,6,0,P|34:191|40:132,1,110.000003356934,2|0,0:0|0:0,0:0:0:0:
122,126,59915,1,0,0:0:0:0:
204,242,60013,2,0,L|210:132,1,110.000003356934,2|2,0:3|0:0,0:0:0:0:
392,77,60405,2,0,L|274:79,1,110.000003356934,8|0,0:0|0:0,0:0:0:0:
430,257,60797,1,2,0:3:0:0:
432,202,60895,1,0,0:0:0:0:
435,147,60994,1,2,0:3:0:0:
288,160,61190,6,0,L|263:98,2,55.0000016784668,2|0|2,0:0|0:0|0:3,0:0:0:0:
422,104,61582,2,0,L|447:42,2,55.0000016784668,2|0|2,0:0|0:0|0:3,0:0:0:0:
146,210,61974,2,0,L|256:207,1,110.000003356934,8|0,0:0|0:0,0:0:0:0:
424,144,62367,2,0,L|282:137,1,110.000003356934,2|0,0:0|0:0,0:0:0:0:
27,254,62759,6,0,L|28:141,1,110.000003356934,2|0,0:0|0:0,0:0:0:0:
175,151,63151,1,2,0:0:0:0:
120,148,63249,1,0,0:0:0:0:
65,146,63347,1,2,0:3:0:0:
230,155,63544,1,8,0:0:0:0:
102,93,63740,2,0,L|89:25,2,36.6666677856446
162,100,63936,2,0,L|240:97,2,55.0000016784668,2|0|2,0:0|0:0|0:3,0:0:0:0:
486,119,64328,6,0,L|235:118,1,239.999992675781,6|2,0:0|0:0,0:0:0:0:
410,204,64917,1,0,0:0:0:0:
125,218,65113,2,0,L|120:86,1,119.999996337891,8|0,0:0|0:0,0:0:0:0:
198,90,65407,1,0,0:0:0:0:
274,81,65505,2,0,L|414:77,1,119.999996337891,2|0,0:0|0:0,0:0:0:0:
132,144,65897,5,2,0:0:0:0:
72,145,65995,1,0,0:0:0:0:
12,147,66094,1,2,0:3:0:0:
175,201,66290,1,2,0:0:0:0:
234,202,66388,1,0,0:0:0:0:
294,204,66486,1,2,0:3:0:0:
94,273,66682,1,8,0:0:0:0:
216,132,66878,2,0,L|74:132,2,119.999996337891,0|2|2,0:0|0:3|0:3,0:0:0:0:
485,193,67467,6,0,P|484:128|314:73,1,239.999992675781,2|2,0:0|0:0,0:0:0:0:
191,80,68055,1,0,0:0:0:0:
447,136,68251,1,8,0:0:0:0:
336,138,68447,2,0,L|328:85,2,29.9999990844727,0|0|0,0:0|0:0|0:0,0:0:0:0:
392,176,68644,2,0,L|518:173,1,119.999996337891,2|0,0:0|0:0,0:0:0:0:
158,247,69036,5,2,0:0:0:0:
154,187,69134,1,0,0:0:0:0:
151,127,69232,1,0,0:0:0:0:
324,169,69428,1,2,0:0:0:0:
324,111,69526,1,0,0:0:0:0:
387,111,69624,2,0,L|481:113,1,59.9999981689454,0|0,0:0|0:0,0:0:0:0:
164,44,69821,2,0,L|33:42,1,119.999996337891,8|0,0:0|0:0,0:0:0:0:
180,272,70213,2,0,L|187:136,1,119.999996337891,2|2,0:0|0:3,0:0:0:0:
451,267,70605,5,6,0:0:0:0:
470,211,70703,1,0,0:0:0:0:
459,152,70801,1,2,0:3:0:0:
421,107,70899,1,0,0:0:0:0:
365,87,70997,1,2,0:3:0:0:
306,98,71096,1,0,0:0:0:0:
369,143,71194,2,0,L|396:180,2,29.9999990844727,0|0|0,0:0|0:0|0:0,0:0:0:0:
176,297,71390,6,0,L|108:298,1,59.9999981689454,8|0,0:0|0:0,0:0:0:0:
213,233,71586,2,0,L|219:160,1,59.9999981689454,2|0,0:3|0:0,0:0:0:0:
120,144,71782,2,0,L|109:45,1,59.9999981689454,8|0,0:0|0:0,0:0:0:0:
220,95,71978,2,0,L|231:7,1,59.9999981689454,2|0,0:3|0:0,0:0:0:0:
471,281,72174,6,0,L|467:222,1,59.9999981689454,8|0,0:0|0:0,0:0:0:0:
373,220,72371,2,0,L|256:216,1,59.9999981689454,2|0,0:3|0:0,0:0:0:0:
158,169,72567,2,0,L|154:94,1,59.9999981689454,8|0,0:0|0:0,0:0:0:0:
240,94,72763,2,0,L|322:91,1,59.9999981689454,2|0,0:3|0:0,0:0:0:0:
108,222,72959,5,2,0:0:0:0:
52,177,73057,1,0,0:0:0:0:
52,118,73155,1,2,0:3:0:0:
104,70,73253,1,0,0:0:0:0:
358,222,73351,2,0,L|367:131,1,59.9999981689454,8|8,0:0|0:0,0:0:0:0:
201,142,73547,2,0,L|209:54,1,59.9999981689454,8|8,0:0|0:0,0:0:0:0:
468,275,73744,5,2,0:0:0:0:
497,225,73842,1,0,0:0:0:0:
463,175,73940,1,0,0:0:0:0:
396,164,74038,1,0,0:0:0:0:
212,189,74136,2,0,L|207:95,1,59.9999981689454,2|0,0:0|0:0,0:0:0:0:
297,90,74332,2,0,L|294:27,1,59.9999981689454,2|0,0:3|0:0,0:0:0:0:
89,124,74528,6,0,L|30:126,1,59.9999981689454,2|0,0:0|0:0,0:0:0:0:
192,88,74724,2,0,L|252:88,1,59.9999981689454,2|0,0:3|0:0,0:0:0:0:
72,281,74921,2,0,L|61:207,1,59.9999981689454,2|0,0:0|0:0,0:0:0:0:
162,199,75117,2,0,L|182:103,1,59.9999981689454,2|0,0:3|0:0,0:0:0:0:
365,247,75313,5,2,0:0:0:0:
426,204,75411,1,0,0:0:0:0:
419,147,75509,1,2,0:3:0:0:
351,124,75607,1,0,0:0:0:0:
190,139,75705,2,0,L|132:82,1,59.9999981689454,2|0,0:0|0:0,0:0:0:0:
314,171,75901,2,0,L|358:113,1,59.9999981689454,2|0,0:3|0:0,0:0:0:0:
128,260,76097,5,2,0:0:0:0:
74,240,76196,1,0,0:0:0:0:
71,184,76294,1,2,0:3:0:0:
122,158,76392,1,0,0:0:0:0:
350,123,76490,2,0,L|249:124,1,59.9999981689454,8|8,0:0|0:0,0:0:0:0:
122,158,76686,2,0,L|205:159,1,59.9999981689454,2|2,0:0|0:0,0:0:0:0:
481,173,76882,6,0,L|310:174,1,125,6|2,0:0|0:3,0:0:0:0:
293,175,77176,1,0,0:0:0:0:
81,231,77274,2,0,P|60:160|105:113,1,125,8|2,0:0|0:3,0:0:0:0:
387,197,77667,6,0,L|413:125,2,62.5,2|0|2,0:0|0:0|0:3,0:0:0:0:
309,201,77961,1,0,0:0:0:0:
217,200,78059,2,0,L|82:201,1,125,8|2,0:0|0:3,0:0:0:0:
470,221,78451,6,0,L|472:86,1,125,2|2,0:0|0:3,0:0:0:0:
286,111,78746,2,0,L|179:117,1,62.5,0|8,0:0|0:0,0:0:0:0:
360,198,79040,2,0,L|369:112,1,62.5,2|0,0:3|0:0,0:0:0:0:
171,250,79236,6,0,L|76:249,1,62.5,2|0,0:0|0:0,0:0:0:0:
108,249,79432,2,0,L|188:252,1,62.5,2|0,0:3|0:0,0:0:0:0:
266,60,79628,2,0,L|112:53,1,125,8|2,0:0|0:3,0:0:0:0:
78,49,79923,1,0,0:0:0:0:
399,267,80021,5,2,0:0:0:0:
452,243,80119,1,0,0:0:0:0:
451,184,80217,1,2,0:3:0:0:
397,162,80315,1,0,0:0:0:0:
193,100,80413,2,0,L|360:102,1,125,8|2,0:0|0:3,0:0:0:0:
53,242,80805,6,0,P|27:190|86:112,1,125,2|2,0:0|0:3,0:0:0:0:
119,117,81099,1,0,0:0:0:0:
174,74,81198,2,0,L|22:71,1,125,8|2,0:0|0:3,0:0:0:0:
308,160,81590,6,0,L|458:163,1,125,2|2,0:0|0:3,0:0:0:0:
369,201,81884,1,0,0:0:0:0:
304,222,81982,1,8,0:0:0:0:
150,207,82178,2,0,L|156:144,1,62.5,2|0,0:3|0:0,0:0:0:0:
323,308,82374,5,2,0:0:0:0:
388,283,82473,1,0,0:0:0:0:
383,216,82571,1,2,0:3:0:0:
330,190,82636,1,0,0:0:0:0:
264,176,82701,1,0,0:0:0:0:
210,164,82767,2,0,L|168:99,2,62.5,8|0|2,0:0|0:0|0:3,0:0:0:0:
482,120,83159,6,0,L|331:114,1,125,6|0,0:0|0:3,0:0:0:0:
289,111,83453,1,0,0:0:0:0:
211,46,83551,2,0,L|378:48,1,125,8|2,0:0|0:3,0:0:0:0:
42,225,83944,6,0,L|22:155,2,62.5,2|0|2,0:0|0:0|0:3,0:0:0:0:
120,245,84238,1,0,0:0:0:0:
197,137,84336,2,0,L|68:137,1,125,8|2,0:0|0:3,0:0:0:0:
129,75,84630,1,0,0:0:0:0:
286,61,84728,6,0,L|420:59,1,125,2|2,0:0|0:3,0:0:0:0:
247,246,85023,2,0,L|236:159,1,62.5,0|8,0:0|0:0,0:0:0:0:
369,188,85317,2,0,L|379:107,1,62.5,2|0,0:3|0:0,0:0:0:0:
215,129,85513,5,2,0:0:0:0:
159,107,85611,1,0,0:0:0:0:
156,48,85709,1,2,0:3:0:0:
208,21,85807,1,0,0:0:0:0:
371,45,85905,2,0,L|428:134,1,62.5,8|0,0:0|0:0,0:0:0:0:
242,163,86101,2,0,L|185:252,1,62.5,2|0,0:3|0:0,0:0:0:0:
466,258,86298,6,0,L|484:187,2,62.5,2|0|2,0:0|0:0|0:3,0:0:0:0:
394,266,86592,1,0,0:0:0:0:
237,281,86690,2,0,L|222:192,1,62.5,8|0,0:0|0:0,0:0:0:0:
300,208,86886,2,0,L|397:208,1,62.5,2|0,0:3|0:0,0:0:0:0:
100,208,87082,6,0,L|97:75,1,125,2|2,0:0|0:3,0:0:0:0:
231,56,87475,1,8,0:0:0:0:
189,55,87540,1,0,0:0:0:0:
147,54,87605,1,0,0:0:0:0:
106,53,87671,1,2,0:3:0:0:
374,58,87867,5,2,0:0:0:0:
436,58,87965,1,0,0:0:0:0:
498,58,88063,1,2,0:3:0:0:
302,175,88259,2,0,L|435:176,1,125,8|2,0:0|0:3,0:0:0:0:
470,176,88553,1,0,0:0:0:0:
250,293,88651,5,2,0:0:0:0:
199,256,88749,1,0,0:0:0:0:
232,203,88847,1,2,0:3:0:0:
283,180,88913,1,0,0:0:0:0:
347,180,88978,1,0,0:0:0:0:
405,172,89044,2,0,L|446:101,2,62.5,8|0|2,0:0|0:0|0:3,0:0:0:0:
39,111,89436,6,0,L|198:108,1,125,6|2,0:0|0:3,0:0:0:0:
233,108,89730,1,0,0:0:0:0:
445,229,89828,2,0,P|466:158|421:111,1,125,8|2,0:0|0:3,0:0:0:0:
169,282,90221,6,0,L|125:177,2,62.5,2|0|2,0:0|0:0|0:3,0:0:0:0:
243,296,90515,1,0,0:0:0:0:
307,192,90613,2,0,L|182:192,1,125,8|2,0:0|0:3,0:0:0:0:
481,275,91005,6,0,L|485:119,1,125,2|2,0:0|0:3,0:0:0:0:
302,126,91300,2,0,L|239:131,1,62.5,0|8,0:0|0:0,0:0:0:0:
96,64,91594,2,0,L|171:58,1,62.5,2|0,0:3|0:0,0:0:0:0:
372,203,91790,6,0,L|448:177,1,62.5,2|0,0:0|0:0,0:0:0:0:
431,182,91986,2,0,L|372:203,1,62.5,2|0,0:3|0:0,0:0:0:0:
293,123,92182,2,0,L|456:112,1,125,8|2,0:0|0:3,0:0:0:0:
479,86,92477,1,0,0:0:0:0:
292,275,92575,5,2,0:0:0:0:
225,245,92673,1,0,0:0:0:0:
225,185,92771,1,2,0:3:0:0:
292,159,92869,1,0,0:0:0:0:
47,218,92967,2,0,L|41:78,1,125,8|2,0:0|0:3,0:0:0:0:
301,79,93359,6,0,L|447:79,1,125,2|2,0:0|0:3,0:0:0:0:
349,105,93653,1,0,0:0:0:0:
273,147,93752,2,0,L|126:144,1,125,8|2,0:0|0:3,0:0:0:0:
464,254,94144,6,0,L|468:112,1,125,2|2,0:0|0:3,0:0:0:0:
389,124,94438,1,0,0:0:0:0:
315,111,94536,1,8,0:0:0:0:
175,92,94732,2,0,L|247:52,1,62.5,2|0,0:3|0:0,0:0:0:0:
51,284,94928,5,2,0:0:0:0:
18,229,95027,1,0,0:0:0:0:
49,176,95125,1,2,0:3:0:0:
109,168,95190,1,0,0:0:0:0:
165,162,95255,1,0,0:0:0:0:
208,128,95321,2,0,L|199:56,1,62.5,8|0,0:0|0:0,0:0:0:0:
117,45,95517,1,2,0:3:0:0:
460,216,95713,6,0,L|463:88,1,125,6|2,0:0|0:3,0:0:0:0:
383,88,96007,1,0,0:0:0:0:
297,87,96105,2,0,L|145:85,1,125,8|2,0:0|0:3,0:0:0:0:
428,202,96498,6,0,L|457:126,2,62.5,2|0|2,0:0|0:0|0:3,0:0:0:0:
346,212,96792,1,0,0:0:0:0:
265,209,96890,2,0,L|423:215,1,125,8|2,0:0|0:3,0:0:0:0:
453,220,97184,1,0,0:0:0:0:
219,289,97282,6,0,L|68:250,1,125,2|2,0:0|0:3,0:0:0:0:
256,255,97577,2,0,L|274:189,1,62.5,0|8,0:0|0:0,0:0:0:0:
130,169,97871,2,0,L|106:112,1,62.5,2|0,0:3|0:0,0:0:0:0:
312,143,98067,5,2,0:0:0:0:
357,103,98165,1,0,0:0:0:0:
353,43,98263,1,2,0:3:0:0:
303,9,98361,1,0,0:0:0:0:
131,117,98459,2,0,L|85:36,1,62.5,8|0,0:0|0:0,0:0:0:0:
272,63,98655,2,0,L|318:-18,1,62.5,2|0,0:3|0:0,0:0:0:0:
78,258,98852,6,0,L|69:182,1,62.5,2|0,0:0|0:0,0:0:0:0:
154,167,99048,2,0,L|246:167,1,62.5,8|0,0:0|0:0,0:0:0:0:
58,126,99244,2,0,L|53:40,1,62.5,2|0,0:0|0:0,0:0:0:0:
235,64,99440,2,0,L|299:63,1,62.5,8|0,0:0|0:0,0:0:0:0:
108,162,99636,6,0,L|212:159,1,62.5,2|0,0:0|0:0,0:0:0:0:
260,162,99832,2,0,L|332:161,1,62.5,8|0,0:0|0:0,0:0:0:0:
119,68,100028,1,2,0:0:0:0:
93,99,100093,1,0,0:0:0:0:
99,138,100158,1,0,0:0:0:0:
140,210,100225,2,0,L|220:206,1,62.5,8|0,0:0|0:0,0:0:0:0:
369,262,100421,5,6,0:0:0:0:
414,228,100519,1,0,0:0:0:0:
403,173,100617,1,0,0:0:0:0:
348,160,100715,1,0,0:0:0:0:
283,119,100813,2,0,L|376:101,1,59.9999981689454,8|0,0:0|0:0,0:0:0:0:
135,208,101009,6,0,L|122:139,1,59.9999981689454,0|0,0:0|0:0,0:0:0:0:
208,134,101205,1,2,0:0:0:0:
260,114,101303,1,0,0:0:0:0:
254,59,101401,1,0,0:0:0:0:
199,52,101499,1,0,0:0:0:0:
390,228,101598,5,8,0:0:0:0:
331,241,101696,1,0,0:0:0:0:
273,255,101794,1,0,0:0:0:0:
214,268,101892,1,0,0:0:0:0:
279,189,101990,2,0,L|376:169,1,59.9999981689454,2|0,0:0|0:0,0:0:0:0:
148,217,102186,6,0,L|146:126,1,59.9999981689454,0|0,0:0|0:0,0:0:0:0:
217,118,102382,1,8,0:0:0:0:
143,87,102481,2,0,L|62:42,2,59.9999981689454,0|0|0,0:0|0:0|0:0,0:0:0:0:
311,181,102775,5,2,0:0:0:0:
306,122,102873,1,0,0:0:0:0:
264,81,102971,1,0,0:0:0:0:
205,78,103069,1,0,0:0:0:0:
130,76,103167,2,0,L|201:79,1,59.9999981689454,8|0,0:0|0:0,0:0:0:0:
368,220,103363,6,0,L|369:142,1,59.9999981689454,0|0,0:0|0:0,0:0:0:0:
287,155,103559,1,2,0:0:0:0:
232,133,103657,1,0,0:0:0:0:
249,77,103755,1,0,0:0:0:0:
314,60,103853,1,0,0:0:0:0:
95,234,103952,5,8,0:0:0:0:
28,230,104050,1,0,0:0:0:0:
95,234,104148,1,0,0:0:0:0:
166,240,104246,1,0,0:0:0:0:
87,231,104344,2,0,L|3:229,1,59.9999981689454,2|0,0:0|0:0,0:0:0:0:
220,196,104540,6,0,L|307:199,1,59.9999981689454,0|0,0:0|0:0,0:0:0:0:
115,135,104736,1,8,0:0:0:0:
62,115,104834,1,0,0:0:0:0:
65,59,104932,1,0,0:0:0:0:
119,45,105030,1,0,0:0:0:0:
352,79,105129,5,6,0:0:0:0:
411,77,105227,1,0,0:0:0:0:
329,143,105325,1,0,0:0:0:0:
269,148,105423,1,0,0:0:0:0:
353,192,105521,2,0,L|445:183,1,59.9999981689454,8|0,0:0|0:0,0:0:0:0:
188,330,105717,6,0,L|183:265,1,59.9999981689454,0|0,0:0|0:0,0:0:0:0:
255,250,105913,1,2,0:0:0:0:
314,248,106011,1,0,0:0:0:0:
240,188,106109,1,0,0:0:0:0:
181,186,106207,1,0,0:0:0:0:
18,195,106305,5,8,0:0:0:0:
14,136,106403,1,0,0:0:0:0:
86,130,106501,1,0,0:0:0:0:
157,125,106599,1,0,0:0:0:0:
85,63,106698,2,0,L|-9:62,1,59.9999981689454,2|0,0:0|0:0,0:0:0:0:
271,59,106894,6,0,L|359:59,1,59.9999981689454
176,100,107090,1,8,0:0:0:0:
130,157,107188,1,0,0:0:0:0:
165,210,107286,1,0,0:0:0:0:
242,213,107384,1,0,0:0:0:0:
424,242,107482,5,2,0:0:0:0:
492,206,107580,1,0,0:0:0:0:
490,133,107678,1,0,0:0:0:0:
419,127,107777,1,0,0:0:0:0:
260,87,107875,1,8,0:0:0:0:
333,91,107974,1,0,0:0:0:0:
358,161,108072,1,0,0:0:0:0:
288,198,108170,1,0,0:0:0:0:
184,91,108267,5,2,0:0:0:0:
129,133,108365,1,0,0:0:0:0:
148,194,108463,1,0,0:0:0:0:
219,200,108562,1,0,0:0:0:0:
55,186,108659,1,8,0:0:0:0:
5,228,108757,1,0,0:0:0:0:
24,289,108855,1,0,0:0:0:0:
88,299,108954,1,0,0:0:0:0:
168,288,109052,5,2,0:0:0:0:
223,246,109150,1,0,0:0:0:0:
196,185,109248,1,0,0:0:0:0:
133,179,109347,1,0,0:0:0:0:
292,82,109444,2,0,L|352:50,1,59.9999981689454,8|0,0:0|0:0,0:0:0:0:
267,31,109640,2,0,L|196:-2,1,59.9999981689454
467,253,109836,6,0,L|491:175,2,59.9999981689454,6|0|0,0:0|0:0|0:0,0:0:0:0:
288,264,110130,2,0,L|282:194,1,59.9999981689454,8|0,0:0|0:0,0:0:0:0:
355,196,110327,1,0,0:0:0:0:
152,204,110425,6,0,L|60:175,2,59.9999981689454,2|0|0,0:0|0:0|0:0,0:0:0:0:
325,160,110719,2,0,L|325:100,1,59.9999981689454,8|0,0:0|0:0,0:0:0:0:
249,99,110916,1,0,0:0:0:0:
480,123,111013,2,0,L|534:93,2,59.9999981689454,6|0|0,0:0|0:0|0:0,0:0:0:0:
315,215,111307,2,0,L|251:183,2,59.9999981689454,8|0|0,0:0|0:0|0:0,0:0:0:0:
148,161,111602,6,0,L|88:120,1,59.9999981689454,2|0,0:0|0:0,0:0:0:0:
372,119,111798,2,0,L|444:121,1,59.9999981689454,8|2,0:0|0:0,0:0:0:0:
353,117,111994,2,0,L|249:112,1,59.9999981689454,0|0,0:0|0:0,0:0:0:0:
84,144,112190,6,0,L|30:95,2,59.9999981689454,6|0|0,0:0|0:0|0:0,0:0:0:0:
176,153,112484,1,0,0:0:0:0:
362,160,112582,2,0,L|416:111,1,59.9999981689454,8|0,0:0|0:0,0:0:0:0:
218,183,112779,6,0,L|155:126,1,59.9999981689454,2|0,0:0|0:0,0:0:0:0:
383,278,112975,1,0,0:0:0:0:
454,249,113073,1,8,0:0:0:0:
451,189,113171,1,0,0:0:0:0:
372,171,113269,1,0,0:0:0:0:
156,199,113367,6,0,L|149:103,1,59.9999981689454,6|0,0:0|0:0,0:0:0:0:
237,149,113563,1,0,0:0:0:0:
300,116,113661,1,8,0:0:0:0:
290,60,113759,1,0,0:0:0:0:
226,47,113857,1,0,0:0:0:0:
439,98,113956,6,0,L|503:69,1,59.9999981689454,6|0,0:0|0:0,0:0:0:0:
270,133,114152,2,0,L|269:65,1,59.9999981689454,8|2,0:0|0:0,0:0:0:0:
352,64,114348,2,0,L|435:62,1,59.9999981689454
161,254,114544,5,6,0:0:0:0:
123,196,114642,1,0,0:0:0:0:
167,158,114740,1,0,0:0:0:0:
245,159,114838,1,0,0:0:0:0:
36,171,114936,6,0,L|29:86,1,59.9999981689454,0|0,0:0|0:0,0:0:0:0:
254,112,115132,2,0,L|412:112,1,119.999996337891,6|0,0:0|0:0,0:0:0:0:
133,45,115427,2,0,P|111:107|167:165,1,119.999996337891,6|0,0:0|0:0,0:0:0:0:
382,206,115721,2,0,L|322:207,1,59.9999981689454,12|8,0:0|0:0,0:0:0:0:
135,164,115917,2,0,L|57:162,1,59.9999981689454,2|2,0:0|0:0,0:0:0:0:
320,151,116113,5,6,0:0:0:0:
256,192,116309,12,0,122390,0:0:0:0:
