osu file format v14

[General]
AudioFilename: audio.mp3
AudioLeadIn: 0
PreviewTime: 76485
Countdown: 0
SampleSet: None
StackLeniency: 0.7
Mode: 2
LetterboxInBreaks: 0
WidescreenStoryboard: 1

[Editor]
DistanceSpacing: 1.3
BeatDivisor: 2
GridSize: 4
TimelineZoom: 2.899999

[Metadata]
Title:Sennen no Kotowari
TitleUnicode:千年ノ理
Artist:Nekomata Master
ArtistUnicode:猫叉Master
Creator:Seija
Version:BASIC
Source:SOUND VOLTEX III GRAVITY WARS
Tags:Yagokoro Eirin ZUN 千年幻想郷 ~ History of the Moon BEMANI×東方Project Ultimate MasterPieces beatmania IIDX 22 PENDUAL Touhou 8 Imperishable Night
BeatmapID:1539552
BeatmapSetID:613579

[Difficulty]
HPDrainRate:3
CircleSize:2.5
OverallDifficulty:5
ApproachRate:5
SliderMultiplier:1.8
SliderTickRate:1

[Events]
//Background and Video events
0,0,"BAS.jpg",0,0
//Break Periods
//Storyboard Layer 0 (Background)
//Storyboard Layer 1 (Fail)
//Storyboard Layer 2 (Pass)
//Storyboard Layer 3 (Foreground)
//Storyboard Sound Samples

[TimingPoints]
1559,392.28506047728,4,1,1,70,1,0
1559,-133.333333333333,4,1,1,70,0,0
39218,-133.333333333333,4,1,1,70,0,1
51379,-100,4,2,1,70,0,1
51771,-100,4,1,1,70,0,0
52163,-100,4,1,1,70,0,0
76485,-100,4,2,1,80,0,1
76877,-100,4,1,1,90,0,1
89430,-100,4,1,1,90,0,1
92176,-133.333333333333,4,2,1,70,0,1
92569,-100,4,1,1,90,0,1
95315,-100,4,2,1,90,0,1
95707,-100,4,1,1,70,0,1
100414,-100,4,1,1,80,0,0
109829,-100,4,1,1,80,0,1
116106,-200,4,1,1,70,0,0
117675,-200,4,1,1,60,0,0
119244,-200,4,1,1,40,0,0
120813,-200,4,1,1,20,0,0

[Colours]
Combo1 : 33,24,201
Combo2 : 203,52,52
Combo3 : 228,177,101
Combo4 : 248,137,196

[HitObjects]
176,256,1559,6,0,P|120:176|256:52,1,270.000010299683,8|10,0:0|0:0,0:0:0:0:
310,54,2735,1,8,0:0:0:0:
456,136,3128,2,0,P|440:220|280:224,1,270.000010299683,8|10,0:0|0:0,0:0:0:0:
184,164,4304,1,0,0:0:0:0:
124,248,4697,6,0,P|204:240|432:284,1,270.000010299683,12|10,0:0|0:0,0:0:0:0:
280,324,5874,1,0,0:0:0:0:
176,304,6266,2,0,P|80:188|180:96,1,270.000010299683,8|10,0:0|0:0,0:0:0:0:
329,118,7443,1,8,0:0:0:0:
427,163,7835,6,0,P|451:279|279:299,1,270.000010299683,12|10,0:0|0:0,0:0:0:0:
223,313,9012,1,8,0:0:0:0:
107,266,9404,2,2,P|75:346|123:374,1,135.000005149842,10|0,0:0|0:0,0:0:0:0:
216,300,10189,1,10,0:0:0:0:
325,280,10581,1,0,0:0:0:0:
417,230,10973,6,0,P|469:294|397:358,2,135.000005149842,10|0|10,0:0|0:0|0:0,0:0:0:0:
305,244,12150,1,0,0:0:0:0:
177,227,12542,2,0,B|285:159|285:159|225:87|149:83|149:83|97:139|81:207,1,405.000015449525,14|8,0:0|0:0,0:0:0:0:
236,280,14112,6,0,P|285:217|280:140,1,135.000005149842,12|10,0:0|0:0,0:0:0:0:
184,120,14896,1,0,0:0:0:0:
344,128,15288,1,10,0:0:0:0:
220,238,15681,2,0,L|20:236,2,135.000005149842,8|10|0,0:0|0:0|0:0,0:0:0:0:
336,240,16858,1,14,0:0:0:0:
222,214,17250,6,0,L|378:178,1,135.000005149842,12|10,0:0|0:0,0:0:0:0:
164,132,18034,1,8,0:0:0:0:
280,100,18427,1,10,0:0:0:0:
392,232,18819,2,0,P|436:164|388:136,1,135.000005149842,8|10,0:0|0:0,0:0:0:0:
268,160,19604,2,0,P|232:108|300:76,1,135.000005149842,8|10,0:0|0:0,0:0:0:0:
444,112,20388,6,0,P|484:192|404:228,1,135.000005149842,12|10,0:0|0:0,0:0:0:0:
282,294,21173,2,0,L|126:294,1,135.000005149842,8|10,0:0|0:0,0:0:0:0:
324,276,21957,2,0,P|352:192|284:160,1,135.000005149842,8|10,0:0|0:0,0:0:0:0:
195,183,22742,2,0,P|171:107|219:67,1,135.000005149842,8|10,0:0|0:0,0:0:0:0:
336,140,23526,6,0,B|176:144,1,135.000005149842,12|8,0:0|0:0,0:0:0:0:
296,240,24311,1,0,0:0:0:0:
440,244,24703,1,10,0:0:0:0:
328,328,25096,2,0,L|468:328,1,135.000005149842,8|10,0:0|0:0,0:0:0:0:
395,259,25880,1,8,0:0:0:0:
291,256,26272,1,10,0:0:0:0:
450,245,26665,6,0,B|470:163|470:163|386:144,1,135.000005149842,12|10,0:0|0:0,0:0:0:0:
321,162,27449,1,0,0:0:0:0:
432,148,27842,1,10,0:0:0:0:
314,94,28234,2,0,P|247:147|272:239,2,135.000005149842,0|10|0,0:0|0:0|0:0,0:0:0:0:
419,97,29411,1,10,0:0:0:0:
275,102,29803,6,0,P|210:111|204:211,1,135.000005149842,12|10,0:0|0:0,0:0:0:0:
302,243,30588,2,0,P|267:314|206:323,1,135.000005149842,0|10,0:0|0:0,0:0:0:0:
96,320,31372,1,0,0:0:0:0:
240,288,31764,1,10,0:0:0:0:
140,240,32157,1,0,0:0:0:0:
56,216,32549,1,10,0:0:0:0:
188,156,32941,6,0,L|44:157,1,135.000005149842,12|10,0:0|0:0,0:0:0:0:
256,256,33726,2,0,L|252:118,1,135.000005149842,0|10,0:0|0:0,0:0:0:0:
405,102,34510,2,0,P|462:158|339:233,1,270.000010299683,14|8,0:0|0:0,0:0:0:0:
216,164,35687,1,10,0:0:0:0:
357,167,36080,6,0,L|494:139,2,135.000005149842,12|10|0,0:0|0:0|0:0,0:0:0:0:
248,184,37256,1,10,0:0:0:0:
132,237,37649,1,10,0:0:0:0:
232,219,38041,1,10,0:0:0:0:
110,173,38433,1,10,0:0:0:0:
222,135,38826,1,10,0:0:0:0:
46,123,39218,6,0,P|21:214|76:242,1,135.000005149842,12|10,0:0|0:0,0:0:0:0:
183,248,40002,2,0,L|340:246,1,135.000005149842,0|10,0:0|0:0,0:0:0:0:
453,224,40787,2,0,P|470:151|419:110,1,135.000005149842,0|10,0:0|0:0,0:0:0:0:
296,267,41572,2,8,L|443:263,1,135.000005149842,8|2,0:0|0:0,0:0:0:0:
318,292,42356,6,8,P|273:235|314:179,1,135.000005149842,12|10,0:0|0:0,0:0:0:0:
432,106,43141,2,8,L|286:109,1,135.000005149842,8|10,0:0|0:0,0:0:0:0:
190,123,43925,2,8,P|180:190|267:243,1,135.000005149842,8|10,0:0|0:0,0:0:0:0:
343,320,44710,2,8,L|189:322,1,135.000005149842,8|10,0:0|0:0,0:0:0:0:
349,270,45494,6,0,L|504:268,2,135.000005149842,12|10|0,0:0|0:0|0:0,0:0:0:0:
240,272,46671,1,10,0:0:0:0:
356,244,47064,2,0,L|491:248,2,135.000005149842,8|10|0,0:0|0:0|0:0,0:0:0:0:
244,240,48240,1,10,0:0:0:0:
124,232,48633,6,0,P|66:196|36:116,2,135.000005149842,12|8|0,0:0|0:0|0:0,0:0:0:0:
248,244,49810,1,10,0:0:0:0:
110,208,50202,2,10,L|248:130,1,135.000005149842
392,164,50986,2,10,P|406:246|364:311,1,135.000005149842
218,313,51771,6,0,B|56:301|14:155|14:155|128:178,1,360,12|10,0:0|0:0,0:0:0:0:
213,208,52948,1,0,0:0:0:0:
294,182,53340,2,0,P|193:133|92:331,1,360,12|10,0:0|0:0,0:0:0:0:
180,332,54517,1,0,0:0:0:0:
365,226,54909,6,0,B|435:153|435:153|355:85|201:193|212:260,1,360,12|10,0:0|0:0,0:0:0:0:
317,277,56086,1,0,0:0:0:0:
447,245,56478,2,0,P|459:132|357:120,1,180,12|8,0:0|0:0,0:0:0:0:
232,212,57263,1,10,0:0:0:0:
336,176,57655,1,0,0:0:0:0:
484,80,58048,6,0,L|254:81,1,180,12|0,0:0|0:0,0:0:0:0:
171,94,58832,1,10,0:0:0:0:
278,113,59224,1,0,0:0:0:0:
164,203,59617,2,0,P|101:127|-5:184,2,180,8|12|10,0:0|0:0|0:0,0:0:0:0:
281,193,60794,1,0,0:0:0:0:
158,99,61186,6,0,P|236:71|297:162,2,180,12|8|10,0:0|0:0|0:0,0:0:0:0:
54,144,62363,1,8,0:0:0:0:
230,178,62755,1,8,0:0:0:0:
121,227,63147,1,8,0:0:0:0:
229,282,63540,1,10,0:0:0:0:
334,246,63932,1,8,0:0:0:0:
190,209,64324,6,0,B|168:130|168:130|296:90,1,180,12|0,0:0|0:0,0:0:0:0:
365,75,65109,1,10,0:0:0:0:
265,94,65501,1,0,0:0:0:0:
137,128,65893,2,0,P|122:218|214:259,2,180,8|8|10,0:0|0:0|0:0,0:0:0:0:
235,83,67070,1,0,0:0:0:0:
96,97,67462,6,0,P|35:195|106:273,1,180,12|0,0:0|0:0,0:0:0:0:
171,273,68247,1,10,0:0:0:0:
290,260,68639,1,0,0:0:0:0:
148,260,69032,2,0,B|86:176|86:176|185:114,1,180,8|8,0:0|0:0,0:0:0:0:
267,108,69816,1,10,0:0:0:0:
168,127,70208,1,0,0:0:0:0:
314,214,70601,6,0,P|219:175|145:271,2,180,12|0|10,0:0|0:0|0:0,0:0:0:0:
427,205,71778,1,0,0:0:0:0:
326,247,72170,2,0,B|178:242|178:242|259:224,2,180,10|0|10,0:0|0:0|0:0,0:0:0:0:
152,183,73347,5,10,0:0:0:0:
270,207,73739,1,12,0:0:0:0:
190,290,74131,1,10,0:0:0:0:
318,281,74524,1,8,0:0:0:0:
403,224,74916,1,14,0:0:0:0:
216,212,75308,2,0,P|188:150|244:46,1,180,10|10,0:0|0:0,0:0:0:0:
376,88,76093,1,10,0:0:0:0:
236,132,76485,1,10,0:0:0:0:
384,180,76877,6,0,P|303:251|272:323,2,180,12|10|0,0:0|0:0|0:0,0:0:0:0:
480,148,78054,1,10,0:0:0:0:
348,168,78446,2,0,P|297:117|351:31,1,180,0|10,0:0|0:0,0:0:0:0:
432,77,79231,1,0,0:0:0:0:
285,122,79623,1,10,0:0:0:0:
175,246,80016,6,0,L|356:238,2,180,12|10|0,0:0|0:0|0:0,0:0:0:0:
96,240,81192,1,10,0:0:0:0:
252,249,81585,2,0,P|289:177|169:120,1,180,0|10,0:0|0:0,0:0:0:0:
141,141,82369,1,10,0:0:0:0:
277,134,82762,1,10,0:0:0:0:
128,248,83154,6,0,P|64:155|93:112,2,180,12|10|0,0:0|0:0|0:0,0:0:0:0:
248,236,84331,1,10,0:0:0:0:
326,152,84723,2,0,P|243:100|152:122,1,180,0|10,0:0|0:0,0:0:0:0:
240,184,85508,1,0,0:0:0:0:
88,180,85900,1,10,0:0:0:0:
232,272,86292,5,8,0:0:0:0:
376,280,86684,1,10,0:0:0:0:
221,246,87077,2,0,P|200:157|266:100,1,180,0|10,0:0|0:0,0:0:0:0:
92,184,87861,2,8,L|274:184,1,180,8|10,0:0|0:0,0:0:0:0:
154,118,88646,2,0,P|121:208|189:268,1,180,8|10,0:0|0:0,0:0:0:0:
333,220,89430,6,0,P|402:149|381:68,2,180,12|10|0,0:0|0:0|0:0,0:0:0:0:
212,212,90607,1,10,0:0:0:0:
350,127,90999,2,8,L|148:122,1,180,8|10,0:0|0:0,0:0:0:0:
266,64,91784,1,8,0:0:0:0:
384,64,92176,1,10,0:0:0:0:
251,203,92569,6,0,P|169:274|240:308,1,180,12|10,0:0|0:0,0:0:0:0:
361,298,93353,2,0,P|392:216|312:179,1,180,8|10,0:0|0:0,0:0:0:0:
218,116,94138,2,0,L|438:98,1,180,8|10,0:0|0:0,0:0:0:0:
324,186,94922,1,8,0:0:0:0:
218,250,95315,1,10,0:0:0:0:
371,249,95707,6,0,P|398:193|307:133,2,180,12|10|0,0:0|0:0|0:0,0:0:0:0:
257,282,96884,1,10,0:0:0:0:
159,275,97276,2,8,P|85:183|181:118,1,180,8|10,0:0|0:0,0:0:0:0:
216,156,98061,2,8,B|312:124|312:124|218:97,1,180,8|10,0:0|0:0,0:0:0:0:
351,138,98845,6,2,P|474:194|503:239,2,180,12|10|2,0:0|0:0|0:0,0:0:0:0:
240,168,100022,1,10,0:0:0:0:
386,242,100414,2,0,P|414:173|324:113,1,180,12|10,0:0|0:0,0:0:0:0:
215,207,101199,2,8,P|305:176|398:181,1,180,0|2,0:0|0:0,0:0:0:0:
218,251,101983,6,8,P|173:170|220:97,1,180,8|10,0:0|0:0,0:0:0:0:
372,121,102768,2,8,L|171:129,1,180,8|10,0:0|0:0,0:0:0:0:
375,249,103553,2,8,P|416:140|357:102,1,180,8|10,0:0|0:0,0:0:0:0:
201,218,104337,1,4,0:0:0:0:
325,198,104729,1,10,0:0:0:0:
172,169,105122,6,8,P|186:251|279:297,1,180,12|10,0:0|0:0,0:0:0:0:
98,245,105906,2,8,P|65:163|122:102,1,180,8|10,0:0|0:0,0:0:0:0:
237,198,106691,2,8,P|343:188|377:129,1,180,8|10,0:0|0:0,0:0:0:0:
241,99,107475,2,0,P|146:137|122:226,1,180,8|2,0:0|0:0,0:0:0:0:
261,253,108260,6,0,P|370:216|379:149,1,180,8|2,0:0|0:0,0:0:0:0:
222,170,109045,1,8,0:0:0:0:
339,138,109437,1,10,0:0:0:0:
209,120,109829,6,10,P|107:164|190:306,2,270,14|10|10,0:0|0:0|0:0,0:0:0:0:
354,239,111594,2,10,P|396:146|244:117,2,270,14|10|10,0:0|0:0|0:0,0:0:0:0:
205,250,113360,6,10,P|354:208|412:104,2,270,14|10|10,0:0|0:0|0:0,0:0:0:0:
101,207,115125,2,10,P|219:163|232:28,1,270,14|10,0:0|0:0,0:0:0:0:
84,88,116106,1,0,0:0:0:0:
256,192,116498,12,0,122382,0:0:0:0:
