osu file format v14

[General]
AudioFilename: audio.mp3
AudioLeadIn: 0
PreviewTime: 76476
Countdown: 0
SampleSet: Soft
StackLeniency: 0.7
Mode: 3
LetterboxInBreaks: 0
SpecialStyle: 0
WidescreenStoryboard: 0

[Editor]
DistanceSpacing: 1.3
BeatDivisor: 4
GridSize: 4
TimelineZoom: 1

[Metadata]
Title:Sennen no Kotowari
TitleUnicode:千年ノ理
Artist:Nekomata Master
ArtistUnicode:猫叉Master
Creator:Critical_Star
Version:EXHAUST
Source:SOUND VOLTEX III GRAVITY WARS
Tags:WORLD/ELECTRONICA ZUN 千年幻想郷 ~ History of the Moon BEMANI×東方Project Ultimate MasterPieces Naoyuki Sato beatmania IIDX 22 PENDUAL
BeatmapID:1211776
BeatmapSetID:571189

[Difficulty]
HPDrainRate:8
CircleSize:7
OverallDifficulty:8
ApproachRate:5
SliderMultiplier:1.4
SliderTickRate:1

[Events]
//Background and Video events
0,0,"BG.jpg",0,0
//Break Periods
//Storyboard Layer 0 (Background)
//Storyboard Layer 1 (Fail)
//Storyboard Layer 2 (Pass)
//Storyboard Layer 3 (Foreground)
//Storyboard Sound Samples

[TimingPoints]
1575,392.156862745098,4,2,1,35,1,0
13731,-66.6666666666667,4,2,1,35,0,0
14025,-200,4,2,1,35,0,0
14124,-100,4,2,1,35,0,0
39222,-100,4,2,1,35,0,1
51771,-100,4,2,1,35,0,0
76869,-100,4,2,1,35,0,1
82751,-100,4,2,1,35,0,0
83143,-100,4,2,1,35,0,1
89025,-100,4,2,1,35,0,0
89418,-100,4,2,1,35,0,1
95300,-100,4,2,1,35,0,0
95692,-100,4,2,1,35,0,1
100398,-100,4,2,1,35,0,0

[HitObjects]
36,192,1182,128,0,1575:0:0:0:0:
182,192,1182,1,0,0:0:0:0:
256,192,1280,1,0,0:0:0:0:
329,192,1378,1,0,0:0:0:0:
402,192,1476,1,0,0:0:0:0:
475,192,1575,128,2,2163:0:0:0:0:
182,192,1575,1,4,0:0:0:0:
109,192,1575,1,0,0:0:0:0:
329,192,1771,1,0,0:0:0:0:
36,192,1967,1,0,0:0:0:0:
329,192,2163,1,0,0:0:0:0:
36,192,2359,1,8,0:0:0:0:
475,192,2359,1,0,0:0:0:0:
182,192,2555,1,0,0:0:0:0:
329,192,2555,1,0,0:0:0:0:
402,192,2653,1,0,0:0:0:0:
36,192,2751,1,0,0:0:0:0:
475,192,2751,1,0,0:0:0:0:
329,192,2947,1,0,0:0:0:0:
182,192,2947,1,0,0:0:0:0:
256,192,3143,128,0,3927:0:0:0:0:
402,192,3339,1,0,0:0:0:0:
109,192,3535,1,0,0:0:0:0:
402,192,3731,1,0,0:0:0:0:
36,192,3927,1,8,0:0:0:0:
182,192,3927,1,0,0:0:0:0:
109,192,4124,1,0,0:0:0:0:
256,192,4124,1,0,0:0:0:0:
182,192,4320,1,0,0:0:0:0:
329,192,4320,1,0,0:0:0:0:
402,192,4516,1,0,0:0:0:0:
256,192,4516,1,0,0:0:0:0:
475,192,4712,128,2,5300:0:0:0:0:
329,192,4712,1,0,0:0:0:0:
109,192,4908,1,0,0:0:0:0:
329,192,5104,1,0,0:0:0:0:
182,192,5300,1,0,0:0:0:0:
475,192,5496,1,8,0:0:0:0:
329,192,5496,1,0,0:0:0:0:
36,192,5692,1,0,0:0:0:0:
402,192,5692,1,0,0:0:0:0:
109,192,5790,1,0,0:0:0:0:
182,192,5888,1,0,0:0:0:0:
329,192,5888,1,0,0:0:0:0:
475,192,6084,1,0,0:0:0:0:
36,192,6084,1,0,0:0:0:0:
182,192,6280,128,0,7065:0:0:0:0:
329,192,6476,1,0,0:0:0:0:
475,192,6673,1,0,0:0:0:0:
329,192,6869,1,0,0:0:0:0:
475,192,7065,1,2,0:0:0:0:
36,192,7065,1,0,0:0:0:0:
256,192,7261,1,0,0:0:0:0:
329,192,7457,128,2,7849:0:0:0:0:
182,192,7653,128,0,7849:0:0:0:0:
36,192,7849,1,2,0:0:0:0:
475,192,7849,1,4,0:0:0:0:
256,192,7849,1,0,0:0:0:0:
402,192,7947,1,0,0:0:0:0:
329,192,8045,1,0,0:0:0:0:
256,192,8143,1,0,0:0:0:0:
182,192,8241,1,0,0:0:0:0:
475,192,8241,1,0,0:0:0:0:
36,192,8339,1,0,0:0:0:0:
109,192,8437,1,0,0:0:0:0:
329,192,8437,1,0,0:0:0:0:
402,192,8535,1,0,0:0:0:0:
182,192,8535,1,0,0:0:0:0:
475,192,8633,1,8,0:0:0:0:
256,192,8633,1,0,0:0:0:0:
36,192,8633,1,0,0:0:0:0:
402,192,8731,1,0,0:0:0:0:
329,192,8829,1,0,0:0:0:0:
182,192,8829,1,0,0:0:0:0:
109,192,8927,1,0,0:0:0:0:
36,192,9025,1,0,0:0:0:0:
475,192,9025,1,0,0:0:0:0:
109,192,9124,1,0,0:0:0:0:
329,192,9222,1,0,0:0:0:0:
182,192,9222,1,0,0:0:0:0:
402,192,9320,1,0,0:0:0:0:
475,192,9418,1,2,0:0:0:0:
36,192,9418,1,0,0:0:0:0:
109,192,9418,1,0,0:0:0:0:
256,192,9516,1,0,0:0:0:0:
182,192,9614,1,0,0:0:0:0:
329,192,9614,1,0,0:0:0:0:
402,192,9712,1,0,0:0:0:0:
109,192,9712,1,0,0:0:0:0:
475,192,9810,1,0,0:0:0:0:
36,192,9810,1,0,0:0:0:0:
109,192,9908,1,0,0:0:0:0:
182,192,10006,1,0,0:0:0:0:
402,192,10006,1,0,0:0:0:0:
329,192,10104,1,0,0:0:0:0:
256,192,10202,1,8,0:0:0:0:
475,192,10202,1,0,0:0:0:0:
36,192,10202,1,0,0:0:0:0:
109,192,10300,1,0,0:0:0:0:
182,192,10398,1,0,0:0:0:0:
256,192,10496,1,0,0:0:0:0:
475,192,10594,128,2,10986:0:0:0:0:
329,192,10594,1,0,0:0:0:0:
36,192,10594,1,0,0:0:0:0:
329,192,10790,128,0,10986:0:0:0:0:
36,192,10986,128,2,11182:0:0:0:0:
182,192,10986,1,0,0:0:0:0:
256,192,11182,1,0,0:0:0:0:
475,192,11378,128,2,11771:0:0:0:0:
329,192,11378,1,0,0:0:0:0:
329,192,11575,128,0,11771:0:0:0:0:
36,192,11771,128,8,12163:0:0:0:0:
109,192,11771,1,0,0:0:0:0:
182,192,11771,1,0,0:0:0:0:
256,192,11967,128,0,12359:0:0:0:0:
402,192,12163,128,2,12555:0:0:0:0:
475,192,12163,1,0,0:0:0:0:
109,192,12359,128,0,12555:0:0:0:0:
182,192,12555,1,2,0:0:0:0:
36,192,12555,1,0,0:0:0:0:
475,192,12555,1,0,0:0:0:0:
256,192,12751,1,0,0:0:0:0:
475,192,12947,1,2,0:0:0:0:
329,192,12947,1,0,0:0:0:0:
36,192,12947,1,0,0:0:0:0:
256,192,13143,1,0,0:0:0:0:
182,192,13339,1,8,0:0:0:0:
475,192,13339,1,0,0:0:0:0:
36,192,13339,1,0,0:0:0:0:
109,192,13535,1,2,0:0:0:0:
402,192,13535,1,0,0:0:0:0:
329,192,13633,1,0,0:0:0:0:
182,192,13633,1,0,0:0:0:0:
256,192,13731,1,8,0:0:0:0:
36,192,13731,1,0,0:0:0:0:
475,192,13731,1,0,0:0:0:0:
402,192,14124,1,2,0:0:0:0:
475,192,14124,1,4,0:0:0:0:
109,192,14124,1,0,0:0:0:0:
36,192,14124,1,0,0:0:0:0:
182,192,14320,1,0,0:0:0:0:
329,192,14320,1,0,0:0:0:0:
402,192,14418,1,0,0:0:0:0:
475,192,14516,1,8,0:0:0:0:
256,192,14516,1,0,0:0:0:0:
36,192,14516,1,0,0:0:0:0:
109,192,14712,1,0,0:0:0:0:
329,192,14712,1,0,0:0:0:0:
475,192,14908,1,2,0:0:0:0:
182,192,14908,1,0,0:0:0:0:
256,192,15104,1,0,0:0:0:0:
402,192,15104,1,0,0:0:0:0:
182,192,15202,1,0,0:0:0:0:
475,192,15300,1,8,0:0:0:0:
109,192,15300,1,0,0:0:0:0:
36,192,15300,1,0,0:0:0:0:
329,192,15496,1,0,0:0:0:0:
182,192,15496,1,0,0:0:0:0:
256,192,15692,1,2,0:0:0:0:
475,192,15692,1,0,0:0:0:0:
36,192,15888,1,0,0:0:0:0:
182,192,15888,1,0,0:0:0:0:
256,192,15986,1,0,0:0:0:0:
329,192,16084,1,8,0:0:0:0:
475,192,16084,1,0,0:0:0:0:
109,192,16084,1,0,0:0:0:0:
182,192,16280,1,0,0:0:0:0:
402,192,16280,1,0,0:0:0:0:
256,192,16476,1,2,0:0:0:0:
36,192,16476,1,0,0:0:0:0:
475,192,16673,128,0,16869:0:0:0:0:
329,192,16673,128,0,16869:0:0:0:0:
182,192,16869,1,8,0:0:0:0:
36,192,16869,1,0,0:0:0:0:
36,192,17065,128,0,17261:0:0:0:0:
182,192,17065,128,0,17261:0:0:0:0:
329,192,17261,1,2,0:0:0:0:
475,192,17261,1,0,0:0:0:0:
109,192,17457,1,0,0:0:0:0:
402,192,17457,1,0,0:0:0:0:
182,192,17555,1,0,0:0:0:0:
475,192,17653,1,8,0:0:0:0:
36,192,17653,1,0,0:0:0:0:
256,192,17653,1,0,0:0:0:0:
402,192,17849,1,0,0:0:0:0:
182,192,17849,1,0,0:0:0:0:
329,192,18045,1,2,0:0:0:0:
109,192,18045,1,0,0:0:0:0:
36,192,18241,1,0,0:0:0:0:
256,192,18241,1,0,0:0:0:0:
329,192,18339,1,0,0:0:0:0:
402,192,18437,1,8,0:0:0:0:
475,192,18437,1,0,0:0:0:0:
109,192,18437,1,0,0:0:0:0:
182,192,18633,1,0,0:0:0:0:
329,192,18633,1,0,0:0:0:0:
256,192,18829,1,2,0:0:0:0:
36,192,18829,1,0,0:0:0:0:
402,192,19025,128,0,19124:0:0:0:0:
109,192,19025,128,0,19124:0:0:0:0:
329,192,19222,1,8,0:0:0:0:
475,192,19222,1,0,0:0:0:0:
182,192,19222,1,0,0:0:0:0:
256,192,19418,128,0,19516:0:0:0:0:
36,192,19418,128,0,19516:0:0:0:0:
109,192,19614,1,2,0:0:0:0:
402,192,19614,1,0,0:0:0:0:
256,192,19810,128,0,19908:0:0:0:0:
475,192,19810,128,0,19908:0:0:0:0:
182,192,20006,1,8,0:0:0:0:
329,192,20006,1,0,0:0:0:0:
36,192,20006,1,0,0:0:0:0:
402,192,20202,128,0,20300:0:0:0:0:
109,192,20202,128,0,20300:0:0:0:0:
329,192,20398,1,2,0:0:0:0:
475,192,20398,1,4,0:0:0:0:
182,192,20398,1,0,0:0:0:0:
109,192,20594,1,0,0:0:0:0:
256,192,20594,1,0,0:0:0:0:
329,192,20692,1,0,0:0:0:0:
402,192,20790,128,8,21182:0:0:0:0:
182,192,20790,1,0,0:0:0:0:
36,192,20790,1,0,0:0:0:0:
256,192,20986,1,0,0:0:0:0:
182,192,21182,128,2,21575:0:0:0:0:
36,192,21182,1,0,0:0:0:0:
475,192,21182,1,0,0:0:0:0:
402,192,21280,1,0,0:0:0:0:
329,192,21378,1,0,0:0:0:0:
329,192,21575,128,8,21967:0:0:0:0:
109,192,21575,1,0,0:0:0:0:
475,192,21575,1,0,0:0:0:0:
182,192,21771,1,0,0:0:0:0:
36,192,21967,128,2,22751:0:0:0:0:
475,192,21967,1,0,0:0:0:0:
256,192,21967,1,0,0:0:0:0:
402,192,22163,1,0,0:0:0:0:
329,192,22261,1,0,0:0:0:0:
256,192,22359,1,8,0:0:0:0:
109,192,22359,1,0,0:0:0:0:
475,192,22359,1,0,0:0:0:0:
329,192,22555,1,0,0:0:0:0:
475,192,22751,128,2,23535:0:0:0:0:
402,192,22751,1,0,0:0:0:0:
182,192,22751,1,0,0:0:0:0:
109,192,22947,1,0,0:0:0:0:
182,192,23045,1,0,0:0:0:0:
36,192,23143,1,8,0:0:0:0:
402,192,23143,1,0,0:0:0:0:
256,192,23143,1,0,0:0:0:0:
109,192,23339,1,0,0:0:0:0:
329,192,23339,1,0,0:0:0:0:
182,192,23535,1,2,0:0:0:0:
36,192,23535,1,0,0:0:0:0:
256,192,23633,1,0,0:0:0:0:
402,192,23731,1,0,0:0:0:0:
109,192,23731,1,0,0:0:0:0:
329,192,23829,1,0,0:0:0:0:
256,192,23927,1,8,0:0:0:0:
36,192,23927,1,0,0:0:0:0:
475,192,23927,1,0,0:0:0:0:
109,192,24124,1,0,0:0:0:0:
402,192,24124,1,0,0:0:0:0:
256,192,24320,1,2,0:0:0:0:
475,192,24320,1,0,0:0:0:0:
329,192,24418,1,0,0:0:0:0:
402,192,24516,1,0,0:0:0:0:
109,192,24516,1,0,0:0:0:0:
182,192,24614,1,0,0:0:0:0:
329,192,24712,1,8,0:0:0:0:
36,192,24712,1,0,0:0:0:0:
475,192,24712,1,0,0:0:0:0:
402,192,24908,1,0,0:0:0:0:
109,192,24908,1,0,0:0:0:0:
36,192,25104,1,2,0:0:0:0:
329,192,25104,128,0,25496:0:0:0:0:
182,192,25300,128,0,25692:0:0:0:0:
36,192,25496,128,8,25888:0:0:0:0:
402,192,25496,1,0,0:0:0:0:
475,192,25496,1,0,0:0:0:0:
475,192,25692,128,0,26084:0:0:0:0:
182,192,25888,128,2,26280:0:0:0:0:
256,192,25888,1,0,0:0:0:0:
329,192,26084,128,0,26476:0:0:0:0:
475,192,26280,128,8,26673:0:0:0:0:
109,192,26280,1,0,0:0:0:0:
256,192,26476,1,0,0:0:0:0:
402,192,26673,1,2,0:0:0:0:
109,192,26673,1,4,0:0:0:0:
36,192,26673,128,0,27457:0:0:0:0:
182,192,26673,1,0,0:0:0:0:
329,192,26869,1,0,0:0:0:0:
402,192,26967,1,0,0:0:0:0:
256,192,27065,1,8,0:0:0:0:
475,192,27065,1,0,0:0:0:0:
109,192,27065,1,0,0:0:0:0:
329,192,27261,1,0,0:0:0:0:
182,192,27457,1,2,0:0:0:0:
475,192,27457,1,0,0:0:0:0:
109,192,27653,1,0,0:0:0:0:
329,192,27653,1,0,0:0:0:0:
182,192,27751,1,0,0:0:0:0:
402,192,27751,1,0,0:0:0:0:
256,192,27849,1,8,0:0:0:0:
475,192,27849,1,0,0:0:0:0:
475,192,28045,128,0,28633:0:0:0:0:
329,192,28045,1,0,0:0:0:0:
182,192,28241,1,2,0:0:0:0:
36,192,28241,1,0,0:0:0:0:
36,192,28437,1,0,0:0:0:0:
109,192,28535,1,0,0:0:0:0:
402,192,28633,1,8,0:0:0:0:
182,192,28633,1,0,0:0:0:0:
329,192,28633,1,0,0:0:0:0:
256,192,28829,1,0,0:0:0:0:
329,192,28927,1,0,0:0:0:0:
36,192,29025,1,2,0:0:0:0:
402,192,29025,1,0,0:0:0:0:
109,192,29124,1,0,0:0:0:0:
182,192,29222,1,0,0:0:0:0:
475,192,29222,1,0,0:0:0:0:
109,192,29320,1,0,0:0:0:0:
402,192,29320,1,0,0:0:0:0:
36,192,29418,1,8,0:0:0:0:
329,192,29418,1,0,0:0:0:0:
36,192,29614,128,0,30202:0:0:0:0:
182,192,29614,1,0,0:0:0:0:
475,192,29810,1,2,0:0:0:0:
329,192,29810,1,0,0:0:0:0:
109,192,30006,1,0,0:0:0:0:
182,192,30104,1,0,0:0:0:0:
329,192,30202,1,8,0:0:0:0:
475,192,30202,1,0,0:0:0:0:
256,192,30202,1,0,0:0:0:0:
182,192,30398,1,0,0:0:0:0:
402,192,30398,1,0,0:0:0:0:
36,192,30594,1,2,0:0:0:0:
256,192,30594,1,0,0:0:0:0:
109,192,30692,1,0,0:0:0:0:
182,192,30790,1,0,0:0:0:0:
329,192,30790,1,0,0:0:0:0:
402,192,30888,1,0,0:0:0:0:
36,192,30986,1,8,0:0:0:0:
109,192,30986,1,0,0:0:0:0:
475,192,30986,1,0,0:0:0:0:
182,192,31182,1,0,0:0:0:0:
329,192,31182,1,0,0:0:0:0:
329,192,31378,128,2,32163:0:0:0:0:
36,192,31378,1,0,0:0:0:0:
475,192,31378,1,0,0:0:0:0:
402,192,31575,1,0,0:0:0:0:
182,192,31771,128,8,32163:0:0:0:0:
36,192,31771,1,0,0:0:0:0:
475,192,31771,1,0,0:0:0:0:
256,192,31967,1,0,0:0:0:0:
36,192,32163,128,2,32947:0:0:0:0:
475,192,32163,1,0,0:0:0:0:
402,192,32359,1,0,0:0:0:0:
182,192,32555,128,8,32947:0:0:0:0:
329,192,32555,1,0,0:0:0:0:
256,192,32555,1,0,0:0:0:0:
402,192,32751,1,0,0:0:0:0:
475,192,32947,1,2,0:0:0:0:
256,192,32947,1,4,0:0:0:0:
109,192,32947,1,0,0:0:0:0:
402,192,33143,1,0,0:0:0:0:
182,192,33143,1,0,0:0:0:0:
329,192,33241,1,0,0:0:0:0:
256,192,33339,1,8,0:0:0:0:
36,192,33339,128,0,33731:0:0:0:0:
475,192,33339,1,0,0:0:0:0:
402,192,33535,1,0,0:0:0:0:
329,192,33731,128,2,34124:0:0:0:0:
109,192,33731,1,0,0:0:0:0:
182,192,33927,1,0,0:0:0:0:
36,192,34124,128,8,34516:0:0:0:0:
256,192,34124,1,0,0:0:0:0:
475,192,34124,1,0,0:0:0:0:
182,192,34320,1,0,0:0:0:0:
402,192,34516,128,2,36084:0:0:0:0:
329,192,34516,1,0,0:0:0:0:
256,192,34712,1,0,0:0:0:0:
182,192,34908,1,8,0:0:0:0:
475,192,34908,1,0,0:0:0:0:
36,192,34908,1,0,0:0:0:0:
256,192,35104,1,0,0:0:0:0:
109,192,35300,128,2,36084:0:0:0:0:
329,192,35300,1,0,0:0:0:0:
182,192,35496,1,0,0:0:0:0:
475,192,35692,1,8,0:0:0:0:
36,192,35692,1,0,0:0:0:0:
329,192,35692,1,0,0:0:0:0:
256,192,35888,1,0,0:0:0:0:
182,192,36084,1,2,0:0:0:0:
329,192,36084,1,0,0:0:0:0:
109,192,36280,1,0,0:0:0:0:
402,192,36280,1,0,0:0:0:0:
182,192,36378,1,0,0:0:0:0:
256,192,36476,1,8,0:0:0:0:
475,192,36476,128,0,36869:0:0:0:0:
36,192,36476,1,0,0:0:0:0:
182,192,36673,1,0,0:0:0:0:
329,192,36869,128,2,37261:0:0:0:0:
36,192,36869,1,0,0:0:0:0:
109,192,37065,1,0,0:0:0:0:
475,192,37261,128,8,37653:0:0:0:0:
402,192,37261,1,0,0:0:0:0:
182,192,37261,1,0,0:0:0:0:
109,192,37457,1,0,0:0:0:0:
329,192,37457,1,0,0:0:0:0:
36,192,37653,128,2,38241:0:0:0:0:
256,192,37653,1,0,0:0:0:0:
182,192,37849,128,0,38437:0:0:0:0:
329,192,38045,128,8,38633:0:0:0:0:
475,192,38241,128,0,38829:0:0:0:0:
36,192,38437,128,2,39222:0:0:0:0:
182,192,38633,128,0,39222:0:0:0:0:
329,192,38829,128,8,39222:0:0:0:0:
475,192,39025,128,0,39222:0:0:0:0:
402,192,39222,1,2,0:0:0:0:
256,192,39222,1,4,0:0:0:0:
109,192,39222,1,0,0:0:0:0:
182,192,39320,1,0,0:0:0:0:
329,192,39418,1,0,0:0:0:0:
475,192,39418,1,0,0:0:0:0:
256,192,39516,1,0,0:0:0:0:
36,192,39614,1,8,0:0:0:0:
182,192,39614,1,0,0:0:0:0:
475,192,39614,1,0,0:0:0:0:
402,192,39712,1,0,0:0:0:0:
329,192,39810,1,0,0:0:0:0:
109,192,39810,1,0,0:0:0:0:
182,192,39908,1,0,0:0:0:0:
36,192,40006,1,2,0:0:0:0:
475,192,40006,1,0,0:0:0:0:
256,192,40006,1,0,0:0:0:0:
109,192,40104,1,0,0:0:0:0:
182,192,40202,1,0,0:0:0:0:
402,192,40202,1,0,0:0:0:0:
329,192,40300,1,0,0:0:0:0:
475,192,40398,1,8,0:0:0:0:
36,192,40398,1,0,0:0:0:0:
256,192,40398,1,0,0:0:0:0:
402,192,40496,1,0,0:0:0:0:
329,192,40594,1,0,0:0:0:0:
109,192,40594,1,0,0:0:0:0:
256,192,40692,1,0,0:0:0:0:
182,192,40790,1,2,0:0:0:0:
475,192,40790,1,0,0:0:0:0:
36,192,40790,1,0,0:0:0:0:
402,192,40888,1,0,0:0:0:0:
329,192,40986,1,0,0:0:0:0:
109,192,40986,1,0,0:0:0:0:
402,192,41084,1,0,0:0:0:0:
36,192,41182,1,8,0:0:0:0:
475,192,41182,1,0,0:0:0:0:
256,192,41182,1,0,0:0:0:0:
109,192,41280,1,0,0:0:0:0:
182,192,41378,1,0,0:0:0:0:
402,192,41378,1,0,0:0:0:0:
256,192,41476,1,0,0:0:0:0:
329,192,41575,1,2,0:0:0:0:
36,192,41575,1,0,0:0:0:0:
475,192,41575,1,0,0:0:0:0:
109,192,41673,1,0,0:0:0:0:
182,192,41771,1,0,0:0:0:0:
402,192,41771,1,0,0:0:0:0:
109,192,41869,1,0,0:0:0:0:
475,192,41967,1,8,0:0:0:0:
36,192,41967,1,0,0:0:0:0:
256,192,41967,1,0,0:0:0:0:
402,192,42065,1,0,0:0:0:0:
329,192,42163,1,0,0:0:0:0:
109,192,42163,1,0,0:0:0:0:
256,192,42261,1,0,0:0:0:0:
182,192,42359,1,2,0:0:0:0:
475,192,42359,1,0,0:0:0:0:
329,192,42359,1,0,0:0:0:0:
36,192,42457,1,0,0:0:0:0:
109,192,42555,1,0,0:0:0:0:
402,192,42555,1,0,0:0:0:0:
182,192,42653,1,0,0:0:0:0:
475,192,42751,1,8,0:0:0:0:
256,192,42751,1,0,0:0:0:0:
329,192,42751,1,0,0:0:0:0:
36,192,42849,1,0,0:0:0:0:
109,192,42947,1,0,0:0:0:0:
402,192,42947,1,0,0:0:0:0:
182,192,43045,1,0,0:0:0:0:
256,192,43143,1,2,0:0:0:0:
475,192,43143,1,0,0:0:0:0:
36,192,43143,1,0,0:0:0:0:
402,192,43241,1,0,0:0:0:0:
329,192,43339,1,0,0:0:0:0:
182,192,43339,1,0,0:0:0:0:
402,192,43437,1,0,0:0:0:0:
36,192,43535,1,8,0:0:0:0:
475,192,43535,1,0,0:0:0:0:
256,192,43535,1,0,0:0:0:0:
109,192,43633,1,0,0:0:0:0:
182,192,43731,1,0,0:0:0:0:
329,192,43731,1,0,0:0:0:0:
109,192,43829,1,0,0:0:0:0:
36,192,43927,1,2,0:0:0:0:
475,192,43927,1,0,0:0:0:0:
256,192,43927,1,0,0:0:0:0:
402,192,44025,1,0,0:0:0:0:
182,192,44124,1,0,0:0:0:0:
109,192,44124,1,0,0:0:0:0:
256,192,44222,1,0,0:0:0:0:
329,192,44320,1,8,0:0:0:0:
475,192,44320,1,0,0:0:0:0:
182,192,44320,1,0,0:0:0:0:
36,192,44418,1,0,0:0:0:0:
109,192,44516,1,0,0:0:0:0:
402,192,44516,1,0,0:0:0:0:
182,192,44614,1,0,0:0:0:0:
256,192,44712,1,2,0:0:0:0:
475,192,44712,1,0,0:0:0:0:
36,192,44712,1,0,0:0:0:0:
402,192,44810,1,0,0:0:0:0:
182,192,44810,1,0,0:0:0:0:
329,192,44908,1,0,0:0:0:0:
109,192,44908,1,0,0:0:0:0:
402,192,45006,1,0,0:0:0:0:
182,192,45006,1,0,0:0:0:0:
475,192,45104,1,8,0:0:0:0:
256,192,45104,1,0,0:0:0:0:
36,192,45104,1,0,0:0:0:0:
109,192,45202,1,0,0:0:0:0:
329,192,45202,1,0,0:0:0:0:
182,192,45300,1,0,0:0:0:0:
402,192,45300,1,0,0:0:0:0:
109,192,45398,1,0,0:0:0:0:
329,192,45398,1,0,0:0:0:0:
36,192,45496,1,4,0:0:0:0:
475,192,45496,1,2,0:0:0:0:
256,192,45496,128,0,45790:0:0:0:0:
182,192,45594,128,0,45888:0:0:0:0:
109,192,45692,128,0,45986:0:0:0:0:
36,192,45790,128,0,46084:0:0:0:0:
475,192,45888,1,8,0:0:0:0:
329,192,45888,1,0,0:0:0:0:
256,192,45986,1,0,0:0:0:0:
182,192,46084,1,0,0:0:0:0:
109,192,46182,1,0,0:0:0:0:
36,192,46280,1,2,0:0:0:0:
256,192,46280,128,0,46575:0:0:0:0:
329,192,46378,128,0,46673:0:0:0:0:
402,192,46476,128,0,46771:0:0:0:0:
475,192,46575,128,0,46869:0:0:0:0:
182,192,46673,1,8,0:0:0:0:
36,192,46673,1,0,0:0:0:0:
256,192,46771,1,0,0:0:0:0:
329,192,46869,1,0,0:0:0:0:
402,192,46967,1,0,0:0:0:0:
475,192,47065,1,2,0:0:0:0:
256,192,47065,128,0,47359:0:0:0:0:
182,192,47163,128,0,47457:0:0:0:0:
109,192,47261,128,0,47555:0:0:0:0:
36,192,47359,128,0,47653:0:0:0:0:
329,192,47457,1,8,0:0:0:0:
475,192,47457,1,0,0:0:0:0:
256,192,47555,1,0,0:0:0:0:
182,192,47653,1,0,0:0:0:0:
109,192,47751,1,0,0:0:0:0:
36,192,47849,1,2,0:0:0:0:
256,192,47849,128,0,48143:0:0:0:0:
329,192,47947,128,0,48241:0:0:0:0:
402,192,48045,128,0,48339:0:0:0:0:
475,192,48143,128,0,48437:0:0:0:0:
182,192,48241,1,8,0:0:0:0:
36,192,48241,1,0,0:0:0:0:
256,192,48339,1,0,0:0:0:0:
329,192,48437,1,0,0:0:0:0:
402,192,48535,1,0,0:0:0:0:
475,192,48633,128,2,50202:0:0:0:0:
329,192,48633,1,0,0:0:0:0:
109,192,48633,1,0,0:0:0:0:
256,192,48731,1,0,0:0:0:0:
182,192,48829,1,0,0:0:0:0:
36,192,48829,1,0,0:0:0:0:
329,192,48927,1,0,0:0:0:0:
256,192,49025,1,8,0:0:0:0:
109,192,49025,1,0,0:0:0:0:
402,192,49025,1,0,0:0:0:0:
36,192,49124,1,0,0:0:0:0:
329,192,49222,1,0,0:0:0:0:
182,192,49222,1,0,0:0:0:0:
109,192,49320,1,0,0:0:0:0:
402,192,49418,1,2,0:0:0:0:
256,192,49418,1,0,0:0:0:0:
36,192,49418,1,0,0:0:0:0:
182,192,49516,1,0,0:0:0:0:
329,192,49614,1,0,0:0:0:0:
256,192,49712,1,0,0:0:0:0:
36,192,49810,1,8,0:0:0:0:
182,192,49810,1,0,0:0:0:0:
402,192,49810,1,0,0:0:0:0:
329,192,49908,1,0,0:0:0:0:
109,192,50006,1,0,0:0:0:0:
256,192,50006,1,0,0:0:0:0:
329,192,50104,1,0,0:0:0:0:
402,192,50202,1,2,0:0:0:0:
36,192,50202,128,0,50398:0:0:0:0:
182,192,50300,128,0,50496:0:0:0:0:
329,192,50398,128,0,50594:0:0:0:0:
475,192,50496,128,0,50692:0:0:0:0:
36,192,50594,128,8,50790:0:0:0:0:
256,192,50594,1,0,0:0:0:0:
182,192,50692,128,0,50888:0:0:0:0:
329,192,50790,128,0,50986:0:0:0:0:
475,192,50888,128,0,51084:0:0:0:0:
36,192,50986,128,2,51182:0:0:0:0:
256,192,50986,1,0,0:0:0:0:
182,192,51084,128,0,51280:0:0:0:0:
329,192,51182,128,0,51378:0:0:0:0:
475,192,51280,128,0,51476:0:0:0:0:
36,192,51378,128,8,51771:0:0:0:0:
109,192,51378,1,0,0:0:0:0:
256,192,51378,128,0,51575:0:0:0:0:
329,192,51476,128,0,51673:0:0:0:0:
402,192,51575,128,0,51771:0:0:0:0:
475,192,51673,128,0,51771:0:0:0:0:
109,192,51771,128,2,52359:0:0:0:0:
182,192,51771,1,4,0:0:0:0:
256,192,51771,1,0,0:0:0:0:
402,192,52359,1,0,0:0:0:0:
256,192,52359,1,0,0:0:0:0:
182,192,52555,1,8,0:0:0:0:
36,192,52555,1,0,0:0:0:0:
329,192,52751,1,0,0:0:0:0:
109,192,52751,1,0,0:0:0:0:
402,192,52849,1,0,0:0:0:0:
475,192,52947,1,0,0:0:0:0:
182,192,52947,1,0,0:0:0:0:
109,192,53143,1,0,0:0:0:0:
402,192,53143,1,0,0:0:0:0:
329,192,53339,128,0,54124:0:0:0:0:
182,192,53339,1,0,0:0:0:0:
36,192,53731,1,2,0:0:0:0:
182,192,54124,1,8,0:0:0:0:
36,192,54124,1,0,0:0:0:0:
256,192,54320,1,0,0:0:0:0:
109,192,54320,1,0,0:0:0:0:
182,192,54516,1,0,0:0:0:0:
329,192,54516,1,0,0:0:0:0:
256,192,54712,1,0,0:0:0:0:
402,192,54712,1,0,0:0:0:0:
475,192,54908,128,2,55496:0:0:0:0:
329,192,54908,1,0,0:0:0:0:
182,192,55496,1,0,0:0:0:0:
36,192,55496,1,0,0:0:0:0:
475,192,55692,1,8,0:0:0:0:
329,192,55692,1,0,0:0:0:0:
182,192,55888,1,0,0:0:0:0:
36,192,55888,1,0,0:0:0:0:
256,192,55986,1,0,0:0:0:0:
475,192,56084,1,0,0:0:0:0:
329,192,56084,1,0,0:0:0:0:
256,192,56280,1,0,0:0:0:0:
402,192,56280,1,0,0:0:0:0:
329,192,56476,1,0,0:0:0:0:
182,192,56476,128,0,57065:0:0:0:0:
475,192,56869,1,2,0:0:0:0:
36,192,57065,1,0,0:0:0:0:
475,192,57261,1,8,0:0:0:0:
182,192,57261,1,0,0:0:0:0:
329,192,57653,1,0,0:0:0:0:
109,192,57653,1,0,0:0:0:0:
182,192,57849,1,0,0:0:0:0:
402,192,57849,1,0,0:0:0:0:
475,192,58045,128,2,58633:0:0:0:0:
256,192,58045,1,4,0:0:0:0:
36,192,58045,1,0,0:0:0:0:
402,192,58633,1,0,0:0:0:0:
182,192,58633,1,0,0:0:0:0:
109,192,58731,1,0,0:0:0:0:
256,192,58829,1,8,0:0:0:0:
36,192,58829,1,0,0:0:0:0:
475,192,59025,1,0,0:0:0:0:
329,192,59025,1,0,0:0:0:0:
402,192,59222,1,0,0:0:0:0:
256,192,59222,1,0,0:0:0:0:
329,192,59418,1,0,0:0:0:0:
182,192,59418,1,0,0:0:0:0:
36,192,59614,1,2,0:0:0:0:
475,192,59614,1,0,0:0:0:0:
182,192,59810,1,0,0:0:0:0:
329,192,59810,1,0,0:0:0:0:
402,192,59908,1,0,0:0:0:0:
475,192,60006,1,0,0:0:0:0:
109,192,60006,1,0,0:0:0:0:
402,192,60202,1,2,0:0:0:0:
182,192,60202,1,0,0:0:0:0:
329,192,60398,1,8,0:0:0:0:
36,192,60398,1,0,0:0:0:0:
182,192,60790,128,0,61182:0:0:0:0:
329,192,60986,128,0,61378:0:0:0:0:
475,192,61182,128,2,61378:0:0:0:0:
36,192,61182,1,0,0:0:0:0:
36,192,61574,1,2,0:0:0:0:
182,192,61574,128,0,61967:0:0:0:0:
329,192,61771,128,0,62163:0:0:0:0:
475,192,61967,128,8,62359:0:0:0:0:
36,192,61967,1,0,0:0:0:0:
256,192,62163,1,0,0:0:0:0:
109,192,62163,1,0,0:0:0:0:
182,192,62359,1,2,0:0:0:0:
329,192,62359,1,0,0:0:0:0:
402,192,62555,1,0,0:0:0:0:
256,192,62555,1,0,0:0:0:0:
329,192,62751,128,2,63535:0:0:0:0:
475,192,62751,1,0,0:0:0:0:
475,192,63143,1,2,0:0:0:0:
475,192,63535,1,8,0:0:0:0:
36,192,63535,1,0,0:0:0:0:
402,192,63731,1,0,0:0:0:0:
109,192,63731,1,0,0:0:0:0:
329,192,63829,1,0,0:0:0:0:
182,192,63829,1,0,0:0:0:0:
256,192,63927,128,2,64320:0:0:0:0:
36,192,64320,128,4,64908:0:0:0:0:
475,192,64320,1,2,0:0:0:0:
329,192,64320,1,0,0:0:0:0:
182,192,64516,1,0,0:0:0:0:
329,192,64712,1,2,0:0:0:0:
256,192,64908,1,0,0:0:0:0:
36,192,65104,1,8,0:0:0:0:
475,192,65104,1,0,0:0:0:0:
182,192,65104,1,0,0:0:0:0:
402,192,65300,1,0,0:0:0:0:
109,192,65300,1,0,0:0:0:0:
329,192,65398,1,0,0:0:0:0:
475,192,65496,1,2,0:0:0:0:
182,192,65496,1,0,0:0:0:0:
329,192,65692,1,0,0:0:0:0:
36,192,65692,1,0,0:0:0:0:
475,192,65888,128,2,66673:0:0:0:0:
182,192,65888,1,0,0:0:0:0:
329,192,66084,1,0,0:0:0:0:
109,192,66280,1,2,0:0:0:0:
329,192,66476,1,0,0:0:0:0:
182,192,66673,1,8,0:0:0:0:
36,192,66673,1,0,0:0:0:0:
256,192,66869,1,0,0:0:0:0:
475,192,66869,1,0,0:0:0:0:
329,192,67065,1,2,0:0:0:0:
36,192,67065,1,0,0:0:0:0:
109,192,67261,1,0,0:0:0:0:
402,192,67261,1,0,0:0:0:0:
182,192,67457,128,2,68045:0:0:0:0:
475,192,67457,1,0,0:0:0:0:
329,192,67653,1,0,0:0:0:0:
36,192,67849,1,2,0:0:0:0:
256,192,68045,1,0,0:0:0:0:
402,192,68045,1,0,0:0:0:0:
182,192,68241,1,8,0:0:0:0:
36,192,68241,1,0,0:0:0:0:
475,192,68241,1,0,0:0:0:0:
109,192,68437,1,0,0:0:0:0:
402,192,68437,1,0,0:0:0:0:
182,192,68535,1,0,0:0:0:0:
36,192,68633,1,2,0:0:0:0:
329,192,68633,1,0,0:0:0:0:
182,192,68829,1,0,0:0:0:0:
475,192,68829,1,0,0:0:0:0:
329,192,69025,128,2,69810:0:0:0:0:
36,192,69025,1,0,0:0:0:0:
182,192,69222,1,0,0:0:0:0:
36,192,69418,1,2,0:0:0:0:
182,192,69614,1,0,0:0:0:0:
36,192,69810,1,8,0:0:0:0:
475,192,69810,1,0,0:0:0:0:
329,192,70006,1,0,0:0:0:0:
182,192,70202,1,2,0:0:0:0:
36,192,70202,1,0,0:0:0:0:
109,192,70398,1,0,0:0:0:0:
256,192,70398,1,0,0:0:0:0:
182,192,70594,1,2,0:0:0:0:
329,192,70594,1,4,0:0:0:0:
475,192,70594,1,0,0:0:0:0:
109,192,70692,1,0,0:0:0:0:
36,192,70790,1,0,0:0:0:0:
402,192,70888,1,0,0:0:0:0:
329,192,70986,1,0,0:0:0:0:
256,192,71084,1,0,0:0:0:0:
329,192,71182,1,0,0:0:0:0:
36,192,71182,1,0,0:0:0:0:
402,192,71280,1,0,0:0:0:0:
109,192,71280,1,0,0:0:0:0:
475,192,71378,1,8,0:0:0:0:
182,192,71378,1,0,0:0:0:0:
256,192,71476,1,0,0:0:0:0:
182,192,71574,1,0,0:0:0:0:
402,192,71574,1,0,0:0:0:0:
109,192,71673,1,0,0:0:0:0:
36,192,71771,1,0,0:0:0:0:
329,192,71771,1,0,0:0:0:0:
475,192,71869,1,0,0:0:0:0:
182,192,71967,1,0,0:0:0:0:
329,192,71967,1,0,0:0:0:0:
402,192,72065,1,0,0:0:0:0:
256,192,72163,1,8,0:0:0:0:
36,192,72163,1,0,0:0:0:0:
109,192,72163,1,0,0:0:0:0:
329,192,72261,1,0,0:0:0:0:
475,192,72359,1,0,0:0:0:0:
182,192,72359,1,0,0:0:0:0:
402,192,72457,1,0,0:0:0:0:
109,192,72457,1,0,0:0:0:0:
329,192,72555,1,0,0:0:0:0:
36,192,72555,1,0,0:0:0:0:
109,192,72653,1,0,0:0:0:0:
182,192,72751,1,0,0:0:0:0:
402,192,72751,1,0,0:0:0:0:
329,192,72849,1,0,0:0:0:0:
36,192,72947,1,8,0:0:0:0:
256,192,72947,1,0,0:0:0:0:
475,192,72947,1,0,0:0:0:0:
109,192,73045,1,0,0:0:0:0:
182,192,73143,1,0,0:0:0:0:
256,192,73241,1,0,0:0:0:0:
475,192,73339,1,2,0:0:0:0:
329,192,73339,1,0,0:0:0:0:
182,192,73437,1,0,0:0:0:0:
402,192,73535,1,0,0:0:0:0:
256,192,73535,1,0,0:0:0:0:
109,192,73633,1,0,0:0:0:0:
329,192,73731,1,8,0:0:0:0:
182,192,73731,1,0,0:0:0:0:
475,192,73731,128,0,74124:0:0:0:0:
36,192,74124,1,2,0:0:0:0:
256,192,74124,1,0,0:0:0:0:
109,192,74222,1,0,0:0:0:0:
182,192,74320,1,0,0:0:0:0:
402,192,74320,1,0,0:0:0:0:
329,192,74418,1,0,0:0:0:0:
475,192,74516,128,8,74908:0:0:0:0:
36,192,74516,1,0,0:0:0:0:
256,192,74516,1,0,0:0:0:0:
182,192,74712,128,0,74908:0:0:0:0:
329,192,74908,128,2,75104:0:0:0:0:
109,192,74908,1,0,0:0:0:0:
475,192,75104,128,0,75300:0:0:0:0:
36,192,75300,1,8,0:0:0:0:
329,192,75300,1,0,0:0:0:0:
109,192,75300,1,0,0:0:0:0:
182,192,75496,1,0,0:0:0:0:
475,192,75692,1,8,0:0:0:0:
402,192,75692,1,0,0:0:0:0:
256,192,75692,1,0,0:0:0:0:
329,192,75888,1,0,0:0:0:0:
36,192,76084,1,8,0:0:0:0:
109,192,76084,1,0,0:0:0:0:
256,192,76084,1,0,0:0:0:0:
475,192,76280,1,2,0:0:0:0:
329,192,76280,1,0,0:0:0:0:
329,192,76476,1,8,0:0:0:0:
475,192,76476,1,0,0:0:0:0:
36,192,76476,128,0,76574:0:0:0:0:
109,192,76574,128,0,76673:0:0:0:0:
182,192,76673,128,2,76771:0:0:0:0:
256,192,76771,128,0,76869:0:0:0:0:
329,192,76869,128,4,77653:0:0:0:0:
475,192,76869,1,2,0:0:0:0:
36,192,76869,1,0,0:0:0:0:
109,192,76967,1,0,0:0:0:0:
182,192,77065,1,0,0:0:0:0:
402,192,77065,1,0,0:0:0:0:
109,192,77163,1,0,0:0:0:0:
36,192,77261,128,8,77653:0:0:0:0:
256,192,77261,1,0,0:0:0:0:
475,192,77261,1,0,0:0:0:0:
182,192,77653,128,2,78045:0:0:0:0:
402,192,77849,128,0,78045:0:0:0:0:
109,192,78045,128,8,78437:0:0:0:0:
475,192,78045,1,0,0:0:0:0:
36,192,78045,1,0,0:0:0:0:
329,192,78241,128,0,78437:0:0:0:0:
475,192,78437,128,2,78829:0:0:0:0:
182,192,78437,1,0,0:0:0:0:
329,192,78633,1,0,0:0:0:0:
256,192,78731,1,0,0:0:0:0:
182,192,78829,1,8,0:0:0:0:
36,192,78829,1,0,0:0:0:0:
475,192,79025,1,0,0:0:0:0:
256,192,79025,1,0,0:0:0:0:
475,192,79222,128,2,79810:0:0:0:0:
329,192,79222,1,0,0:0:0:0:
182,192,79320,1,0,0:0:0:0:
36,192,79418,1,0,0:0:0:0:
256,192,79614,1,8,0:0:0:0:
402,192,79614,1,0,0:0:0:0:
109,192,79614,1,0,0:0:0:0:
182,192,79810,128,0,79908:0:0:0:0:
109,192,79908,128,0,80006:0:0:0:0:
36,192,80006,128,2,80790:0:0:0:0:
475,192,80006,1,0,0:0:0:0:
329,192,80006,1,0,0:0:0:0:
256,192,80104,1,0,0:0:0:0:
182,192,80202,1,0,0:0:0:0:
402,192,80202,1,0,0:0:0:0:
256,192,80300,1,0,0:0:0:0:
329,192,80398,128,8,80790:0:0:0:0:
475,192,80398,1,0,0:0:0:0:
109,192,80398,1,0,0:0:0:0:
182,192,80790,128,2,81182:0:0:0:0:
475,192,80790,1,0,0:0:0:0:
402,192,80986,128,0,81182:0:0:0:0:
256,192,81182,128,8,81574:0:0:0:0:
36,192,81182,1,0,0:0:0:0:
109,192,81182,1,0,0:0:0:0:
475,192,81378,128,0,81574:0:0:0:0:
109,192,81574,128,2,82163:0:0:0:0:
329,192,81574,1,0,0:0:0:0:
182,192,81771,1,0,0:0:0:0:
256,192,81869,1,0,0:0:0:0:
329,192,81967,1,8,0:0:0:0:
475,192,81967,1,0,0:0:0:0:
36,192,81967,1,0,0:0:0:0:
402,192,82163,1,0,0:0:0:0:
256,192,82163,1,0,0:0:0:0:
182,192,82359,1,2,0:0:0:0:
36,192,82359,1,0,0:0:0:0:
475,192,82457,1,0,0:0:0:0:
256,192,82555,1,0,0:0:0:0:
329,192,82620,1,0,0:0:0:0:
402,192,82686,1,0,0:0:0:0:
182,192,82751,128,8,83143:0:0:0:0:
36,192,82751,1,0,0:0:0:0:
475,192,82751,1,0,0:0:0:0:
475,192,83143,1,4,0:0:0:0:
256,192,83143,1,2,0:0:0:0:
36,192,83143,128,0,83927:0:0:0:0:
402,192,83241,1,0,0:0:0:0:
329,192,83339,1,0,0:0:0:0:
109,192,83339,1,0,0:0:0:0:
402,192,83437,1,0,0:0:0:0:
475,192,83535,1,8,0:0:0:0:
182,192,83535,128,0,83927:0:0:0:0:
256,192,83535,1,0,0:0:0:0:
256,192,83927,128,2,84320:0:0:0:0:
329,192,83927,1,0,0:0:0:0:
402,192,84124,128,0,84320:0:0:0:0:
109,192,84320,128,8,84712:0:0:0:0:
36,192,84320,1,0,0:0:0:0:
475,192,84320,1,0,0:0:0:0:
256,192,84516,128,0,84712:0:0:0:0:
36,192,84712,128,2,85104:0:0:0:0:
475,192,84712,1,0,0:0:0:0:
256,192,84908,1,0,0:0:0:0:
329,192,85006,1,0,0:0:0:0:
402,192,85104,1,8,0:0:0:0:
182,192,85104,1,0,0:0:0:0:
475,192,85104,1,0,0:0:0:0:
36,192,85300,1,0,0:0:0:0:
36,192,85496,128,2,85888:0:0:0:0:
182,192,85496,1,0,0:0:0:0:
329,192,85594,1,0,0:0:0:0:
475,192,85692,1,0,0:0:0:0:
109,192,85888,1,8,0:0:0:0:
402,192,85888,1,0,0:0:0:0:
182,192,85888,1,0,0:0:0:0:
329,192,85986,1,0,0:0:0:0:
256,192,86084,1,0,0:0:0:0:
182,192,86182,1,0,0:0:0:0:
475,192,86280,1,2,0:0:0:0:
109,192,86280,1,0,0:0:0:0:
402,192,86476,1,0,0:0:0:0:
256,192,86476,1,0,0:0:0:0:
182,192,86673,1,8,0:0:0:0:
36,192,86673,1,0,0:0:0:0:
329,192,86869,1,0,0:0:0:0:
475,192,86869,1,0,0:0:0:0:
256,192,87065,1,2,0:0:0:0:
36,192,87065,1,0,0:0:0:0:
182,192,87261,1,0,0:0:0:0:
329,192,87261,1,0,0:0:0:0:
402,192,87359,1,0,0:0:0:0:
109,192,87359,1,0,0:0:0:0:
36,192,87457,1,8,0:0:0:0:
475,192,87457,1,0,0:0:0:0:
182,192,87522,1,0,0:0:0:0:
329,192,87588,1,0,0:0:0:0:
475,192,87653,1,0,0:0:0:0:
109,192,87653,1,0,0:0:0:0:
36,192,87849,128,2,88633:0:0:0:0:
256,192,87849,128,0,88241:0:0:0:0:
402,192,88045,1,0,0:0:0:0:
475,192,88241,1,8,0:0:0:0:
329,192,88241,1,0,0:0:0:0:
109,192,88241,128,0,88633:0:0:0:0:
256,192,88437,1,0,0:0:0:0:
182,192,88633,128,2,89418:0:0:0:0:
402,192,88633,128,0,89025:0:0:0:0:
329,192,88633,1,0,0:0:0:0:
109,192,88829,1,0,0:0:0:0:
256,192,89025,128,8,89418:0:0:0:0:
36,192,89025,1,0,0:0:0:0:
475,192,89025,1,0,0:0:0:0:
402,192,89222,1,0,0:0:0:0:
475,192,89418,1,4,0:0:0:0:
36,192,89418,128,2,90202:0:0:0:0:
109,192,89418,1,0,0:0:0:0:
402,192,89516,1,0,0:0:0:0:
182,192,89614,1,0,0:0:0:0:
329,192,89614,1,0,0:0:0:0:
402,192,89712,1,0,0:0:0:0:
182,192,89810,128,8,90202:0:0:0:0:
475,192,89810,1,0,0:0:0:0:
256,192,89810,1,0,0:0:0:0:
402,192,90202,128,2,90594:0:0:0:0:
329,192,90202,1,0,0:0:0:0:
256,192,90398,128,0,90594:0:0:0:0:
109,192,90594,128,8,90986:0:0:0:0:
36,192,90594,1,0,0:0:0:0:
475,192,90594,1,0,0:0:0:0:
256,192,90790,128,0,90986:0:0:0:0:
475,192,90986,128,2,91378:0:0:0:0:
329,192,90986,1,0,0:0:0:0:
182,192,91182,1,0,0:0:0:0:
256,192,91280,1,0,0:0:0:0:
109,192,91378,1,8,0:0:0:0:
329,192,91378,1,0,0:0:0:0:
36,192,91378,1,0,0:0:0:0:
475,192,91574,1,0,0:0:0:0:
182,192,91574,1,0,0:0:0:0:
475,192,91771,128,2,92359:0:0:0:0:
329,192,91771,1,0,0:0:0:0:
36,192,91869,1,0,0:0:0:0:
182,192,91967,1,0,0:0:0:0:
329,192,92163,1,8,0:0:0:0:
402,192,92163,1,0,0:0:0:0:
109,192,92163,1,0,0:0:0:0:
256,192,92359,128,0,92457:0:0:0:0:
182,192,92457,128,0,92555:0:0:0:0:
109,192,92555,128,2,93339:0:0:0:0:
475,192,92555,1,0,0:0:0:0:
402,192,92653,1,0,0:0:0:0:
182,192,92751,1,0,0:0:0:0:
329,192,92751,1,0,0:0:0:0:
402,192,92849,1,0,0:0:0:0:
475,192,92947,1,8,0:0:0:0:
36,192,92947,1,0,0:0:0:0:
256,192,92947,128,0,93339:0:0:0:0:
475,192,93339,128,2,93731:0:0:0:0:
329,192,93339,1,0,0:0:0:0:
329,192,93535,128,0,93731:0:0:0:0:
36,192,93731,1,8,0:0:0:0:
256,192,93731,1,0,0:0:0:0:
182,192,93731,128,0,94124:0:0:0:0:
36,192,93927,128,0,94124:0:0:0:0:
402,192,94124,128,2,94516:0:0:0:0:
256,192,94124,1,0,0:0:0:0:
475,192,94124,1,0,0:0:0:0:
182,192,94516,1,8,0:0:0:0:
36,192,94516,1,0,0:0:0:0:
475,192,94516,1,0,0:0:0:0:
329,192,94712,1,0,0:0:0:0:
109,192,94712,1,0,0:0:0:0:
36,192,94908,1,2,0:0:0:0:
475,192,94908,1,0,0:0:0:0:
109,192,95006,1,0,0:0:0:0:
329,192,95104,1,0,0:0:0:0:
256,192,95169,1,0,0:0:0:0:
182,192,95235,1,0,0:0:0:0:
402,192,95300,128,8,95692:0:0:0:0:
109,192,95300,1,0,0:0:0:0:
475,192,95300,1,0,0:0:0:0:
36,192,95692,128,4,96476:0:0:0:0:
475,192,95692,1,2,0:0:0:0:
109,192,95692,1,0,0:0:0:0:
182,192,95790,1,0,0:0:0:0:
256,192,95888,1,0,0:0:0:0:
329,192,95888,1,0,0:0:0:0:
182,192,95986,1,0,0:0:0:0:
402,192,96084,128,0,96476:0:0:0:0:
475,192,96084,1,0,0:0:0:0:
109,192,96084,1,0,0:0:0:0:
256,192,96476,128,2,96869:0:0:0:0:
329,192,96476,1,0,0:0:0:0:
109,192,96673,128,0,96869:0:0:0:0:
475,192,96869,128,8,97261:0:0:0:0:
402,192,96869,1,0,0:0:0:0:
36,192,96869,1,0,0:0:0:0:
329,192,97065,128,0,97261:0:0:0:0:
182,192,97261,128,2,97653:0:0:0:0:
36,192,97261,1,0,0:0:0:0:
329,192,97457,1,0,0:0:0:0:
402,192,97555,1,0,0:0:0:0:
475,192,97653,1,8,0:0:0:0:
256,192,97653,1,0,0:0:0:0:
36,192,97653,1,0,0:0:0:0:
182,192,97849,1,0,0:0:0:0:
329,192,97849,1,0,0:0:0:0:
182,192,98045,128,2,98437:0:0:0:0:
475,192,98045,1,0,0:0:0:0:
36,192,98045,1,0,0:0:0:0:
402,192,98143,1,0,0:0:0:0:
329,192,98241,1,0,0:0:0:0:
402,192,98339,1,0,0:0:0:0:
36,192,98437,1,8,0:0:0:0:
475,192,98437,1,0,0:0:0:0:
256,192,98437,1,0,0:0:0:0:
109,192,98535,1,0,0:0:0:0:
182,192,98633,1,0,0:0:0:0:
256,192,98731,1,0,0:0:0:0:
329,192,98829,1,2,0:0:0:0:
475,192,98829,1,0,0:0:0:0:
182,192,98927,1,0,0:0:0:0:
256,192,99025,1,8,0:0:0:0:
402,192,99025,1,0,0:0:0:0:
109,192,99124,1,0,0:0:0:0:
182,192,99222,1,2,0:0:0:0:
329,192,99222,1,0,0:0:0:0:
36,192,99320,1,0,0:0:0:0:
109,192,99418,1,8,0:0:0:0:
256,192,99418,1,0,0:0:0:0:
329,192,99516,1,0,0:0:0:0:
182,192,99614,1,2,0:0:0:0:
36,192,99614,1,0,0:0:0:0:
402,192,99712,1,0,0:0:0:0:
109,192,99810,1,8,0:0:0:0:
256,192,99810,1,0,0:0:0:0:
475,192,99908,1,0,0:0:0:0:
182,192,100006,1,8,0:0:0:0:
329,192,100006,1,0,0:0:0:0:
36,192,100104,1,0,0:0:0:0:
256,192,100202,1,2,0:0:0:0:
402,192,100202,1,0,0:0:0:0:
109,192,100300,1,0,0:0:0:0:
329,192,100398,1,4,0:0:0:0:
182,192,100398,1,2,0:0:0:0:
475,192,100398,128,0,100496:0:0:0:0:
402,192,100496,128,0,100594:0:0:0:0:
329,192,100594,128,0,100692:0:0:0:0:
256,192,100692,128,0,100790:0:0:0:0:
36,192,100790,128,8,100888:0:0:0:0:
475,192,100790,1,0,0:0:0:0:
109,192,100888,128,0,100986:0:0:0:0:
182,192,100986,128,0,101084:0:0:0:0:
256,192,101084,128,0,101182:0:0:0:0:
475,192,101182,128,2,101280:0:0:0:0:
36,192,101182,1,0,0:0:0:0:
329,192,101280,128,0,101378:0:0:0:0:
182,192,101378,128,0,101476:0:0:0:0:
36,192,101476,128,0,101574:0:0:0:0:
182,192,101574,128,8,101673:0:0:0:0:
256,192,101574,1,0,0:0:0:0:
329,192,101673,128,0,101771:0:0:0:0:
475,192,101771,128,0,101869:0:0:0:0:
109,192,101869,128,0,101967:0:0:0:0:
402,192,101967,128,2,102065:0:0:0:0:
36,192,101967,1,0,0:0:0:0:
182,192,102065,128,0,102163:0:0:0:0:
329,192,102163,128,0,102261:0:0:0:0:
36,192,102261,128,0,102359:0:0:0:0:
182,192,102359,128,8,102457:0:0:0:0:
475,192,102359,1,0,0:0:0:0:
256,192,102457,128,0,102555:0:0:0:0:
329,192,102555,128,0,102653:0:0:0:0:
402,192,102653,128,0,102751:0:0:0:0:
182,192,102751,128,2,102849:0:0:0:0:
475,192,102751,1,0,0:0:0:0:
109,192,102849,128,0,102947:0:0:0:0:
36,192,102947,128,0,103045:0:0:0:0:
329,192,103045,128,0,103143:0:0:0:0:
256,192,103143,128,8,103241:0:0:0:0:
402,192,103143,1,0,0:0:0:0:
182,192,103241,128,0,103339:0:0:0:0:
475,192,103339,128,0,103437:0:0:0:0:
402,192,103437,128,0,103535:0:0:0:0:
329,192,103535,128,2,103633:0:0:0:0:
36,192,103535,128,0,103633:0:0:0:0:
256,192,103535,1,0,0:0:0:0:
109,192,103633,128,0,103731:0:0:0:0:
182,192,103731,128,0,103829:0:0:0:0:
256,192,103829,128,0,103927:0:0:0:0:
475,192,103927,128,8,104025:0:0:0:0:
36,192,103927,1,0,0:0:0:0:
402,192,104025,128,0,104124:0:0:0:0:
329,192,104124,128,0,104222:0:0:0:0:
256,192,104222,128,0,104320:0:0:0:0:
109,192,104320,128,2,104418:0:0:0:0:
475,192,104320,1,0,0:0:0:0:
36,192,104320,128,0,104712:0:0:0:0:
402,192,104418,128,0,104516:0:0:0:0:
182,192,104516,128,0,104614:0:0:0:0:
109,192,104614,128,0,104712:0:0:0:0:
256,192,104712,128,0,104810:0:0:0:0:
475,192,104712,128,0,105104:0:0:0:0:
402,192,104712,1,8,0:0:0:0:
329,192,104810,128,0,104908:0:0:0:0:
182,192,104908,128,0,105006:0:0:0:0:
109,192,105006,128,0,105104:0:0:0:0:
36,192,105104,128,2,108241:0:0:0:0:
256,192,105104,128,4,105202:0:0:0:0:
402,192,105104,1,0,0:0:0:0:
329,192,105202,128,0,105300:0:0:0:0:
402,192,105300,128,0,105398:0:0:0:0:
475,192,105398,128,0,105496:0:0:0:0:
329,192,105496,128,8,105594:0:0:0:0:
109,192,105496,1,0,0:0:0:0:
256,192,105594,128,0,105692:0:0:0:0:
182,192,105692,128,0,105790:0:0:0:0:
109,192,105790,128,0,105888:0:0:0:0:
256,192,105888,128,2,105986:0:0:0:0:
475,192,105888,1,0,0:0:0:0:
329,192,105986,128,0,106084:0:0:0:0:
402,192,106084,128,0,106182:0:0:0:0:
475,192,106182,128,0,106280:0:0:0:0:
329,192,106280,128,8,106378:0:0:0:0:
109,192,106280,1,0,0:0:0:0:
256,192,106378,128,0,106476:0:0:0:0:
182,192,106476,128,0,106574:0:0:0:0:
109,192,106574,128,0,106673:0:0:0:0:
475,192,106673,128,2,106771:0:0:0:0:
329,192,106673,1,0,0:0:0:0:
402,192,106771,128,0,106869:0:0:0:0:
329,192,106869,128,0,106967:0:0:0:0:
256,192,106967,128,0,107065:0:0:0:0:
109,192,107065,128,8,107163:0:0:0:0:
475,192,107065,1,0,0:0:0:0:
182,192,107163,128,0,107261:0:0:0:0:
256,192,107261,128,0,107359:0:0:0:0:
329,192,107359,128,0,107457:0:0:0:0:
475,192,107457,128,2,107555:0:0:0:0:
109,192,107457,1,0,0:0:0:0:
402,192,107555,128,0,107653:0:0:0:0:
329,192,107653,128,0,107751:0:0:0:0:
256,192,107751,128,0,107849:0:0:0:0:
109,192,107849,128,8,107947:0:0:0:0:
475,192,107849,1,0,0:0:0:0:
182,192,107947,128,0,108045:0:0:0:0:
256,192,108045,128,0,108143:0:0:0:0:
329,192,108143,128,0,108241:0:0:0:0:
475,192,108241,128,2,108339:0:0:0:0:
109,192,108241,1,0,0:0:0:0:
402,192,108339,128,0,108437:0:0:0:0:
329,192,108437,128,0,108535:0:0:0:0:
182,192,108535,128,0,108633:0:0:0:0:
36,192,108633,128,8,108731:0:0:0:0:
475,192,108633,1,0,0:0:0:0:
109,192,108731,128,0,108829:0:0:0:0:
182,192,108829,128,0,108927:0:0:0:0:
329,192,108927,128,0,109025:0:0:0:0:
475,192,109025,128,2,109124:0:0:0:0:
36,192,109025,1,0,0:0:0:0:
402,192,109124,128,0,109222:0:0:0:0:
329,192,109222,128,0,109320:0:0:0:0:
182,192,109320,128,0,109418:0:0:0:0:
36,192,109418,128,8,109516:0:0:0:0:
475,192,109418,128,0,109810:0:0:0:0:
402,192,109418,1,0,0:0:0:0:
109,192,109516,128,0,109614:0:0:0:0:
182,192,109614,128,0,109712:0:0:0:0:
329,192,109712,128,0,109810:0:0:0:0:
402,192,109810,1,4,0:0:0:0:
109,192,109810,1,2,0:0:0:0:
36,192,109810,1,0,0:0:0:0:
182,192,109908,1,0,0:0:0:0:
256,192,110006,1,0,0:0:0:0:
329,192,110104,1,2,0:0:0:0:
475,192,110104,1,0,0:0:0:0:
182,192,110202,1,2,0:0:0:0:
36,192,110202,1,0,0:0:0:0:
402,192,110300,1,0,0:0:0:0:
475,192,110398,1,2,0:0:0:0:
329,192,110398,1,0,0:0:0:0:
36,192,110398,1,0,0:0:0:0:
182,192,110496,1,0,0:0:0:0:
256,192,110594,1,0,0:0:0:0:
402,192,110692,1,2,0:0:0:0:
109,192,110692,1,0,0:0:0:0:
329,192,110790,1,0,0:0:0:0:
475,192,110888,1,0,0:0:0:0:
36,192,110986,1,2,0:0:0:0:
402,192,110986,1,0,0:0:0:0:
182,192,110986,1,0,0:0:0:0:
256,192,111084,1,0,0:0:0:0:
329,192,111182,1,0,0:0:0:0:
182,192,111280,1,2,0:0:0:0:
36,192,111280,1,0,0:0:0:0:
329,192,111378,1,0,0:0:0:0:
475,192,111378,1,0,0:0:0:0:
256,192,111476,1,0,0:0:0:0:
402,192,111574,1,2,0:0:0:0:
182,192,111574,1,0,0:0:0:0:
36,192,111574,1,0,0:0:0:0:
256,192,111673,1,0,0:0:0:0:
475,192,111771,1,2,0:0:0:0:
329,192,111771,1,0,0:0:0:0:
182,192,111869,1,2,0:0:0:0:
36,192,111869,1,0,0:0:0:0:
256,192,111967,1,0,0:0:0:0:
329,192,112065,1,0,0:0:0:0:
475,192,112163,1,2,0:0:0:0:
402,192,112163,1,4,0:0:0:0:
109,192,112163,1,0,0:0:0:0:
36,192,112163,1,0,0:0:0:0:
329,192,112261,1,0,0:0:0:0:
256,192,112359,1,0,0:0:0:0:
182,192,112457,1,2,0:0:0:0:
36,192,112457,1,0,0:0:0:0:
329,192,112555,1,2,0:0:0:0:
475,192,112555,1,0,0:0:0:0:
256,192,112653,1,0,0:0:0:0:
182,192,112751,1,2,0:0:0:0:
36,192,112751,1,4,0:0:0:0:
402,192,112751,1,0,0:0:0:0:
475,192,112849,1,0,0:0:0:0:
329,192,112947,1,0,0:0:0:0:
182,192,113045,1,2,0:0:0:0:
36,192,113045,1,0,0:0:0:0:
475,192,113143,1,0,0:0:0:0:
256,192,113143,1,0,0:0:0:0:
329,192,113241,1,0,0:0:0:0:
402,192,113339,1,4,0:0:0:0:
475,192,113339,1,2,0:0:0:0:
109,192,113339,1,0,0:0:0:0:
36,192,113339,1,0,0:0:0:0:
256,192,113437,1,0,0:0:0:0:
182,192,113535,1,0,0:0:0:0:
329,192,113633,1,2,0:0:0:0:
475,192,113633,1,0,0:0:0:0:
256,192,113731,1,0,0:0:0:0:
402,192,113829,1,0,0:0:0:0:
36,192,113927,1,2,0:0:0:0:
109,192,113927,1,4,0:0:0:0:
329,192,113927,1,0,0:0:0:0:
475,192,114025,1,0,0:0:0:0:
402,192,114124,1,2,0:0:0:0:
182,192,114124,1,0,0:0:0:0:
256,192,114222,1,2,0:0:0:0:
36,192,114222,1,0,0:0:0:0:
329,192,114320,1,0,0:0:0:0:
182,192,114418,1,0,0:0:0:0:
36,192,114516,1,2,0:0:0:0:
256,192,114516,1,0,0:0:0:0:
402,192,114516,1,0,0:0:0:0:
109,192,114614,1,0,0:0:0:0:
182,192,114712,1,0,0:0:0:0:
329,192,114810,1,2,0:0:0:0:
475,192,114810,1,0,0:0:0:0:
36,192,114908,1,2,0:0:0:0:
182,192,114908,1,0,0:0:0:0:
256,192,115006,1,0,0:0:0:0:
475,192,115104,1,2,0:0:0:0:
329,192,115104,1,4,0:0:0:0:
36,192,115104,1,0,0:0:0:0:
109,192,115104,1,0,0:0:0:0:
182,192,115202,1,0,0:0:0:0:
256,192,115300,1,0,0:0:0:0:
36,192,115398,1,2,0:0:0:0:
475,192,115398,1,4,0:0:0:0:
329,192,115398,1,0,0:0:0:0:
256,192,115496,1,0,0:0:0:0:
182,192,115594,1,0,0:0:0:0:
109,192,115692,1,4,0:0:0:0:
36,192,115692,1,2,0:0:0:0:
475,192,115692,1,0,0:0:0:0:
402,192,115692,1,0,0:0:0:0:
329,192,115790,1,0,0:0:0:0:
256,192,115888,1,0,0:0:0:0:
182,192,115986,1,0,0:0:0:0:
109,192,116084,128,2,122359:0:0:0:0:
36,192,116084,128,4,122359:0:0:0:0:
475,192,116084,1,0,0:0:0:0:
402,192,116084,1,0,0:0:0:0:
182,192,116280,128,0,116476:0:0:0:0:
329,192,116476,128,0,116673:0:0:0:0:
475,192,116673,128,0,116869:0:0:0:0:
182,192,116869,128,0,117065:0:0:0:0:
329,192,117065,128,0,117261:0:0:0:0:
475,192,117261,128,0,117457:0:0:0:0:
182,192,117457,128,0,117653:0:0:0:0:
329,192,117653,128,0,117849:0:0:0:0:
475,192,117849,128,0,118045:0:0:0:0:
182,192,118045,128,0,118241:0:0:0:0:
329,192,118241,128,0,118437:0:0:0:0:
475,192,118437,128,0,118633:0:0:0:0:
182,192,118633,128,0,118829:0:0:0:0:
329,192,118829,128,0,119025:0:0:0:0:
475,192,119025,128,0,119222:0:0:0:0:
182,192,119222,128,0,119418:0:0:0:0:
329,192,119418,128,0,119614:0:0:0:0:
475,192,119614,128,0,119810:0:0:0:0:
182,192,119810,128,0,120006:0:0:0:0:
329,192,120006,128,0,120202:0:0:0:0:
475,192,120202,128,0,120398:0:0:0:0:
182,192,120398,128,0,120790:0:0:0:0:
329,192,120594,128,0,120790:0:0:0:0:
475,192,120790,1,0,0:0:0:0:
