osu file format v14

[General]
AudioFilename: audio.mp3
AudioLeadIn: 0
PreviewTime: 76476
Countdown: 0
SampleSet: Soft
StackLeniency: 0.7
Mode: 3
LetterboxInBreaks: 0
SpecialStyle: 0
WidescreenStoryboard: 0

[Editor]
DistanceSpacing: 1.3
BeatDivisor: 4
GridSize: 4
TimelineZoom: 1

[Metadata]
Title:Sennen no Kotowari
TitleUnicode:千年ノ理
Artist:Nekomata Master
ArtistUnicode:猫叉Master
Creator:Critical_Star
Version:BASIC
Source:SOUND VOLTEX III GRAVITY WARS
Tags:WORLD/ELECTRONICA ZUN 千年幻想郷 ~ History of the Moon BEMANI×東方Project Ultimate MasterPieces Naoyuki Sato beatmania IIDX 22 PENDUAL
BeatmapID:1213606
BeatmapSetID:571189

[Difficulty]
HPDrainRate:6.5
CircleSize:7
OverallDifficulty:6.5
ApproachRate:5
SliderMultiplier:1.4
SliderTickRate:1

[Events]
//Background and Video events
0,0,"BG.jpg",0,0
//Break Periods
//Storyboard Layer 0 (Background)
//Storyboard Layer 1 (Fail)
//Storyboard Layer 2 (Pass)
//Storyboard Layer 3 (Foreground)
//Storyboard Sound Samples

[TimingPoints]
1575,392.156862745098,4,2,1,35,1,0
39222,-100,4,2,1,35,0,1
51771,-100,4,2,1,35,0,0
76869,-100,4,2,1,35,0,1
82751,-100,4,2,1,35,0,0
83143,-100,4,2,1,35,0,1
89025,-100,4,2,1,35,0,0
89418,-100,4,2,1,35,0,1
95300,-100,4,2,1,35,0,0
95692,-100,4,2,1,35,0,1
100398,-100,4,2,1,35,0,0

[HitObjects]
182,192,1182,128,0,1575:0:0:0:0:
475,192,1575,128,2,2163:0:0:0:0:
329,192,1575,1,4,0:0:0:0:
109,192,2163,1,0,0:0:0:0:
329,192,2359,1,8,0:0:0:0:
182,192,2751,1,0,0:0:0:0:
36,192,3143,128,0,3927:0:0:0:0:
329,192,3927,1,8,0:0:0:0:
182,192,4320,1,0,0:0:0:0:
402,192,4712,128,2,5300:0:0:0:0:
109,192,5300,1,0,0:0:0:0:
329,192,5496,1,8,0:0:0:0:
182,192,5888,1,0,0:0:0:0:
475,192,6280,128,0,7065:0:0:0:0:
36,192,7065,1,2,0:0:0:0:
109,192,7457,5,2,0:0:0:0:
475,192,7849,1,2,0:0:0:0:
256,192,7849,1,4,0:0:0:0:
182,192,8241,1,0,0:0:0:0:
109,192,8633,1,8,0:0:0:0:
36,192,9025,1,0,0:0:0:0:
475,192,9418,1,2,0:0:0:0:
402,192,9810,1,0,0:0:0:0:
329,192,10202,1,8,0:0:0:0:
256,192,10594,1,2,0:0:0:0:
109,192,10986,1,2,0:0:0:0:
109,192,11378,1,2,0:0:0:0:
329,192,11771,1,8,0:0:0:0:
475,192,11771,1,0,0:0:0:0:
109,192,12163,1,2,0:0:0:0:
109,192,12555,1,2,0:0:0:0:
109,192,12947,1,2,0:0:0:0:
329,192,13339,1,8,0:0:0:0:
475,192,13339,1,0,0:0:0:0:
109,192,13535,1,2,0:0:0:0:
329,192,13731,1,8,0:0:0:0:
475,192,13731,1,0,0:0:0:0:
109,192,14124,1,2,0:0:0:0:
402,192,14124,1,4,0:0:0:0:
182,192,14516,1,8,0:0:0:0:
402,192,14908,1,2,0:0:0:0:
109,192,15104,1,0,0:0:0:0:
329,192,15300,1,8,0:0:0:0:
182,192,15496,1,0,0:0:0:0:
475,192,15692,1,2,0:0:0:0:
256,192,16084,1,8,0:0:0:0:
402,192,16476,1,2,0:0:0:0:
109,192,16673,1,0,0:0:0:0:
402,192,16869,1,8,0:0:0:0:
109,192,17065,1,0,0:0:0:0:
329,192,17261,1,2,0:0:0:0:
182,192,17653,1,8,0:0:0:0:
109,192,18045,1,2,0:0:0:0:
402,192,18241,1,0,0:0:0:0:
109,192,18437,1,8,0:0:0:0:
402,192,18633,1,0,0:0:0:0:
256,192,18829,1,2,0:0:0:0:
36,192,19025,1,0,0:0:0:0:
182,192,19418,1,0,0:0:0:0:
329,192,19810,1,0,0:0:0:0:
475,192,20202,1,0,0:0:0:0:
36,192,20398,1,2,0:0:0:0:
182,192,20398,1,4,0:0:0:0:
329,192,20790,128,8,21182:0:0:0:0:
182,192,21182,128,2,21575:0:0:0:0:
402,192,21575,128,8,21967:0:0:0:0:
109,192,21967,128,2,22751:0:0:0:0:
475,192,22751,128,2,23535:0:0:0:0:
329,192,23535,1,2,0:0:0:0:
182,192,23927,128,8,24320:0:0:0:0:
329,192,24320,128,2,24712:0:0:0:0:
109,192,24712,128,8,25104:0:0:0:0:
475,192,25104,1,2,0:0:0:0:
329,192,25496,1,8,0:0:0:0:
182,192,25496,1,0,0:0:0:0:
36,192,25888,1,2,0:0:0:0:
256,192,26280,1,8,0:0:0:0:
109,192,26673,1,2,0:0:0:0:
402,192,26673,128,4,27457:0:0:0:0:
256,192,27457,1,2,0:0:0:0:
109,192,27653,1,0,0:0:0:0:
329,192,27849,1,8,0:0:0:0:
182,192,28045,128,0,28633:0:0:0:0:
475,192,28633,1,8,0:0:0:0:
256,192,29025,1,2,0:0:0:0:
402,192,29222,1,0,0:0:0:0:
182,192,29418,1,8,0:0:0:0:
329,192,29614,128,0,30202:0:0:0:0:
36,192,30202,1,8,0:0:0:0:
402,192,30594,1,2,0:0:0:0:
109,192,30790,1,0,0:0:0:0:
182,192,30986,1,8,0:0:0:0:
256,192,31182,1,0,0:0:0:0:
329,192,31378,128,2,31771:0:0:0:0:
182,192,31771,128,8,32163:0:0:0:0:
36,192,32163,128,2,32555:0:0:0:0:
475,192,32555,128,8,32947:0:0:0:0:
182,192,32947,1,2,0:0:0:0:
36,192,32947,1,4,0:0:0:0:
402,192,33339,128,8,33731:0:0:0:0:
109,192,33731,128,2,34124:0:0:0:0:
256,192,34124,128,8,34516:0:0:0:0:
475,192,34516,128,2,35300:0:0:0:0:
36,192,35300,128,2,36084:0:0:0:0:
329,192,36084,1,2,0:0:0:0:
182,192,36476,128,8,36869:0:0:0:0:
329,192,36869,128,2,37261:0:0:0:0:
109,192,37261,128,8,37653:0:0:0:0:
256,192,37653,1,2,0:0:0:0:
329,192,37849,1,0,0:0:0:0:
402,192,38045,1,8,0:0:0:0:
475,192,38241,1,0,0:0:0:0:
36,192,38437,1,2,0:0:0:0:
109,192,38633,1,0,0:0:0:0:
182,192,38829,1,8,0:0:0:0:
256,192,39025,1,0,0:0:0:0:
475,192,39222,1,2,0:0:0:0:
36,192,39222,1,4,0:0:0:0:
182,192,39418,1,0,0:0:0:0:
402,192,39614,1,8,0:0:0:0:
109,192,39810,1,0,0:0:0:0:
329,192,40006,1,2,0:0:0:0:
256,192,40202,1,0,0:0:0:0:
182,192,40398,1,8,0:0:0:0:
475,192,40594,1,0,0:0:0:0:
182,192,40790,1,2,0:0:0:0:
256,192,40986,1,0,0:0:0:0:
329,192,41182,1,8,0:0:0:0:
36,192,41378,1,0,0:0:0:0:
329,192,41575,1,2,0:0:0:0:
256,192,41771,1,0,0:0:0:0:
182,192,41967,1,8,0:0:0:0:
475,192,42163,1,0,0:0:0:0:
36,192,42359,1,2,0:0:0:0:
329,192,42555,1,0,0:0:0:0:
109,192,42751,1,8,0:0:0:0:
402,192,42947,1,0,0:0:0:0:
182,192,43143,1,2,0:0:0:0:
256,192,43339,1,0,0:0:0:0:
329,192,43535,1,8,0:0:0:0:
36,192,43731,1,0,0:0:0:0:
329,192,43927,1,2,0:0:0:0:
256,192,44124,1,0,0:0:0:0:
182,192,44320,1,8,0:0:0:0:
475,192,44516,1,0,0:0:0:0:
109,192,44712,128,2,45104:0:0:0:0:
402,192,45104,128,8,45496:0:0:0:0:
182,192,45496,1,4,0:0:0:0:
36,192,45496,1,2,0:0:0:0:
329,192,45692,1,0,0:0:0:0:
36,192,45888,1,8,0:0:0:0:
402,192,46084,1,0,0:0:0:0:
109,192,46280,1,2,0:0:0:0:
475,192,46476,1,0,0:0:0:0:
109,192,46673,1,8,0:0:0:0:
402,192,46869,1,0,0:0:0:0:
182,192,47065,1,2,0:0:0:0:
329,192,47261,1,0,0:0:0:0:
182,192,47457,1,8,0:0:0:0:
402,192,47653,1,0,0:0:0:0:
109,192,47849,1,2,0:0:0:0:
475,192,48045,1,0,0:0:0:0:
109,192,48241,1,8,0:0:0:0:
402,192,48437,1,0,0:0:0:0:
182,192,48633,1,2,0:0:0:0:
329,192,48829,1,0,0:0:0:0:
182,192,49025,1,8,0:0:0:0:
329,192,49222,1,0,0:0:0:0:
182,192,49418,1,2,0:0:0:0:
256,192,49614,1,0,0:0:0:0:
329,192,49810,1,8,0:0:0:0:
182,192,50006,1,0,0:0:0:0:
36,192,50202,1,2,0:0:0:0:
109,192,50594,1,8,0:0:0:0:
182,192,50986,1,2,0:0:0:0:
329,192,51378,1,8,0:0:0:0:
475,192,51378,1,0,0:0:0:0:
182,192,51771,1,2,0:0:0:0:
36,192,51771,128,4,52555:0:0:0:0:
329,192,52555,128,8,53339:0:0:0:0:
475,192,52555,1,0,0:0:0:0:
109,192,53339,1,0,0:0:0:0:
402,192,53731,1,2,0:0:0:0:
36,192,54124,1,8,0:0:0:0:
182,192,54124,1,0,0:0:0:0:
256,192,54516,1,0,0:0:0:0:
329,192,54908,128,2,55692:0:0:0:0:
109,192,55692,128,8,56476:0:0:0:0:
475,192,55692,1,0,0:0:0:0:
402,192,56476,1,0,0:0:0:0:
109,192,56869,1,2,0:0:0:0:
182,192,57261,1,8,0:0:0:0:
475,192,57261,1,0,0:0:0:0:
402,192,57653,1,0,0:0:0:0:
329,192,58045,1,2,0:0:0:0:
36,192,58045,1,4,0:0:0:0:
402,192,58633,1,0,0:0:0:0:
182,192,58829,1,8,0:0:0:0:
36,192,58829,1,0,0:0:0:0:
256,192,59222,1,0,0:0:0:0:
402,192,59614,1,2,0:0:0:0:
402,192,60202,1,2,0:0:0:0:
182,192,60398,1,8,0:0:0:0:
36,192,60398,1,0,0:0:0:0:
256,192,60790,1,0,0:0:0:0:
402,192,61182,1,2,0:0:0:0:
402,192,61574,1,2,0:0:0:0:
36,192,61967,1,8,0:0:0:0:
182,192,61967,1,0,0:0:0:0:
402,192,62359,1,2,0:0:0:0:
402,192,62751,1,2,0:0:0:0:
402,192,63143,1,2,0:0:0:0:
182,192,63535,1,8,0:0:0:0:
36,192,63535,1,0,0:0:0:0:
329,192,63927,1,2,0:0:0:0:
475,192,64320,1,4,0:0:0:0:
109,192,64320,1,2,0:0:0:0:
109,192,64712,1,2,0:0:0:0:
329,192,65104,1,8,0:0:0:0:
475,192,65104,1,0,0:0:0:0:
109,192,65496,1,2,0:0:0:0:
109,192,65888,1,2,0:0:0:0:
109,192,66280,1,2,0:0:0:0:
329,192,66673,1,8,0:0:0:0:
475,192,66673,1,0,0:0:0:0:
256,192,67065,1,2,0:0:0:0:
402,192,67457,1,2,0:0:0:0:
402,192,67849,1,2,0:0:0:0:
182,192,68241,1,8,0:0:0:0:
36,192,68241,1,0,0:0:0:0:
402,192,68633,1,2,0:0:0:0:
402,192,69025,1,2,0:0:0:0:
402,192,69418,1,2,0:0:0:0:
182,192,69810,1,8,0:0:0:0:
36,192,69810,1,0,0:0:0:0:
256,192,70202,1,2,0:0:0:0:
36,192,70594,1,2,0:0:0:0:
475,192,70594,128,4,71378:0:0:0:0:
329,192,71378,128,8,72163:0:0:0:0:
182,192,71378,1,0,0:0:0:0:
182,192,72163,128,8,72947:0:0:0:0:
475,192,72163,1,0,0:0:0:0:
36,192,72947,128,8,73731:0:0:0:0:
329,192,72947,1,0,0:0:0:0:
256,192,73339,128,2,73731:0:0:0:0:
475,192,73731,1,8,0:0:0:0:
182,192,74124,1,2,0:0:0:0:
475,192,74516,1,8,0:0:0:0:
182,192,74908,1,2,0:0:0:0:
402,192,75300,1,8,0:0:0:0:
109,192,75300,1,0,0:0:0:0:
402,192,75692,1,8,0:0:0:0:
109,192,75692,1,0,0:0:0:0:
109,192,76084,1,8,0:0:0:0:
402,192,76084,1,0,0:0:0:0:
256,192,76280,1,2,0:0:0:0:
36,192,76476,1,8,0:0:0:0:
475,192,76476,1,0,0:0:0:0:
329,192,76869,1,4,0:0:0:0:
182,192,76869,128,2,77261:0:0:0:0:
475,192,77261,128,8,77653:0:0:0:0:
109,192,77653,1,2,0:0:0:0:
182,192,77849,1,0,0:0:0:0:
402,192,78045,1,8,0:0:0:0:
329,192,78241,1,0,0:0:0:0:
182,192,78437,128,2,78829:0:0:0:0:
402,192,79025,1,0,0:0:0:0:
182,192,79222,128,2,79810:0:0:0:0:
329,192,79810,1,0,0:0:0:0:
109,192,80006,128,2,80398:0:0:0:0:
402,192,80398,128,8,80790:0:0:0:0:
329,192,80790,1,2,0:0:0:0:
256,192,80986,1,0,0:0:0:0:
182,192,81182,1,8,0:0:0:0:
109,192,81378,1,0,0:0:0:0:
36,192,81574,128,2,81967:0:0:0:0:
182,192,82163,1,0,0:0:0:0:
329,192,82359,128,2,82751:0:0:0:0:
475,192,82751,128,8,83143:0:0:0:0:
256,192,83143,1,4,0:0:0:0:
36,192,83143,128,2,83535:0:0:0:0:
402,192,83535,128,8,83927:0:0:0:0:
36,192,83927,1,2,0:0:0:0:
109,192,84124,1,0,0:0:0:0:
182,192,84320,1,8,0:0:0:0:
256,192,84516,1,0,0:0:0:0:
329,192,84712,128,2,85104:0:0:0:0:
109,192,85300,1,0,0:0:0:0:
329,192,85496,128,2,85888:0:0:0:0:
36,192,85888,1,8,0:0:0:0:
182,192,86280,1,2,0:0:0:0:
256,192,86476,1,0,0:0:0:0:
402,192,86673,1,8,0:0:0:0:
329,192,86869,1,0,0:0:0:0:
109,192,87065,1,2,0:0:0:0:
182,192,87261,1,0,0:0:0:0:
475,192,87457,1,8,0:0:0:0:
329,192,87653,1,0,0:0:0:0:
109,192,87849,128,2,88241:0:0:0:0:
402,192,88241,128,8,88633:0:0:0:0:
256,192,88633,128,2,89025:0:0:0:0:
36,192,89025,128,8,89418:0:0:0:0:
329,192,89418,1,4,0:0:0:0:
475,192,89418,128,2,89810:0:0:0:0:
109,192,89810,128,8,90202:0:0:0:0:
402,192,90202,1,2,0:0:0:0:
329,192,90398,1,0,0:0:0:0:
109,192,90594,1,8,0:0:0:0:
182,192,90790,1,0,0:0:0:0:
402,192,90986,128,2,91378:0:0:0:0:
256,192,91574,1,0,0:0:0:0:
402,192,91771,128,2,92359:0:0:0:0:
329,192,92359,1,0,0:0:0:0:
182,192,92555,128,2,92947:0:0:0:0:
36,192,92947,128,8,93339:0:0:0:0:
475,192,93339,1,2,0:0:0:0:
402,192,93535,1,0,0:0:0:0:
329,192,93731,1,8,0:0:0:0:
256,192,93927,1,0,0:0:0:0:
182,192,94124,128,2,94712:0:0:0:0:
36,192,94712,1,0,0:0:0:0:
329,192,94908,128,2,95300:0:0:0:0:
109,192,95300,128,8,95692:0:0:0:0:
475,192,95692,1,4,0:0:0:0:
256,192,95692,128,2,96084:0:0:0:0:
402,192,96084,128,8,96476:0:0:0:0:
36,192,96476,1,2,0:0:0:0:
109,192,96673,1,0,0:0:0:0:
329,192,96869,1,8,0:0:0:0:
182,192,97065,1,0,0:0:0:0:
475,192,97261,128,2,97653:0:0:0:0:
256,192,97849,1,0,0:0:0:0:
475,192,98045,128,2,98437:0:0:0:0:
109,192,98437,1,8,0:0:0:0:
329,192,98829,1,2,0:0:0:0:
182,192,99025,1,8,0:0:0:0:
329,192,99222,1,2,0:0:0:0:
182,192,99418,1,8,0:0:0:0:
402,192,99614,1,2,0:0:0:0:
109,192,99810,1,8,0:0:0:0:
402,192,100006,1,8,0:0:0:0:
109,192,100202,1,2,0:0:0:0:
329,192,100398,1,4,0:0:0:0:
475,192,100398,1,2,0:0:0:0:
109,192,100790,1,8,0:0:0:0:
402,192,100790,1,0,0:0:0:0:
182,192,101182,1,2,0:0:0:0:
256,192,101574,1,8,0:0:0:0:
475,192,101574,1,0,0:0:0:0:
402,192,101967,1,2,0:0:0:0:
329,192,102359,1,8,0:0:0:0:
36,192,102359,1,0,0:0:0:0:
109,192,102751,1,2,0:0:0:0:
182,192,103143,1,8,0:0:0:0:
402,192,103143,1,0,0:0:0:0:
329,192,103535,1,2,0:0:0:0:
256,192,103927,1,8,0:0:0:0:
36,192,103927,1,0,0:0:0:0:
109,192,104320,1,2,0:0:0:0:
182,192,104712,1,8,0:0:0:0:
475,192,104712,1,0,0:0:0:0:
36,192,105104,1,2,0:0:0:0:
256,192,105104,128,4,108241:0:0:0:0:
109,192,105496,1,8,0:0:0:0:
402,192,105496,1,0,0:0:0:0:
475,192,105888,1,2,0:0:0:0:
329,192,106280,1,8,0:0:0:0:
182,192,106280,1,0,0:0:0:0:
36,192,106673,1,2,0:0:0:0:
109,192,107065,1,8,0:0:0:0:
402,192,107065,1,0,0:0:0:0:
475,192,107457,1,2,0:0:0:0:
329,192,107849,1,8,0:0:0:0:
182,192,107849,1,0,0:0:0:0:
36,192,108241,1,2,0:0:0:0:
109,192,108633,1,8,0:0:0:0:
402,192,108633,1,0,0:0:0:0:
475,192,109025,1,2,0:0:0:0:
182,192,109418,128,8,109810:0:0:0:0:
329,192,109418,1,0,0:0:0:0:
36,192,109810,1,4,0:0:0:0:
475,192,109810,1,2,0:0:0:0:
402,192,110104,1,2,0:0:0:0:
109,192,110398,1,2,0:0:0:0:
402,192,110398,1,0,0:0:0:0:
182,192,110692,1,2,0:0:0:0:
329,192,110986,1,2,0:0:0:0:
475,192,110986,1,0,0:0:0:0:
109,192,111280,1,2,0:0:0:0:
109,192,111574,1,2,0:0:0:0:
402,192,111574,1,0,0:0:0:0:
329,192,111869,1,2,0:0:0:0:
182,192,112163,1,2,0:0:0:0:
36,192,112163,1,4,0:0:0:0:
402,192,112457,1,2,0:0:0:0:
402,192,112751,1,2,0:0:0:0:
109,192,112751,1,4,0:0:0:0:
182,192,113045,1,2,0:0:0:0:
256,192,113339,1,4,0:0:0:0:
475,192,113339,1,2,0:0:0:0:
402,192,113633,1,2,0:0:0:0:
36,192,113927,1,2,0:0:0:0:
329,192,113927,1,4,0:0:0:0:
109,192,114222,1,2,0:0:0:0:
182,192,114516,1,2,0:0:0:0:
475,192,114516,1,0,0:0:0:0:
329,192,114810,1,2,0:0:0:0:
182,192,115104,1,2,0:0:0:0:
36,192,115104,1,4,0:0:0:0:
329,192,115398,1,2,0:0:0:0:
475,192,115398,1,4,0:0:0:0:
182,192,115692,1,4,0:0:0:0:
36,192,115692,1,2,0:0:0:0:
402,192,116084,128,2,122359:0:0:0:0:
109,192,116084,1,4,0:0:0:0:
