osu file format v14

[General]
AudioFilename: audio.mp3
AudioLeadIn: 0
PreviewTime: 80598
Countdown: 0
SampleSet: Soft
StackLeniency: 0.7
Mode: 3
LetterboxInBreaks: 0
SpecialStyle: 0
WidescreenStoryboard: 0

[Editor]
DistanceSpacing: 1.4
BeatDivisor: 4
GridSize: 8
TimelineZoom: 0.8

[Metadata]
Title:Scars of FAUNA
TitleUnicode:Scars of FAUNA
Artist:Nekomata Master
ArtistUnicode:猫叉Master
Creator:Critical_Star
Version:Normal
Source:jubeat saucer fulfill
Tags:beatmania IIDX 22 PENDUAL jubeat plus (Android) saucer fulfill pack 6 pop'n music ラピストリア REFLEC BEAT groovin'!! Upper Naoyuki Sato WORLD/ELECTRONICA Groove Coaster EX maimai ORANGE
BeatmapID:1366217
BeatmapSetID:644654

[Difficulty]
HPDrainRate:7.5
CircleSize:7
OverallDifficulty:7
ApproachRate:5
SliderMultiplier:1.4
SliderTickRate:1

[Events]
//Background and Video events
0,0,"Neko.jpg",0,0
//Break Periods
//Storyboard Layer 0 (Background)
//Storyboard Layer 1 (Fail)
//Storyboard Layer 2 (Pass)
//Storyboard Layer 3 (Foreground)
//Storyboard Sound Samples

[TimingPoints]
962,363.636363636364,3,2,1,45,1,0
80598,-100,3,2,1,45,0,1
106780,-100,3,2,1,45,0,0

[HitObjects]
64,192,962,5,0,0:0:0:0:
64,192,1234,1,0,0:0:0:0:
64,192,1507,1,0,0:0:0:0:
64,192,1689,1,0,0:0:0:0:
64,192,2052,1,0,0:0:0:0:
64,192,2325,1,0,0:0:0:0:
36,192,2598,128,0,2780:0:0:0:0:
256,192,2780,1,0,0:0:0:0:
448,192,3143,1,0,0:0:0:0:
448,192,3416,1,0,0:0:0:0:
448,192,3689,1,0,0:0:0:0:
448,192,3871,1,0,0:0:0:0:
329,192,4234,1,0,0:0:0:0:
329,192,4507,1,0,0:0:0:0:
329,192,4780,128,0,4962:0:0:0:0:
109,192,4962,1,0,0:0:0:0:
192,192,5325,1,4,0:0:0:0:
320,192,5325,1,0,0:0:0:0:
192,192,5598,1,0,0:0:0:0:
192,192,5871,1,0,0:0:0:0:
192,192,6052,1,0,0:0:0:0:
192,192,6416,1,0,0:0:0:0:
192,192,6689,1,0,0:0:0:0:
182,192,6962,128,0,7143:0:0:0:0:
329,192,7143,1,0,0:0:0:0:
402,192,7325,1,0,0:0:0:0:
475,192,7507,1,0,0:0:0:0:
475,192,7780,1,0,0:0:0:0:
475,192,8052,1,0,0:0:0:0:
475,192,8234,1,0,0:0:0:0:
329,192,8598,1,0,0:0:0:0:
329,192,8871,1,0,0:0:0:0:
329,192,9143,128,0,9325:0:0:0:0:
182,192,9325,1,0,0:0:0:0:
256,192,9689,1,2,0:0:0:0:
109,192,9689,1,4,0:0:0:0:
402,192,9689,1,0,0:0:0:0:
182,192,10052,1,0,0:0:0:0:
329,192,10416,1,8,0:0:0:0:
109,192,10780,1,0,0:0:0:0:
182,192,11143,1,0,0:0:0:0:
329,192,11507,1,8,0:0:0:0:
475,192,11871,1,0,0:0:0:0:
402,192,12234,1,0,0:0:0:0:
182,192,12598,1,8,0:0:0:0:
402,192,12962,1,0,0:0:0:0:
329,192,13325,1,0,0:0:0:0:
182,192,13689,1,8,0:0:0:0:
402,192,14052,1,2,0:0:0:0:
329,192,14052,1,4,0:0:0:0:
109,192,14416,1,0,0:0:0:0:
402,192,14780,1,8,0:0:0:0:
256,192,15143,1,0,0:0:0:0:
109,192,15507,1,0,0:0:0:0:
402,192,15871,1,8,0:0:0:0:
182,192,16234,1,0,0:0:0:0:
329,192,16598,1,0,0:0:0:0:
109,192,16962,1,8,0:0:0:0:
182,192,17325,1,2,0:0:0:0:
329,192,17325,1,0,0:0:0:0:
329,192,17598,1,2,0:0:0:0:
182,192,17598,1,0,0:0:0:0:
182,192,17871,1,2,0:0:0:0:
329,192,17871,1,0,0:0:0:0:
256,192,18052,1,2,0:0:0:0:
36,192,18052,1,8,0:0:0:0:
475,192,18052,1,0,0:0:0:0:
329,192,18416,1,2,0:0:0:0:
109,192,18416,1,4,0:0:0:0:
475,192,18416,128,0,20234:0:0:0:0:
109,192,20234,1,0,0:0:0:0:
256,192,20416,1,0,0:0:0:0:
402,192,20598,128,0,21689:0:0:0:0:
182,192,21689,128,0,22780:0:0:0:0:
475,192,22780,1,2,0:0:0:0:
329,192,22780,128,0,23507:0:0:0:0:
256,192,23507,1,0,0:0:0:0:
182,192,23689,1,0,0:0:0:0:
109,192,23871,128,0,24416:0:0:0:0:
36,192,24416,128,0,24962:0:0:0:0:
256,192,24962,128,0,25689:0:0:0:0:
402,192,25689,128,0,26052:0:0:0:0:
36,192,26052,128,0,26234:0:0:0:0:
182,192,26416,128,0,26598:0:0:0:0:
329,192,26780,128,0,27143:0:0:0:0:
256,192,27143,1,2,0:0:0:0:
475,192,27143,128,4,28962:0:0:0:0:
109,192,27143,1,0,0:0:0:0:
256,192,28962,1,0,0:0:0:0:
182,192,29143,1,0,0:0:0:0:
109,192,29325,128,2,30416:0:0:0:0:
402,192,29325,1,0,0:0:0:0:
329,192,30416,128,0,31143:0:0:0:0:
36,192,31143,1,2,0:0:0:0:
109,192,31143,1,0,0:0:0:0:
329,192,31507,1,2,0:0:0:0:
475,192,31507,1,4,0:0:0:0:
329,192,31780,1,2,0:0:0:0:
475,192,31780,1,0,0:0:0:0:
329,192,32052,1,2,0:0:0:0:
475,192,32052,1,0,0:0:0:0:
109,192,32234,1,8,0:0:0:0:
36,192,32234,1,0,0:0:0:0:
182,192,32598,1,2,0:0:0:0:
36,192,32598,1,0,0:0:0:0:
182,192,32871,1,2,0:0:0:0:
36,192,32871,1,0,0:0:0:0:
182,192,33143,1,2,0:0:0:0:
36,192,33143,1,0,0:0:0:0:
402,192,33325,1,8,0:0:0:0:
475,192,33325,1,0,0:0:0:0:
329,192,33689,1,2,0:0:0:0:
182,192,33689,1,0,0:0:0:0:
329,192,33962,1,2,0:0:0:0:
182,192,33962,1,0,0:0:0:0:
329,192,34234,1,2,0:0:0:0:
182,192,34234,1,0,0:0:0:0:
36,192,34416,1,8,0:0:0:0:
475,192,34416,1,0,0:0:0:0:
182,192,34780,128,2,35143:0:0:0:0:
329,192,34780,1,0,0:0:0:0:
329,192,35143,128,8,35507:0:0:0:0:
475,192,35143,1,2,0:0:0:0:
475,192,35507,128,8,35871:0:0:0:0:
36,192,35507,1,0,0:0:0:0:
36,192,35871,1,2,0:0:0:0:
329,192,35871,1,4,0:0:0:0:
109,192,36143,1,0,0:0:0:0:
329,192,36234,1,2,0:0:0:0:
109,192,36416,1,0,0:0:0:0:
329,192,36598,1,2,0:0:0:0:
329,192,36962,1,2,0:0:0:0:
109,192,36962,1,0,0:0:0:0:
109,192,37234,1,0,0:0:0:0:
329,192,37325,1,2,0:0:0:0:
109,192,37507,1,0,0:0:0:0:
329,192,37689,1,2,0:0:0:0:
109,192,37689,1,0,0:0:0:0:
329,192,38052,1,2,0:0:0:0:
182,192,38052,1,4,0:0:0:0:
402,192,38325,1,0,0:0:0:0:
182,192,38416,1,2,0:0:0:0:
402,192,38598,1,0,0:0:0:0:
182,192,38780,1,2,0:0:0:0:
402,192,38780,1,0,0:0:0:0:
182,192,39143,1,2,0:0:0:0:
475,192,39143,1,0,0:0:0:0:
256,192,39416,1,0,0:0:0:0:
475,192,39507,1,2,0:0:0:0:
256,192,39689,1,8,0:0:0:0:
475,192,39871,1,2,0:0:0:0:
256,192,39871,1,0,0:0:0:0:
182,192,40234,1,2,0:0:0:0:
475,192,40234,1,4,0:0:0:0:
329,192,40507,1,0,0:0:0:0:
182,192,40598,1,2,0:0:0:0:
329,192,40780,1,0,0:0:0:0:
182,192,40962,1,2,0:0:0:0:
329,192,40962,1,0,0:0:0:0:
182,192,41325,1,2,0:0:0:0:
329,192,41325,1,0,0:0:0:0:
329,192,41598,1,0,0:0:0:0:
182,192,41689,1,2,0:0:0:0:
329,192,41871,1,0,0:0:0:0:
182,192,42052,1,2,0:0:0:0:
329,192,42052,1,0,0:0:0:0:
182,192,42416,1,2,0:0:0:0:
475,192,42416,1,4,0:0:0:0:
109,192,42689,1,0,0:0:0:0:
475,192,42780,1,2,0:0:0:0:
329,192,42780,1,4,0:0:0:0:
109,192,42962,1,0,0:0:0:0:
475,192,43143,1,2,0:0:0:0:
109,192,43143,1,4,0:0:0:0:
256,192,43507,1,2,0:0:0:0:
402,192,43507,1,0,0:0:0:0:
402,192,43780,1,2,0:0:0:0:
256,192,43780,1,0,0:0:0:0:
402,192,44052,1,2,0:0:0:0:
256,192,44052,1,0,0:0:0:0:
36,192,44234,1,2,0:0:0:0:
182,192,44234,1,0,0:0:0:0:
475,192,44234,1,0,0:0:0:0:
329,192,45689,128,2,46052:0:0:0:0:
182,192,45689,1,4,0:0:0:0:
109,192,46052,1,2,0:0:0:0:
475,192,46052,1,0,0:0:0:0:
109,192,46416,1,2,0:0:0:0:
475,192,46416,1,0,0:0:0:0:
402,192,46598,1,0,0:0:0:0:
329,192,46780,1,2,0:0:0:0:
36,192,46780,1,0,0:0:0:0:
109,192,46962,1,0,0:0:0:0:
182,192,47143,1,2,0:0:0:0:
402,192,47143,1,0,0:0:0:0:
329,192,47325,1,0,0:0:0:0:
256,192,47507,1,2,0:0:0:0:
36,192,47507,1,0,0:0:0:0:
329,192,47689,1,0,0:0:0:0:
402,192,47871,128,2,48234:0:0:0:0:
109,192,47871,1,0,0:0:0:0:
182,192,48234,1,2,0:0:0:0:
36,192,48234,1,0,0:0:0:0:
182,192,48598,1,2,0:0:0:0:
36,192,48598,1,0,0:0:0:0:
256,192,48780,1,0,0:0:0:0:
329,192,48962,1,2,0:0:0:0:
475,192,48962,1,0,0:0:0:0:
182,192,49143,1,0,0:0:0:0:
36,192,49325,1,2,0:0:0:0:
402,192,49325,1,0,0:0:0:0:
256,192,49507,1,0,0:0:0:0:
109,192,49689,1,2,0:0:0:0:
402,192,49689,1,0,0:0:0:0:
182,192,49871,1,2,0:0:0:0:
329,192,50052,128,2,50416:0:0:0:0:
256,192,50052,1,4,0:0:0:0:
475,192,50416,1,2,0:0:0:0:
109,192,50416,1,0,0:0:0:0:
109,192,50780,1,2,0:0:0:0:
475,192,50780,1,0,0:0:0:0:
182,192,50962,1,0,0:0:0:0:
256,192,51143,1,2,0:0:0:0:
402,192,51143,1,0,0:0:0:0:
109,192,51325,1,0,0:0:0:0:
329,192,51507,1,2,0:0:0:0:
475,192,51507,1,0,0:0:0:0:
182,192,51689,1,0,0:0:0:0:
402,192,51871,1,2,0:0:0:0:
109,192,51871,1,0,0:0:0:0:
256,192,52052,1,0,0:0:0:0:
109,192,52234,128,2,52598:0:0:0:0:
402,192,52234,1,0,0:0:0:0:
475,192,52598,1,2,0:0:0:0:
329,192,52598,1,0,0:0:0:0:
329,192,52962,1,2,0:0:0:0:
475,192,52962,1,0,0:0:0:0:
256,192,53143,1,0,0:0:0:0:
182,192,53325,1,2,0:0:0:0:
36,192,53325,1,0,0:0:0:0:
182,192,53598,1,2,0:0:0:0:
36,192,53598,1,0,0:0:0:0:
256,192,53871,1,8,0:0:0:0:
402,192,53871,1,0,0:0:0:0:
109,192,54052,1,8,0:0:0:0:
402,192,54052,1,0,0:0:0:0:
256,192,54234,1,0,0:0:0:0:
475,192,54416,1,2,0:0:0:0:
36,192,54416,1,4,0:0:0:0:
329,192,54416,1,0,0:0:0:0:
182,192,54598,1,0,0:0:0:0:
36,192,54780,1,2,0:0:0:0:
256,192,54962,1,0,0:0:0:0:
36,192,55143,1,2,0:0:0:0:
329,192,55325,1,0,0:0:0:0:
36,192,55507,1,2,0:0:0:0:
402,192,55689,1,0,0:0:0:0:
36,192,55871,1,2,0:0:0:0:
475,192,56052,1,0,0:0:0:0:
36,192,56234,1,2,0:0:0:0:
329,192,56416,1,0,0:0:0:0:
182,192,56598,1,2,0:0:0:0:
402,192,56780,1,0,0:0:0:0:
182,192,56962,1,2,0:0:0:0:
475,192,57143,1,0,0:0:0:0:
182,192,57325,1,2,0:0:0:0:
256,192,57507,1,0,0:0:0:0:
329,192,57689,1,2,0:0:0:0:
36,192,57871,1,0,0:0:0:0:
329,192,58052,1,2,0:0:0:0:
109,192,58234,1,0,0:0:0:0:
329,192,58416,1,2,0:0:0:0:
182,192,58598,1,0,0:0:0:0:
475,192,58780,1,2,0:0:0:0:
329,192,58780,1,4,0:0:0:0:
256,192,58962,1,0,0:0:0:0:
475,192,59143,1,2,0:0:0:0:
182,192,59325,1,0,0:0:0:0:
475,192,59507,1,2,0:0:0:0:
109,192,59689,1,0,0:0:0:0:
475,192,59871,1,2,0:0:0:0:
36,192,60052,1,0,0:0:0:0:
475,192,60234,1,2,0:0:0:0:
182,192,60416,1,0,0:0:0:0:
475,192,60598,1,2,0:0:0:0:
402,192,60780,1,0,0:0:0:0:
329,192,60962,1,2,0:0:0:0:
36,192,61143,1,0,0:0:0:0:
329,192,61325,1,2,0:0:0:0:
109,192,61507,1,0,0:0:0:0:
329,192,61689,1,2,0:0:0:0:
182,192,61871,1,2,0:0:0:0:
182,192,62052,1,2,0:0:0:0:
329,192,62234,1,0,0:0:0:0:
182,192,62416,1,2,0:0:0:0:
402,192,62598,1,8,0:0:0:0:
109,192,62780,1,2,0:0:0:0:
402,192,62962,1,0,0:0:0:0:
182,192,63143,1,2,0:0:0:0:
36,192,63143,1,4,0:0:0:0:
329,192,63507,128,8,63871:0:0:0:0:
402,192,63871,128,8,64234:0:0:0:0:
475,192,64234,128,2,64598:0:0:0:0:
109,192,64234,1,0,0:0:0:0:
256,192,64598,1,0,0:0:0:0:
182,192,64780,1,0,0:0:0:0:
109,192,64962,1,2,0:0:0:0:
36,192,65143,1,0,0:0:0:0:
329,192,65325,1,4,0:0:0:0:
475,192,65325,1,2,0:0:0:0:
182,192,65689,128,8,66052:0:0:0:0:
256,192,66052,128,8,66416:0:0:0:0:
329,192,66416,128,2,66780:0:0:0:0:
402,192,66416,1,0,0:0:0:0:
36,192,66780,1,0,0:0:0:0:
109,192,66962,1,0,0:0:0:0:
475,192,67143,1,2,0:0:0:0:
182,192,67143,128,0,67507:0:0:0:0:
475,192,67507,1,2,0:0:0:0:
36,192,67507,1,4,0:0:0:0:
402,192,67871,128,8,68234:0:0:0:0:
329,192,68234,128,8,68598:0:0:0:0:
182,192,68598,128,2,68962:0:0:0:0:
109,192,68598,1,0,0:0:0:0:
402,192,68962,1,0,0:0:0:0:
329,192,69143,1,0,0:0:0:0:
256,192,69325,1,2,0:0:0:0:
182,192,69507,1,0,0:0:0:0:
109,192,69689,1,4,0:0:0:0:
402,192,69689,1,2,0:0:0:0:
256,192,70052,1,2,0:0:0:0:
402,192,70052,1,0,0:0:0:0:
182,192,70416,1,2,0:0:0:0:
329,192,70416,1,0,0:0:0:0:
256,192,70780,1,2,0:0:0:0:
109,192,70780,1,0,0:0:0:0:
402,192,70962,1,0,0:0:0:0:
109,192,71143,1,2,0:0:0:0:
475,192,71325,128,0,71871:0:0:0:0:
329,192,71507,128,8,71871:0:0:0:0:
109,192,71871,1,2,0:0:0:0:
36,192,71871,1,4,0:0:0:0:
256,192,72234,128,2,72598:0:0:0:0:
329,192,72598,128,2,72962:0:0:0:0:
402,192,72962,128,2,73325:0:0:0:0:
109,192,72962,1,0,0:0:0:0:
256,192,73325,1,2,0:0:0:0:
182,192,73507,1,0,0:0:0:0:
109,192,73689,1,8,0:0:0:0:
36,192,73871,1,0,0:0:0:0:
475,192,74052,1,2,0:0:0:0:
402,192,74052,1,0,0:0:0:0:
256,192,74416,128,2,74780:0:0:0:0:
182,192,74780,128,2,75143:0:0:0:0:
109,192,75143,128,2,75507:0:0:0:0:
402,192,75143,1,0,0:0:0:0:
329,192,75507,1,2,0:0:0:0:
402,192,75689,1,8,0:0:0:0:
475,192,75871,1,2,0:0:0:0:
182,192,75871,128,0,76234:0:0:0:0:
36,192,76234,1,2,0:0:0:0:
475,192,76234,1,4,0:0:0:0:
109,192,76598,128,2,76962:0:0:0:0:
256,192,76962,128,8,77325:0:0:0:0:
402,192,77325,128,2,77689:0:0:0:0:
182,192,77325,1,0,0:0:0:0:
109,192,77689,1,2,0:0:0:0:
256,192,77871,1,0,0:0:0:0:
402,192,78052,1,8,0:0:0:0:
182,192,78234,1,0,0:0:0:0:
36,192,78416,128,2,79143:0:0:0:0:
329,192,78416,1,4,0:0:0:0:
329,192,79325,1,0,0:0:0:0:
182,192,79507,128,0,79871:0:0:0:0:
329,192,79871,128,0,80234:0:0:0:0:
475,192,80234,128,0,80598:0:0:0:0:
36,192,80598,1,2,0:0:0:0:
182,192,80598,1,4,0:0:0:0:
329,192,80598,1,0,0:0:0:0:
402,192,80780,1,0,0:0:0:0:
475,192,80962,1,2,0:0:0:0:
109,192,80962,1,0,0:0:0:0:
182,192,81143,1,0,0:0:0:0:
256,192,81325,1,8,0:0:0:0:
475,192,81325,1,0,0:0:0:0:
402,192,81507,1,0,0:0:0:0:
329,192,81689,1,2,0:0:0:0:
36,192,81689,1,0,0:0:0:0:
109,192,81871,1,0,0:0:0:0:
182,192,82052,1,2,0:0:0:0:
402,192,82052,1,0,0:0:0:0:
475,192,82234,1,0,0:0:0:0:
329,192,82416,1,8,0:0:0:0:
109,192,82416,1,0,0:0:0:0:
402,192,82598,1,0,0:0:0:0:
475,192,82780,1,2,0:0:0:0:
182,192,82780,1,0,0:0:0:0:
109,192,82962,1,0,0:0:0:0:
256,192,83143,1,2,0:0:0:0:
475,192,83143,1,0,0:0:0:0:
182,192,83325,1,0,0:0:0:0:
109,192,83507,1,8,0:0:0:0:
402,192,83507,1,0,0:0:0:0:
329,192,83689,1,0,0:0:0:0:
256,192,83871,128,2,84234:0:0:0:0:
36,192,83871,1,0,0:0:0:0:
182,192,84416,1,0,0:0:0:0:
256,192,84598,1,8,0:0:0:0:
109,192,84780,1,0,0:0:0:0:
182,192,84962,1,2,0:0:0:0:
475,192,84962,1,4,0:0:0:0:
402,192,84962,1,0,0:0:0:0:
329,192,85143,1,0,0:0:0:0:
256,192,85325,1,2,0:0:0:0:
36,192,85325,1,0,0:0:0:0:
109,192,85507,1,0,0:0:0:0:
182,192,85689,1,8,0:0:0:0:
475,192,85689,1,0,0:0:0:0:
402,192,85871,1,0,0:0:0:0:
329,192,86052,1,2,0:0:0:0:
36,192,86052,128,0,86416:0:0:0:0:
182,192,86416,1,2,0:0:0:0:
329,192,86416,1,0,0:0:0:0:
475,192,86598,128,0,86962:0:0:0:0:
256,192,86962,1,0,0:0:0:0:
402,192,87143,1,2,0:0:0:0:
109,192,87143,128,0,87689:0:0:0:0:
182,192,87871,1,8,0:0:0:0:
329,192,88052,1,0,0:0:0:0:
402,192,88234,128,2,88962:0:0:0:0:
182,192,88962,1,8,0:0:0:0:
36,192,88962,1,0,0:0:0:0:
329,192,89325,1,2,0:0:0:0:
475,192,89325,1,4,0:0:0:0:
36,192,89325,1,0,0:0:0:0:
256,192,89507,1,0,0:0:0:0:
402,192,89689,1,2,0:0:0:0:
182,192,89689,1,0,0:0:0:0:
329,192,89871,1,0,0:0:0:0:
256,192,90052,1,8,0:0:0:0:
36,192,90052,1,0,0:0:0:0:
109,192,90234,1,0,0:0:0:0:
475,192,90416,1,2,0:0:0:0:
182,192,90416,1,0,0:0:0:0:
402,192,90598,1,0,0:0:0:0:
329,192,90780,1,2,0:0:0:0:
109,192,90780,1,0,0:0:0:0:
36,192,90962,1,0,0:0:0:0:
182,192,91143,1,8,0:0:0:0:
402,192,91143,1,0,0:0:0:0:
109,192,91325,1,0,0:0:0:0:
36,192,91507,1,2,0:0:0:0:
402,192,91507,1,0,0:0:0:0:
329,192,91689,1,0,0:0:0:0:
182,192,91871,1,2,0:0:0:0:
475,192,91871,1,0,0:0:0:0:
256,192,92052,1,0,0:0:0:0:
329,192,92234,1,8,0:0:0:0:
109,192,92234,1,0,0:0:0:0:
182,192,92416,1,0,0:0:0:0:
402,192,92598,128,2,92962:0:0:0:0:
256,192,92598,1,0,0:0:0:0:
329,192,93143,1,0,0:0:0:0:
256,192,93325,1,8,0:0:0:0:
182,192,93507,1,0,0:0:0:0:
109,192,93689,1,4,0:0:0:0:
475,192,93689,1,2,0:0:0:0:
36,192,93689,1,0,0:0:0:0:
402,192,93871,1,0,0:0:0:0:
329,192,94052,1,2,0:0:0:0:
109,192,94052,1,0,0:0:0:0:
182,192,94234,1,0,0:0:0:0:
256,192,94416,1,8,0:0:0:0:
402,192,94416,1,0,0:0:0:0:
475,192,94598,1,0,0:0:0:0:
329,192,94780,1,2,0:0:0:0:
109,192,94780,128,0,95143:0:0:0:0:
329,192,95143,1,2,0:0:0:0:
475,192,95143,1,0,0:0:0:0:
182,192,95325,128,0,95689:0:0:0:0:
329,192,95689,1,0,0:0:0:0:
182,192,95871,1,2,0:0:0:0:
475,192,95871,128,0,96416:0:0:0:0:
109,192,96598,128,8,96962:0:0:0:0:
256,192,96598,1,0,0:0:0:0:
182,192,96962,128,2,97325:0:0:0:0:
329,192,96962,1,0,0:0:0:0:
256,192,97325,128,2,97689:0:0:0:0:
402,192,97325,1,0,0:0:0:0:
329,192,97689,128,8,98052:0:0:0:0:
475,192,97689,1,0,0:0:0:0:
475,192,98052,128,2,99871:0:0:0:0:
36,192,98052,1,4,0:0:0:0:
109,192,98052,1,0,0:0:0:0:
36,192,98416,1,2,0:0:0:0:
182,192,98780,1,8,0:0:0:0:
36,192,99143,1,2,0:0:0:0:
36,192,99507,1,2,0:0:0:0:
329,192,99871,1,8,0:0:0:0:
182,192,99871,1,0,0:0:0:0:
402,192,100052,1,0,0:0:0:0:
182,192,100234,128,2,101325:0:0:0:0:
475,192,100234,1,0,0:0:0:0:
475,192,100598,1,2,0:0:0:0:
329,192,100962,1,8,0:0:0:0:
109,192,101325,128,2,102416:0:0:0:0:
475,192,101325,1,0,0:0:0:0:
475,192,101689,1,2,0:0:0:0:
329,192,102052,1,8,0:0:0:0:
182,192,102416,1,2,0:0:0:0:
475,192,102416,1,0,0:0:0:0:
475,192,102689,1,2,0:0:0:0:
182,192,102689,1,0,0:0:0:0:
475,192,102962,1,2,0:0:0:0:
182,192,102962,1,0,0:0:0:0:
329,192,103143,1,8,0:0:0:0:
36,192,103143,1,0,0:0:0:0:
109,192,103507,1,2,0:0:0:0:
402,192,103507,1,0,0:0:0:0:
402,192,103780,1,2,0:0:0:0:
109,192,103780,1,0,0:0:0:0:
109,192,104052,1,2,0:0:0:0:
402,192,104052,1,0,0:0:0:0:
182,192,104234,1,8,0:0:0:0:
329,192,104234,1,0,0:0:0:0:
256,192,104598,1,2,0:0:0:0:
36,192,104598,1,0,0:0:0:0:
36,192,104871,1,2,0:0:0:0:
256,192,104871,1,0,0:0:0:0:
256,192,105143,1,2,0:0:0:0:
36,192,105143,1,0,0:0:0:0:
329,192,105325,1,8,0:0:0:0:
475,192,105325,1,0,0:0:0:0:
109,192,105689,128,2,106052:0:0:0:0:
256,192,105689,1,0,0:0:0:0:
256,192,106052,128,8,106416:0:0:0:0:
402,192,106052,1,0,0:0:0:0:
475,192,106416,128,8,106780:0:0:0:0:
36,192,106416,128,0,106780:0:0:0:0:
182,192,106780,1,4,0:0:0:0:
329,192,106780,1,0,0:0:0:0:
402,192,107052,1,0,0:0:0:0:
182,192,107143,1,2,0:0:0:0:
402,192,107325,1,0,0:0:0:0:
109,192,107507,1,8,0:0:0:0:
402,192,107507,1,0,0:0:0:0:
182,192,107871,1,2,0:0:0:0:
36,192,107871,1,0,0:0:0:0:
402,192,108143,1,0,0:0:0:0:
182,192,108234,1,2,0:0:0:0:
402,192,108416,1,0,0:0:0:0:
109,192,108598,1,8,0:0:0:0:
402,192,108598,1,0,0:0:0:0:
329,192,108962,1,2,0:0:0:0:
475,192,108962,1,4,0:0:0:0:
109,192,109234,1,0,0:0:0:0:
329,192,109325,1,2,0:0:0:0:
109,192,109507,1,0,0:0:0:0:
402,192,109689,1,8,0:0:0:0:
109,192,109689,1,0,0:0:0:0:
329,192,110052,1,2,0:0:0:0:
475,192,110052,1,0,0:0:0:0:
182,192,110325,1,0,0:0:0:0:
329,192,110416,1,2,0:0:0:0:
182,192,110598,1,0,0:0:0:0:
402,192,110780,1,8,0:0:0:0:
182,192,110780,1,0,0:0:0:0:
256,192,111143,1,4,0:0:0:0:
475,192,111143,1,2,0:0:0:0:
36,192,111143,1,0,0:0:0:0:
329,192,111416,1,0,0:0:0:0:
36,192,111507,1,2,0:0:0:0:
329,192,111689,1,0,0:0:0:0:
36,192,111871,1,8,0:0:0:0:
329,192,111871,1,0,0:0:0:0:
36,192,112234,1,2,0:0:0:0:
402,192,112234,1,0,0:0:0:0:
329,192,112507,1,0,0:0:0:0:
36,192,112598,1,2,0:0:0:0:
329,192,112780,1,0,0:0:0:0:
36,192,112962,1,8,0:0:0:0:
329,192,112962,1,0,0:0:0:0:
402,192,113325,1,2,0:0:0:0:
109,192,113325,1,4,0:0:0:0:
182,192,113598,1,0,0:0:0:0:
402,192,113689,1,2,0:0:0:0:
182,192,113871,1,0,0:0:0:0:
402,192,114052,1,2,0:0:0:0:
182,192,114052,1,8,0:0:0:0:
402,192,114416,1,2,0:0:0:0:
109,192,114416,1,4,0:0:0:0:
402,192,114689,1,2,0:0:0:0:
109,192,114689,1,0,0:0:0:0:
402,192,114962,1,2,0:0:0:0:
109,192,114962,1,0,0:0:0:0:
402,192,115143,128,8,115507:0:0:0:0:
109,192,115143,128,4,115507:0:0:0:0:
329,192,115507,1,2,0:0:0:0:
182,192,115507,1,0,0:0:0:0:
329,192,115780,1,2,0:0:0:0:
182,192,115780,1,0,0:0:0:0:
182,192,116052,1,2,0:0:0:0:
329,192,116052,1,0,0:0:0:0:
182,192,116234,1,2,0:0:0:0:
329,192,116234,1,0,0:0:0:0:
475,192,116598,1,4,0:0:0:0:
256,192,116598,1,2,0:0:0:0:
36,192,116598,1,0,0:0:0:0:
36,192,116871,1,2,0:0:0:0:
475,192,116871,1,4,0:0:0:0:
36,192,117143,1,4,0:0:0:0:
475,192,117143,1,2,0:0:0:0:
475,192,117325,1,2,0:0:0:0:
256,192,117325,1,4,0:0:0:0:
36,192,117325,1,0,0:0:0:0:
