osu file format v14

[General]
AudioFilename: audio.mp3
AudioLeadIn: 0
PreviewTime: 80598
Countdown: 0
SampleSet: Soft
StackLeniency: 0.7
Mode: 3
LetterboxInBreaks: 0
SpecialStyle: 0
WidescreenStoryboard: 0

[Editor]
DistanceSpacing: 1.4
BeatDivisor: 4
GridSize: 8
TimelineZoom: 1.1

[Metadata]
Title:Scars of FAUNA
TitleUnicode:Scars of FAUNA
Artist:Nekomata Master
ArtistUnicode:猫叉Master
Creator:Critical_Star
Version:Beginner
Source:jubeat saucer fulfill
Tags:beatmania IIDX 22 PENDUAL jubeat plus (Android) saucer fulfill pack 6 pop'n music ラピストリア REFLEC BEAT groovin'!! Upper Naoyuki Sato WORLD/ELECTRONICA Groove Coaster EX maimai ORANGE
BeatmapID:1366214
BeatmapSetID:644654

[Difficulty]
HPDrainRate:7
CircleSize:7
OverallDifficulty:6.5
ApproachRate:5
SliderMultiplier:1.4
SliderTickRate:1

[Events]
//Background and Video events
0,0,"Neko.jpg",0,0
//Break Periods
//Storyboard Layer 0 (Background)
//Storyboard Layer 1 (Fail)
//Storyboard Layer 2 (Pass)
//Storyboard Layer 3 (Foreground)
//Storyboard Sound Samples

[TimingPoints]
962,363.636363636364,3,2,1,45,1,0
80598,-100,3,2,1,45,0,1
106780,-100,3,2,1,45,0,0

[HitObjects]
64,192,962,5,0,0:0:0:0:
64,192,2052,1,0,0:0:0:0:
448,192,3143,1,0,0:0:0:0:
448,192,4234,1,0,0:0:0:0:
192,192,5325,1,4,0:0:0:0:
192,192,6416,1,0,0:0:0:0:
320,192,7507,1,0,0:0:0:0:
320,192,8598,1,0,0:0:0:0:
109,192,9689,1,2,0:0:0:0:
402,192,9689,1,4,0:0:0:0:
402,192,10416,1,8,0:0:0:0:
182,192,10780,1,0,0:0:0:0:
402,192,11507,1,8,0:0:0:0:
109,192,11871,1,0,0:0:0:0:
329,192,12598,1,8,0:0:0:0:
109,192,12962,1,0,0:0:0:0:
329,192,13689,1,8,0:0:0:0:
448,192,14052,1,2,0:0:0:0:
329,192,14052,1,4,0:0:0:0:
320,192,14780,1,8,0:0:0:0:
109,192,15143,1,0,0:0:0:0:
329,192,15871,1,8,0:0:0:0:
182,192,16234,1,0,0:0:0:0:
192,192,16962,1,8,0:0:0:0:
256,192,17325,128,2,18052:0:0:0:0:
475,192,18052,1,2,0:0:0:0:
64,192,18416,1,2,0:0:0:0:
475,192,18416,1,4,0:0:0:0:
192,192,20234,1,0,0:0:0:0:
320,192,20416,1,0,0:0:0:0:
448,192,20598,1,0,0:0:0:0:
256,192,21689,1,0,0:0:0:0:
64,192,22780,1,2,0:0:0:0:
182,192,22780,1,0,0:0:0:0:
320,192,23507,1,0,0:0:0:0:
192,192,23689,1,0,0:0:0:0:
64,192,23871,1,0,0:0:0:0:
402,192,24416,1,0,0:0:0:0:
329,192,24962,1,0,0:0:0:0:
109,192,25689,1,0,0:0:0:0:
182,192,26052,1,0,0:0:0:0:
256,192,26416,1,0,0:0:0:0:
329,192,26780,128,0,27143:0:0:0:0:
109,192,27143,1,2,0:0:0:0:
475,192,27143,128,4,28962:0:0:0:0:
320,192,28962,1,0,0:0:0:0:
192,192,29143,1,0,0:0:0:0:
64,192,29325,128,2,30416:0:0:0:0:
256,192,30416,128,0,31143:0:0:0:0:
64,192,31143,1,2,0:0:0:0:
448,192,31507,1,2,0:0:0:0:
448,192,31780,1,2,0:0:0:0:
448,192,32052,1,2,0:0:0:0:
109,192,32234,1,8,0:0:0:0:
320,192,32234,1,0,0:0:0:0:
192,192,32598,1,2,0:0:0:0:
192,192,32871,1,2,0:0:0:0:
192,192,33143,1,2,0:0:0:0:
64,192,33325,1,8,0:0:0:0:
402,192,33325,1,0,0:0:0:0:
320,192,33689,1,2,0:0:0:0:
320,192,33962,1,2,0:0:0:0:
320,192,34234,1,2,0:0:0:0:
192,192,34416,1,8,0:0:0:0:
64,192,34416,1,0,0:0:0:0:
402,192,34780,128,2,35143:0:0:0:0:
256,192,35143,128,8,35507:0:0:0:0:
109,192,35507,128,8,35871:0:0:0:0:
402,192,35871,1,2,0:0:0:0:
320,192,35871,1,4,0:0:0:0:
192,192,36234,1,2,0:0:0:0:
448,192,36598,1,2,0:0:0:0:
182,192,36962,1,2,0:0:0:0:
320,192,37325,1,2,0:0:0:0:
182,192,37689,1,2,0:0:0:0:
448,192,38052,1,2,0:0:0:0:
256,192,38416,1,2,0:0:0:0:
448,192,38780,1,2,0:0:0:0:
182,192,39143,1,2,0:0:0:0:
475,192,39507,1,2,0:0:0:0:
109,192,39871,1,2,0:0:0:0:
320,192,40234,1,2,0:0:0:0:
402,192,40234,1,4,0:0:0:0:
64,192,40598,1,2,0:0:0:0:
320,192,40962,1,2,0:0:0:0:
109,192,41325,1,2,0:0:0:0:
329,192,41689,1,2,0:0:0:0:
192,192,42052,1,2,0:0:0:0:
448,192,42416,1,2,0:0:0:0:
402,192,42416,1,4,0:0:0:0:
36,192,42780,1,2,0:0:0:0:
109,192,42780,1,4,0:0:0:0:
402,192,43143,1,2,0:0:0:0:
475,192,43143,1,4,0:0:0:0:
256,192,43507,1,2,0:0:0:0:
256,192,43780,1,2,0:0:0:0:
256,192,44052,1,2,0:0:0:0:
109,192,44234,1,2,0:0:0:0:
402,192,44234,1,0,0:0:0:0:
182,192,45689,128,2,46052:0:0:0:0:
402,192,45689,1,4,0:0:0:0:
475,192,46052,1,2,0:0:0:0:
475,192,46416,1,2,0:0:0:0:
109,192,46780,1,2,0:0:0:0:
182,192,47143,1,2,0:0:0:0:
256,192,47507,1,2,0:0:0:0:
320,192,47871,128,2,48234:0:0:0:0:
64,192,48234,1,2,0:0:0:0:
36,192,48598,1,2,0:0:0:0:
402,192,48962,1,2,0:0:0:0:
320,192,49325,1,2,0:0:0:0:
256,192,49689,1,2,0:0:0:0:
475,192,49871,1,2,0:0:0:0:
64,192,50052,128,2,50416:0:0:0:0:
192,192,50052,1,4,0:0:0:0:
329,192,50416,1,2,0:0:0:0:
329,192,50780,1,2,0:0:0:0:
36,192,51143,1,2,0:0:0:0:
109,192,51507,1,2,0:0:0:0:
182,192,51871,1,2,0:0:0:0:
256,192,52234,128,2,52598:0:0:0:0:
402,192,52598,1,2,0:0:0:0:
402,192,52962,1,2,0:0:0:0:
329,192,53143,1,0,0:0:0:0:
109,192,53325,1,0,0:0:0:0:
182,192,53507,1,0,0:0:0:0:
329,192,53689,1,0,0:0:0:0:
402,192,53871,128,8,54234:0:0:0:0:
109,192,54234,1,0,0:0:0:0:
320,192,54416,1,2,0:0:0:0:
448,192,54416,1,4,0:0:0:0:
192,192,54780,1,2,0:0:0:0:
64,192,55143,1,2,0:0:0:0:
402,192,55507,1,2,0:0:0:0:
256,192,55871,1,2,0:0:0:0:
109,192,56234,1,2,0:0:0:0:
475,192,56598,1,2,0:0:0:0:
320,192,56962,1,2,0:0:0:0:
192,192,57325,1,2,0:0:0:0:
36,192,57689,1,2,0:0:0:0:
329,192,58052,1,2,0:0:0:0:
256,192,58416,1,2,0:0:0:0:
36,192,58780,1,2,0:0:0:0:
182,192,58780,1,4,0:0:0:0:
329,192,59143,1,2,0:0:0:0:
475,192,59507,1,2,0:0:0:0:
109,192,59871,1,2,0:0:0:0:
256,192,60234,1,2,0:0:0:0:
402,192,60598,1,2,0:0:0:0:
64,192,60962,1,2,0:0:0:0:
192,192,61325,1,2,0:0:0:0:
320,192,61689,1,2,0:0:0:0:
402,192,61871,1,2,0:0:0:0:
448,192,62052,1,2,0:0:0:0:
329,192,62416,1,2,0:0:0:0:
182,192,62780,1,2,0:0:0:0:
448,192,63143,1,2,0:0:0:0:
36,192,63143,1,4,0:0:0:0:
192,192,63507,128,8,63871:0:0:0:0:
402,192,63871,128,8,64234:0:0:0:0:
109,192,64234,128,2,64598:0:0:0:0:
448,192,64598,1,0,0:0:0:0:
320,192,64780,1,0,0:0:0:0:
192,192,64962,1,2,0:0:0:0:
64,192,65143,1,0,0:0:0:0:
448,192,65325,1,4,0:0:0:0:
320,192,65325,1,2,0:0:0:0:
109,192,65689,128,8,66052:0:0:0:0:
256,192,66052,128,8,66416:0:0:0:0:
448,192,66416,128,2,66780:0:0:0:0:
320,192,66780,1,0,0:0:0:0:
192,192,66962,1,0,0:0:0:0:
36,192,67143,128,2,67507:0:0:0:0:
448,192,67507,1,2,0:0:0:0:
320,192,67507,1,4,0:0:0:0:
109,192,67871,128,8,68234:0:0:0:0:
402,192,68234,128,8,68598:0:0:0:0:
256,192,68598,128,2,68962:0:0:0:0:
64,192,68962,1,0,0:0:0:0:
192,192,69143,1,0,0:0:0:0:
448,192,69325,1,2,0:0:0:0:
320,192,69507,1,0,0:0:0:0:
192,192,69689,1,4,0:0:0:0:
64,192,69689,1,2,0:0:0:0:
402,192,70052,1,2,0:0:0:0:
192,192,70416,1,2,0:0:0:0:
402,192,70780,1,2,0:0:0:0:
329,192,71143,1,2,0:0:0:0:
256,192,71507,128,8,71871:0:0:0:0:
109,192,71871,1,2,0:0:0:0:
402,192,71871,1,0,0:0:0:0:
402,192,72234,128,2,72598:0:0:0:0:
192,192,72598,128,2,72962:0:0:0:0:
320,192,72962,128,2,73325:0:0:0:0:
64,192,73325,1,2,0:0:0:0:
182,192,73507,1,0,0:0:0:0:
448,192,73689,1,0,0:0:0:0:
329,192,73871,1,8,0:0:0:0:
64,192,74052,1,2,0:0:0:0:
182,192,74052,1,0,0:0:0:0:
329,192,74416,128,2,74780:0:0:0:0:
109,192,74780,128,2,75143:0:0:0:0:
448,192,75143,128,2,75507:0:0:0:0:
64,192,75507,1,2,0:0:0:0:
182,192,75689,1,8,0:0:0:0:
329,192,75871,128,2,76234:0:0:0:0:
448,192,76234,1,2,0:0:0:0:
192,192,76234,1,4,0:0:0:0:
109,192,76598,128,2,76962:0:0:0:0:
320,192,76962,128,8,77325:0:0:0:0:
448,192,77325,128,2,77689:0:0:0:0:
329,192,77689,1,2,0:0:0:0:
182,192,77871,1,0,0:0:0:0:
64,192,78052,1,8,0:0:0:0:
192,192,78234,1,0,0:0:0:0:
320,192,78416,128,2,79143:0:0:0:0:
182,192,79507,128,0,79871:0:0:0:0:
256,192,79871,128,0,80234:0:0:0:0:
329,192,80234,128,0,80598:0:0:0:0:
64,192,80598,1,2,0:0:0:0:
402,192,80598,1,4,0:0:0:0:
192,192,80780,1,0,0:0:0:0:
475,192,80962,1,2,0:0:0:0:
320,192,81143,1,0,0:0:0:0:
109,192,81325,1,8,0:0:0:0:
402,192,81507,1,0,0:0:0:0:
192,192,81689,1,2,0:0:0:0:
320,192,81871,1,0,0:0:0:0:
64,192,82052,1,2,0:0:0:0:
192,192,82234,1,0,0:0:0:0:
320,192,82416,1,8,0:0:0:0:
448,192,82598,1,0,0:0:0:0:
256,192,82780,1,2,0:0:0:0:
109,192,82962,1,0,0:0:0:0:
402,192,83143,1,2,0:0:0:0:
256,192,83325,1,0,0:0:0:0:
36,192,83507,1,8,0:0:0:0:
182,192,83689,1,0,0:0:0:0:
402,192,83871,128,2,84234:0:0:0:0:
402,192,84416,1,0,0:0:0:0:
182,192,84598,1,8,0:0:0:0:
320,192,84780,1,0,0:0:0:0:
192,192,84962,1,2,0:0:0:0:
448,192,84962,1,4,0:0:0:0:
64,192,85143,1,0,0:0:0:0:
256,192,85325,1,2,0:0:0:0:
402,192,85507,1,0,0:0:0:0:
182,192,85689,1,8,0:0:0:0:
36,192,85871,1,0,0:0:0:0:
329,192,86052,128,2,86416:0:0:0:0:
192,192,86416,1,2,0:0:0:0:
402,192,86598,1,0,0:0:0:0:
402,192,86962,1,0,0:0:0:0:
109,192,87143,128,2,87689:0:0:0:0:
182,192,87143,1,0,0:0:0:0:
182,192,87871,1,8,0:0:0:0:
329,192,88052,1,0,0:0:0:0:
402,192,88234,128,2,88962:0:0:0:0:
182,192,88962,1,8,0:0:0:0:
182,192,89325,1,2,0:0:0:0:
402,192,89325,1,4,0:0:0:0:
109,192,89507,1,0,0:0:0:0:
256,192,89689,1,2,0:0:0:0:
329,192,89871,1,0,0:0:0:0:
36,192,90052,1,8,0:0:0:0:
109,192,90234,1,0,0:0:0:0:
402,192,90416,1,2,0:0:0:0:
329,192,90598,1,0,0:0:0:0:
64,192,90780,1,2,0:0:0:0:
192,192,90962,1,0,0:0:0:0:
320,192,91143,1,8,0:0:0:0:
448,192,91325,1,0,0:0:0:0:
109,192,91507,1,2,0:0:0:0:
182,192,91689,1,0,0:0:0:0:
402,192,91871,1,2,0:0:0:0:
329,192,92052,1,0,0:0:0:0:
109,192,92234,1,8,0:0:0:0:
256,192,92416,1,0,0:0:0:0:
402,192,92598,128,2,92962:0:0:0:0:
402,192,93143,1,0,0:0:0:0:
182,192,93325,1,8,0:0:0:0:
256,192,93507,1,0,0:0:0:0:
448,192,93689,1,4,0:0:0:0:
320,192,93689,1,2,0:0:0:0:
109,192,93871,1,0,0:0:0:0:
329,192,94052,1,2,0:0:0:0:
192,192,94234,1,0,0:0:0:0:
402,192,94416,1,8,0:0:0:0:
64,192,94598,1,0,0:0:0:0:
402,192,94780,128,2,95143:0:0:0:0:
182,192,95143,1,2,0:0:0:0:
64,192,95325,1,0,0:0:0:0:
64,192,95689,1,0,0:0:0:0:
320,192,95871,128,2,96416:0:0:0:0:
182,192,95871,1,0,0:0:0:0:
109,192,96598,128,8,96962:0:0:0:0:
192,192,96962,128,2,97325:0:0:0:0:
256,192,97325,128,2,97689:0:0:0:0:
329,192,97689,128,8,98052:0:0:0:0:
448,192,98052,128,2,99871:0:0:0:0:
36,192,98052,1,4,0:0:0:0:
320,192,99871,1,8,0:0:0:0:
192,192,100052,1,0,0:0:0:0:
64,192,100234,128,2,101325:0:0:0:0:
256,192,101325,128,2,102416:0:0:0:0:
64,192,102416,1,2,0:0:0:0:
36,192,102689,1,2,0:0:0:0:
64,192,102962,1,2,0:0:0:0:
320,192,103143,1,8,0:0:0:0:
448,192,103143,1,0,0:0:0:0:
109,192,103507,1,2,0:0:0:0:
109,192,103780,1,2,0:0:0:0:
109,192,104052,1,2,0:0:0:0:
329,192,104234,1,8,0:0:0:0:
475,192,104234,1,0,0:0:0:0:
182,192,104598,1,2,0:0:0:0:
192,192,104871,1,2,0:0:0:0:
182,192,105143,1,2,0:0:0:0:
448,192,105325,1,8,0:0:0:0:
329,192,105325,1,0,0:0:0:0:
109,192,105689,128,2,106052:0:0:0:0:
256,192,106052,128,8,106416:0:0:0:0:
402,192,106416,128,8,106780:0:0:0:0:
64,192,106780,1,2,0:0:0:0:
192,192,106780,1,4,0:0:0:0:
475,192,107143,1,2,0:0:0:0:
182,192,107507,1,8,0:0:0:0:
402,192,107871,1,2,0:0:0:0:
109,192,108234,1,2,0:0:0:0:
329,192,108598,1,8,0:0:0:0:
109,192,108962,1,2,0:0:0:0:
256,192,109325,1,2,0:0:0:0:
36,192,109689,1,8,0:0:0:0:
182,192,110052,1,2,0:0:0:0:
36,192,110416,1,2,0:0:0:0:
475,192,110780,1,8,0:0:0:0:
329,192,111143,1,4,0:0:0:0:
36,192,111507,1,2,0:0:0:0:
320,192,111871,1,8,0:0:0:0:
109,192,112234,1,2,0:0:0:0:
402,192,112598,1,2,0:0:0:0:
192,192,112962,1,8,0:0:0:0:
402,192,113325,1,2,0:0:0:0:
256,192,113689,1,2,0:0:0:0:
475,192,114052,1,2,0:0:0:0:
329,192,114416,1,2,0:0:0:0:
475,192,114780,1,2,0:0:0:0:
329,192,115143,1,4,0:0:0:0:
109,192,115507,1,2,0:0:0:0:
109,192,115780,1,2,0:0:0:0:
256,192,116052,1,2,0:0:0:0:
64,192,116234,1,2,0:0:0:0:
402,192,116598,1,4,0:0:0:0:
402,192,116871,1,2,0:0:0:0:
256,192,117143,1,4,0:0:0:0:
448,192,117325,1,2,0:0:0:0:
36,192,117325,1,4,0:0:0:0:
