osu file format v14

[General]
AudioFilename: audio.mp3
AudioLeadIn: 0
PreviewTime: 80598
Countdown: 0
SampleSet: Soft
StackLeniency: 0.7
Mode: 3
LetterboxInBreaks: 0
SpecialStyle: 0
WidescreenStoryboard: 0

[Editor]
DistanceSpacing: 1.4
BeatDivisor: 4
GridSize: 8
TimelineZoom: 1.8

[Metadata]
Title:Scars of FAUNA
TitleUnicode:Scars of FAUNA
Artist:Nekomata Master
ArtistUnicode:猫叉Master
Creator:Critical_Star
Version:Amaryllis
Source:jubeat saucer fulfill
Tags:beatmania IIDX 22 PENDUAL jubeat plus (Android) saucer fulfill pack 6 pop'n music ラピストリア REFLEC BEAT groovin'!! Upper Naoyuki Sato WORLD/ELECTRONICA Groove Coaster EX maimai ORANGE
BeatmapID:1366215
BeatmapSetID:644654

[Difficulty]
HPDrainRate:9
CircleSize:7
OverallDifficulty:8.5
ApproachRate:5
SliderMultiplier:1.4
SliderTickRate:1

[Events]
//Background and Video events
0,0,"Neko.jpg",0,0
//Break Periods
//Storyboard Layer 0 (Background)
//Storyboard Layer 1 (Fail)
//Storyboard Layer 2 (Pass)
//Storyboard Layer 3 (Foreground)
//Storyboard Sound Samples

[TimingPoints]
962,363.636363636364,3,2,1,45,1,0
80598,-100,3,2,1,45,0,1
106780,-100,3,2,1,45,0,0

[HitObjects]
36,192,962,128,0,1143:0:0:0:0:
36,192,1234,128,0,1416:0:0:0:0:
36,192,1507,128,0,1598:0:0:0:0:
36,192,1689,128,0,1780:0:0:0:0:
36,192,2052,128,0,2234:0:0:0:0:
36,192,2325,128,0,2507:0:0:0:0:
36,192,2598,1,0,0:0:0:0:
182,192,2658,1,0,0:0:0:0:
36,192,2719,1,0,0:0:0:0:
182,192,2780,1,0,0:0:0:0:
109,192,3143,128,0,3234:0:0:0:0:
475,192,3143,128,0,3325:0:0:0:0:
475,192,3416,128,0,3598:0:0:0:0:
475,192,3689,128,0,3780:0:0:0:0:
475,192,3871,128,0,3962:0:0:0:0:
36,192,4234,128,0,4325:0:0:0:0:
329,192,4234,128,0,4416:0:0:0:0:
329,192,4507,128,0,4689:0:0:0:0:
329,192,4780,1,0,0:0:0:0:
182,192,4840,1,0,0:0:0:0:
329,192,4901,1,0,0:0:0:0:
182,192,4962,1,0,0:0:0:0:
475,192,5325,1,4,0:0:0:0:
329,192,5325,1,0,0:0:0:0:
109,192,5325,1,0,0:0:0:0:
329,192,5598,1,0,0:0:0:0:
109,192,5598,1,0,0:0:0:0:
475,192,5780,1,0,0:0:0:0:
109,192,5871,1,0,0:0:0:0:
329,192,5871,1,0,0:0:0:0:
109,192,5962,1,0,0:0:0:0:
402,192,5962,1,0,0:0:0:0:
109,192,6052,1,0,0:0:0:0:
475,192,6052,1,0,0:0:0:0:
329,192,6325,1,0,0:0:0:0:
475,192,6325,1,0,0:0:0:0:
182,192,6416,1,0,0:0:0:0:
36,192,6416,1,0,0:0:0:0:
182,192,6689,1,0,0:0:0:0:
36,192,6689,1,0,0:0:0:0:
402,192,6780,1,0,0:0:0:0:
256,192,6871,1,0,0:0:0:0:
109,192,6962,1,0,0:0:0:0:
402,192,7022,1,0,0:0:0:0:
109,192,7083,1,0,0:0:0:0:
475,192,7143,1,0,0:0:0:0:
329,192,7143,1,0,0:0:0:0:
182,192,7325,1,0,0:0:0:0:
36,192,7325,1,0,0:0:0:0:
256,192,7416,1,0,0:0:0:0:
109,192,7416,1,0,0:0:0:0:
329,192,7507,1,0,0:0:0:0:
475,192,7507,1,0,0:0:0:0:
36,192,7507,1,0,0:0:0:0:
182,192,7598,1,0,0:0:0:0:
256,192,7689,1,0,0:0:0:0:
329,192,7780,1,0,0:0:0:0:
475,192,7780,1,0,0:0:0:0:
36,192,7871,1,0,0:0:0:0:
109,192,7962,1,0,0:0:0:0:
256,192,7962,1,0,0:0:0:0:
329,192,8052,1,0,0:0:0:0:
475,192,8052,1,0,0:0:0:0:
182,192,8052,1,0,0:0:0:0:
109,192,8143,1,0,0:0:0:0:
329,192,8234,1,0,0:0:0:0:
475,192,8234,1,0,0:0:0:0:
36,192,8234,1,0,0:0:0:0:
402,192,8507,1,0,0:0:0:0:
256,192,8507,1,0,0:0:0:0:
182,192,8552,1,0,0:0:0:0:
109,192,8598,1,0,0:0:0:0:
36,192,8598,1,0,0:0:0:0:
329,192,8780,1,0,0:0:0:0:
402,192,8780,1,0,0:0:0:0:
109,192,8871,1,0,0:0:0:0:
36,192,8871,1,0,0:0:0:0:
475,192,8962,1,0,0:0:0:0:
329,192,8962,1,0,0:0:0:0:
256,192,9052,1,0,0:0:0:0:
182,192,9052,1,0,0:0:0:0:
109,192,9143,1,0,0:0:0:0:
36,192,9143,1,0,0:0:0:0:
402,192,9143,1,0,0:0:0:0:
329,192,9234,1,0,0:0:0:0:
256,192,9325,1,0,0:0:0:0:
475,192,9325,1,0,0:0:0:0:
36,192,9325,1,0,0:0:0:0:
109,192,9416,1,0,0:0:0:0:
402,192,9416,1,0,0:0:0:0:
329,192,9507,1,0,0:0:0:0:
182,192,9507,1,0,0:0:0:0:
109,192,9598,1,0,0:0:0:0:
402,192,9598,1,0,0:0:0:0:
475,192,9689,1,2,0:0:0:0:
36,192,9689,1,4,0:0:0:0:
256,192,9689,1,0,0:0:0:0:
329,192,9689,1,0,0:0:0:0:
182,192,9689,1,0,0:0:0:0:
109,192,9871,1,0,0:0:0:0:
329,192,9962,1,0,0:0:0:0:
475,192,9962,1,0,0:0:0:0:
182,192,10052,1,0,0:0:0:0:
256,192,10143,1,0,0:0:0:0:
329,192,10234,1,0,0:0:0:0:
475,192,10234,1,0,0:0:0:0:
475,192,10416,1,8,0:0:0:0:
329,192,10416,1,0,0:0:0:0:
109,192,10416,1,0,0:0:0:0:
182,192,10598,1,0,0:0:0:0:
109,192,10689,1,0,0:0:0:0:
402,192,10780,1,0,0:0:0:0:
256,192,10780,1,0,0:0:0:0:
36,192,10871,1,0,0:0:0:0:
109,192,10962,1,0,0:0:0:0:
402,192,11052,1,0,0:0:0:0:
256,192,11052,1,0,0:0:0:0:
182,192,11052,1,0,0:0:0:0:
36,192,11143,1,0,0:0:0:0:
109,192,11143,1,0,0:0:0:0:
475,192,11234,1,0,0:0:0:0:
402,192,11325,1,0,0:0:0:0:
256,192,11325,1,0,0:0:0:0:
182,192,11386,1,0,0:0:0:0:
109,192,11446,1,0,0:0:0:0:
402,192,11507,1,8,0:0:0:0:
256,192,11507,1,0,0:0:0:0:
36,192,11507,1,0,0:0:0:0:
329,192,11689,1,0,0:0:0:0:
256,192,11780,1,0,0:0:0:0:
182,192,11871,1,0,0:0:0:0:
36,192,11871,1,0,0:0:0:0:
402,192,12052,1,0,0:0:0:0:
182,192,12143,1,0,0:0:0:0:
36,192,12143,1,0,0:0:0:0:
256,192,12234,1,0,0:0:0:0:
329,192,12325,1,0,0:0:0:0:
182,192,12416,1,0,0:0:0:0:
36,192,12416,1,0,0:0:0:0:
329,192,12507,1,0,0:0:0:0:
36,192,12598,1,8,0:0:0:0:
182,192,12598,1,0,0:0:0:0:
475,192,12598,1,0,0:0:0:0:
402,192,12689,1,0,0:0:0:0:
329,192,12780,1,0,0:0:0:0:
402,192,12871,1,0,0:0:0:0:
182,192,12871,1,0,0:0:0:0:
256,192,12962,1,0,0:0:0:0:
109,192,12962,1,0,0:0:0:0:
475,192,12962,1,0,0:0:0:0:
329,192,13052,1,0,0:0:0:0:
402,192,13143,1,0,0:0:0:0:
256,192,13234,1,0,0:0:0:0:
109,192,13234,1,0,0:0:0:0:
475,192,13325,1,0,0:0:0:0:
109,192,13507,1,0,0:0:0:0:
256,192,13507,1,0,0:0:0:0:
329,192,13568,1,0,0:0:0:0:
402,192,13628,1,0,0:0:0:0:
256,192,13689,1,8,0:0:0:0:
109,192,13689,1,0,0:0:0:0:
475,192,13689,1,0,0:0:0:0:
402,192,13871,1,0,0:0:0:0:
329,192,13871,1,0,0:0:0:0:
182,192,13962,1,0,0:0:0:0:
36,192,13962,1,0,0:0:0:0:
36,192,14052,1,2,0:0:0:0:
182,192,14052,1,4,0:0:0:0:
329,192,14052,1,0,0:0:0:0:
475,192,14052,1,0,0:0:0:0:
402,192,14052,1,0,0:0:0:0:
109,192,14234,1,0,0:0:0:0:
329,192,14325,1,0,0:0:0:0:
182,192,14325,1,0,0:0:0:0:
402,192,14416,1,0,0:0:0:0:
256,192,14507,1,0,0:0:0:0:
329,192,14598,1,0,0:0:0:0:
182,192,14598,1,0,0:0:0:0:
109,192,14689,1,0,0:0:0:0:
182,192,14780,1,8,0:0:0:0:
329,192,14780,1,0,0:0:0:0:
36,192,14780,1,0,0:0:0:0:
475,192,14871,1,0,0:0:0:0:
256,192,14962,1,0,0:0:0:0:
329,192,15052,1,0,0:0:0:0:
109,192,15143,1,0,0:0:0:0:
402,192,15143,1,0,0:0:0:0:
182,192,15234,1,0,0:0:0:0:
256,192,15325,1,0,0:0:0:0:
402,192,15416,1,0,0:0:0:0:
109,192,15416,1,0,0:0:0:0:
329,192,15507,1,0,0:0:0:0:
256,192,15598,1,0,0:0:0:0:
109,192,15689,1,0,0:0:0:0:
402,192,15689,1,0,0:0:0:0:
182,192,15749,1,0,0:0:0:0:
256,192,15810,1,0,0:0:0:0:
402,192,15871,1,8,0:0:0:0:
329,192,15871,1,0,0:0:0:0:
109,192,15871,1,0,0:0:0:0:
182,192,16052,1,0,0:0:0:0:
256,192,16143,1,0,0:0:0:0:
475,192,16234,1,0,0:0:0:0:
329,192,16234,1,0,0:0:0:0:
182,192,16325,1,0,0:0:0:0:
109,192,16416,1,0,0:0:0:0:
475,192,16507,1,0,0:0:0:0:
329,192,16507,1,0,0:0:0:0:
36,192,16507,1,0,0:0:0:0:
182,192,16598,1,0,0:0:0:0:
109,192,16689,1,0,0:0:0:0:
475,192,16780,1,0,0:0:0:0:
329,192,16780,1,0,0:0:0:0:
329,192,16871,1,0,0:0:0:0:
475,192,16871,1,0,0:0:0:0:
475,192,16962,1,8,0:0:0:0:
329,192,16962,1,0,0:0:0:0:
36,192,16962,1,0,0:0:0:0:
109,192,16962,1,0,0:0:0:0:
182,192,17052,1,0,0:0:0:0:
256,192,17143,1,0,0:0:0:0:
402,192,17143,1,0,0:0:0:0:
329,192,17234,1,0,0:0:0:0:
109,192,17234,1,0,0:0:0:0:
36,192,17325,1,2,0:0:0:0:
182,192,17325,1,0,0:0:0:0:
475,192,17325,1,0,0:0:0:0:
402,192,17325,1,0,0:0:0:0:
256,192,17416,1,0,0:0:0:0:
329,192,17507,1,0,0:0:0:0:
475,192,17507,1,0,0:0:0:0:
402,192,17598,1,2,0:0:0:0:
182,192,17598,1,0,0:0:0:0:
36,192,17598,1,0,0:0:0:0:
256,192,17689,1,0,0:0:0:0:
329,192,17780,1,0,0:0:0:0:
182,192,17780,1,0,0:0:0:0:
109,192,17871,1,2,0:0:0:0:
36,192,17871,1,0,0:0:0:0:
475,192,17871,1,0,0:0:0:0:
402,192,17962,1,0,0:0:0:0:
182,192,18052,1,2,0:0:0:0:
36,192,18052,128,8,18325:0:0:0:0:
109,192,18052,128,0,18325:0:0:0:0:
329,192,18052,1,0,0:0:0:0:
402,192,18143,1,0,0:0:0:0:
475,192,18234,1,0,0:0:0:0:
256,192,18234,1,0,0:0:0:0:
329,192,18325,1,0,0:0:0:0:
402,192,18416,1,2,0:0:0:0:
36,192,18416,1,4,0:0:0:0:
109,192,18416,1,0,0:0:0:0:
182,192,18416,1,0,0:0:0:0:
475,192,18416,128,0,20234:0:0:0:0:
256,192,18780,1,0,0:0:0:0:
182,192,18962,1,0,0:0:0:0:
109,192,19143,1,0,0:0:0:0:
36,192,19325,1,0,0:0:0:0:
256,192,19689,1,0,0:0:0:0:
182,192,19871,1,0,0:0:0:0:
109,192,20052,1,0,0:0:0:0:
402,192,20234,128,0,20416:0:0:0:0:
36,192,20234,1,0,0:0:0:0:
256,192,20234,1,0,0:0:0:0:
329,192,20416,128,0,20598:0:0:0:0:
182,192,20416,1,0,0:0:0:0:
109,192,20598,1,0,0:0:0:0:
182,192,20598,128,0,21689:0:0:0:0:
475,192,20780,1,0,0:0:0:0:
256,192,20962,1,0,0:0:0:0:
329,192,21143,1,0,0:0:0:0:
402,192,21325,1,0,0:0:0:0:
475,192,21507,1,0,0:0:0:0:
109,192,21689,128,0,22780:0:0:0:0:
256,192,21689,1,0,0:0:0:0:
402,192,21871,1,0,0:0:0:0:
182,192,22052,1,0,0:0:0:0:
256,192,22234,1,0,0:0:0:0:
329,192,22416,1,0,0:0:0:0:
402,192,22598,1,0,0:0:0:0:
475,192,22598,1,0,0:0:0:0:
329,192,22689,1,2,0:0:0:0:
256,192,22689,1,0,0:0:0:0:
475,192,22780,128,2,23507:0:0:0:0:
402,192,22780,1,0,0:0:0:0:
182,192,22780,1,0,0:0:0:0:
36,192,22780,1,0,0:0:0:0:
329,192,22962,1,0,0:0:0:0:
256,192,23143,1,0,0:0:0:0:
182,192,23325,1,0,0:0:0:0:
402,192,23507,1,0,0:0:0:0:
36,192,23507,128,0,23689:0:0:0:0:
329,192,23689,1,0,0:0:0:0:
109,192,23689,128,0,23871:0:0:0:0:
256,192,23871,128,0,24962:0:0:0:0:
182,192,23871,1,0,0:0:0:0:
475,192,24052,1,0,0:0:0:0:
36,192,24234,1,0,0:0:0:0:
402,192,24416,128,0,24962:0:0:0:0:
109,192,24416,1,0,0:0:0:0:
182,192,24598,1,0,0:0:0:0:
329,192,24780,1,0,0:0:0:0:
36,192,24962,128,0,25689:0:0:0:0:
475,192,24962,1,0,0:0:0:0:
109,192,24962,1,0,0:0:0:0:
256,192,25143,1,0,0:0:0:0:
329,192,25325,1,0,0:0:0:0:
402,192,25507,1,0,0:0:0:0:
475,192,25689,1,0,0:0:0:0:
256,192,25689,128,0,26052:0:0:0:0:
182,192,26052,128,0,26325:0:0:0:0:
109,192,26052,128,0,26234:0:0:0:0:
475,192,26052,1,0,0:0:0:0:
329,192,26416,128,0,26689:0:0:0:0:
256,192,26416,128,0,26598:0:0:0:0:
475,192,26416,1,0,0:0:0:0:
36,192,26598,128,0,26780:0:0:0:0:
182,192,26598,1,0,0:0:0:0:
109,192,26689,128,0,26871:0:0:0:0:
256,192,26689,1,0,0:0:0:0:
475,192,26780,128,0,27052:0:0:0:0:
182,192,26780,128,0,26962:0:0:0:0:
402,192,26780,128,0,26962:0:0:0:0:
329,192,26780,1,0,0:0:0:0:
256,192,26871,128,0,27052:0:0:0:0:
36,192,26871,1,0,0:0:0:0:
329,192,26962,128,0,27143:0:0:0:0:
109,192,26962,1,0,0:0:0:0:
402,192,27052,128,0,27234:0:0:0:0:
182,192,27052,1,0,0:0:0:0:
475,192,27143,128,2,28962:0:0:0:0:
256,192,27143,1,4,0:0:0:0:
109,192,27143,1,0,0:0:0:0:
36,192,27143,1,0,0:0:0:0:
256,192,27507,128,0,27598:0:0:0:0:
329,192,27689,128,0,27780:0:0:0:0:
36,192,27871,128,0,27962:0:0:0:0:
109,192,28052,128,0,28143:0:0:0:0:
182,192,28234,128,0,28325:0:0:0:0:
256,192,28598,128,0,28689:0:0:0:0:
329,192,28780,128,0,28871:0:0:0:0:
36,192,28962,128,0,29052:0:0:0:0:
402,192,28962,128,0,29143:0:0:0:0:
109,192,29143,128,0,29234:0:0:0:0:
329,192,29143,128,0,29325:0:0:0:0:
475,192,29325,128,2,29416:0:0:0:0:
182,192,29325,128,0,30416:0:0:0:0:
402,192,29689,128,0,29780:0:0:0:0:
475,192,29871,128,0,29962:0:0:0:0:
329,192,30052,128,0,30143:0:0:0:0:
402,192,30234,128,0,30325:0:0:0:0:
475,192,30416,128,0,30507:0:0:0:0:
36,192,30416,128,0,31143:0:0:0:0:
329,192,30780,128,0,30871:0:0:0:0:
256,192,30962,1,8,0:0:0:0:
475,192,30962,1,0,0:0:0:0:
182,192,31052,1,8,0:0:0:0:
402,192,31052,1,0,0:0:0:0:
329,192,31143,1,2,0:0:0:0:
109,192,31143,1,0,0:0:0:0:
256,192,31234,1,0,0:0:0:0:
329,192,31325,1,0,0:0:0:0:
109,192,31325,1,0,0:0:0:0:
402,192,31416,1,0,0:0:0:0:
36,192,31507,128,2,32234:0:0:0:0:
109,192,31507,1,4,0:0:0:0:
475,192,31507,1,0,0:0:0:0:
256,192,31507,1,0,0:0:0:0:
329,192,31507,1,0,0:0:0:0:
329,192,31780,1,2,0:0:0:0:
256,192,31780,1,0,0:0:0:0:
475,192,31780,1,0,0:0:0:0:
329,192,32052,1,2,0:0:0:0:
256,192,32052,1,0,0:0:0:0:
475,192,32052,1,0,0:0:0:0:
109,192,32234,1,8,0:0:0:0:
182,192,32234,1,0,0:0:0:0:
329,192,32234,1,0,0:0:0:0:
475,192,32234,1,0,0:0:0:0:
402,192,32416,1,0,0:0:0:0:
256,192,32416,1,0,0:0:0:0:
109,192,32416,1,0,0:0:0:0:
475,192,32598,128,2,33325:0:0:0:0:
182,192,32598,1,0,0:0:0:0:
36,192,32598,1,0,0:0:0:0:
329,192,32598,1,0,0:0:0:0:
329,192,32871,1,2,0:0:0:0:
182,192,32871,1,0,0:0:0:0:
36,192,32871,1,0,0:0:0:0:
329,192,33143,1,2,0:0:0:0:
182,192,33143,1,0,0:0:0:0:
36,192,33143,1,0,0:0:0:0:
182,192,33325,128,8,33689:0:0:0:0:
109,192,33325,1,0,0:0:0:0:
36,192,33325,1,0,0:0:0:0:
402,192,33325,1,0,0:0:0:0:
329,192,33507,128,0,33689:0:0:0:0:
475,192,33507,1,0,0:0:0:0:
475,192,33689,1,2,0:0:0:0:
402,192,33689,1,0,0:0:0:0:
36,192,33689,1,0,0:0:0:0:
109,192,33689,128,0,34416:0:0:0:0:
475,192,33962,1,2,0:0:0:0:
402,192,33962,1,0,0:0:0:0:
36,192,33962,1,0,0:0:0:0:
475,192,34234,1,2,0:0:0:0:
402,192,34234,1,0,0:0:0:0:
36,192,34234,1,0,0:0:0:0:
36,192,34416,1,8,0:0:0:0:
182,192,34416,1,0,0:0:0:0:
329,192,34416,1,0,0:0:0:0:
475,192,34416,1,0,0:0:0:0:
256,192,34598,1,0,0:0:0:0:
402,192,34598,1,0,0:0:0:0:
182,192,34689,1,0,0:0:0:0:
36,192,34689,1,0,0:0:0:0:
475,192,34780,1,2,0:0:0:0:
329,192,34780,128,0,35052:0:0:0:0:
109,192,34780,1,0,0:0:0:0:
36,192,34962,1,8,0:0:0:0:
182,192,34962,1,0,0:0:0:0:
109,192,35052,1,8,0:0:0:0:
256,192,35052,1,0,0:0:0:0:
402,192,35143,128,8,35416:0:0:0:0:
329,192,35143,1,2,0:0:0:0:
182,192,35143,1,0,0:0:0:0:
256,192,35325,1,0,0:0:0:0:
109,192,35325,1,0,0:0:0:0:
329,192,35416,1,0,0:0:0:0:
475,192,35507,128,8,35780:0:0:0:0:
182,192,35507,1,0,0:0:0:0:
402,192,35507,1,0,0:0:0:0:
109,192,35598,1,8,0:0:0:0:
329,192,35598,1,0,0:0:0:0:
36,192,35689,1,8,0:0:0:0:
256,192,35689,1,0,0:0:0:0:
329,192,35780,1,8,0:0:0:0:
109,192,35780,1,0,0:0:0:0:
182,192,35871,1,2,0:0:0:0:
36,192,35871,1,4,0:0:0:0:
402,192,35871,1,0,0:0:0:0:
475,192,35871,1,0,0:0:0:0:
329,192,35962,1,0,0:0:0:0:
256,192,36052,1,0,0:0:0:0:
109,192,36052,1,0,0:0:0:0:
402,192,36143,1,0,0:0:0:0:
475,192,36143,1,0,0:0:0:0:
109,192,36234,1,2,0:0:0:0:
36,192,36234,1,0,0:0:0:0:
182,192,36234,1,0,0:0:0:0:
256,192,36325,1,0,0:0:0:0:
329,192,36325,1,0,0:0:0:0:
402,192,36416,1,0,0:0:0:0:
475,192,36416,1,0,0:0:0:0:
109,192,36416,1,0,0:0:0:0:
402,192,36598,1,2,0:0:0:0:
475,192,36598,1,0,0:0:0:0:
36,192,36598,1,0,0:0:0:0:
182,192,36598,1,0,0:0:0:0:
256,192,36689,1,0,0:0:0:0:
329,192,36780,1,0,0:0:0:0:
109,192,36780,1,0,0:0:0:0:
36,192,36962,1,2,0:0:0:0:
182,192,36962,1,0,0:0:0:0:
475,192,36962,1,0,0:0:0:0:
329,192,37052,1,0,0:0:0:0:
402,192,37143,1,0,0:0:0:0:
256,192,37143,1,0,0:0:0:0:
182,192,37234,1,0,0:0:0:0:
36,192,37234,1,0,0:0:0:0:
329,192,37325,1,2,0:0:0:0:
475,192,37325,1,0,0:0:0:0:
109,192,37325,1,0,0:0:0:0:
402,192,37416,1,0,0:0:0:0:
36,192,37507,1,0,0:0:0:0:
329,192,37507,1,0,0:0:0:0:
109,192,37507,1,0,0:0:0:0:
182,192,37568,1,0,0:0:0:0:
256,192,37628,1,0,0:0:0:0:
36,192,37689,1,2,0:0:0:0:
329,192,37689,1,0,0:0:0:0:
475,192,37689,1,0,0:0:0:0:
109,192,37689,1,0,0:0:0:0:
182,192,37780,1,0,0:0:0:0:
256,192,37871,1,0,0:0:0:0:
402,192,37871,1,0,0:0:0:0:
182,192,37962,1,0,0:0:0:0:
109,192,38052,1,2,0:0:0:0:
36,192,38052,1,4,0:0:0:0:
329,192,38052,1,0,0:0:0:0:
475,192,38052,1,0,0:0:0:0:
402,192,38052,1,0,0:0:0:0:
329,192,38234,1,0,0:0:0:0:
475,192,38234,1,0,0:0:0:0:
256,192,38325,1,0,0:0:0:0:
109,192,38325,1,0,0:0:0:0:
475,192,38416,1,2,0:0:0:0:
402,192,38416,1,0,0:0:0:0:
36,192,38416,1,0,0:0:0:0:
182,192,38507,1,0,0:0:0:0:
402,192,38598,1,0,0:0:0:0:
256,192,38598,1,0,0:0:0:0:
36,192,38598,1,0,0:0:0:0:
475,192,38780,1,2,0:0:0:0:
329,192,38780,1,0,0:0:0:0:
36,192,38780,1,0,0:0:0:0:
109,192,38780,1,0,0:0:0:0:
256,192,38871,1,0,0:0:0:0:
182,192,38962,1,0,0:0:0:0:
402,192,38962,1,0,0:0:0:0:
329,192,39052,1,0,0:0:0:0:
36,192,39143,1,2,0:0:0:0:
475,192,39143,1,0,0:0:0:0:
256,192,39143,1,0,0:0:0:0:
109,192,39234,1,0,0:0:0:0:
182,192,39325,1,0,0:0:0:0:
402,192,39325,1,0,0:0:0:0:
329,192,39416,1,0,0:0:0:0:
36,192,39416,1,0,0:0:0:0:
182,192,39507,1,2,0:0:0:0:
109,192,39507,1,0,0:0:0:0:
475,192,39507,1,0,0:0:0:0:
256,192,39598,1,8,0:0:0:0:
36,192,39689,1,8,0:0:0:0:
329,192,39689,1,0,0:0:0:0:
182,192,39780,1,8,0:0:0:0:
109,192,39780,1,0,0:0:0:0:
36,192,39871,1,2,0:0:0:0:
402,192,39871,1,0,0:0:0:0:
475,192,39871,1,0,0:0:0:0:
256,192,39871,1,0,0:0:0:0:
109,192,39962,1,0,0:0:0:0:
182,192,40052,1,0,0:0:0:0:
329,192,40052,1,0,0:0:0:0:
402,192,40143,1,0,0:0:0:0:
475,192,40234,1,2,0:0:0:0:
182,192,40234,1,4,0:0:0:0:
109,192,40234,1,0,0:0:0:0:
36,192,40234,1,0,0:0:0:0:
402,192,40325,1,0,0:0:0:0:
256,192,40325,1,0,0:0:0:0:
109,192,40416,1,0,0:0:0:0:
36,192,40416,1,0,0:0:0:0:
182,192,40507,1,0,0:0:0:0:
329,192,40507,1,0,0:0:0:0:
475,192,40598,1,2,0:0:0:0:
256,192,40598,1,0,0:0:0:0:
36,192,40598,1,0,0:0:0:0:
402,192,40689,1,0,0:0:0:0:
182,192,40780,1,0,0:0:0:0:
329,192,40780,1,0,0:0:0:0:
402,192,40962,1,2,0:0:0:0:
256,192,40962,1,0,0:0:0:0:
109,192,40962,1,0,0:0:0:0:
475,192,40962,1,0,0:0:0:0:
36,192,41052,1,0,0:0:0:0:
109,192,41143,1,0,0:0:0:0:
329,192,41143,1,0,0:0:0:0:
475,192,41234,1,0,0:0:0:0:
256,192,41234,1,0,0:0:0:0:
182,192,41325,1,2,0:0:0:0:
329,192,41325,1,0,0:0:0:0:
36,192,41416,1,0,0:0:0:0:
109,192,41507,1,0,0:0:0:0:
402,192,41507,1,0,0:0:0:0:
329,192,41598,1,0,0:0:0:0:
182,192,41598,1,0,0:0:0:0:
256,192,41689,1,2,0:0:0:0:
475,192,41689,1,0,0:0:0:0:
36,192,41689,1,0,0:0:0:0:
402,192,41780,1,0,0:0:0:0:
329,192,41871,1,0,0:0:0:0:
109,192,41871,1,0,0:0:0:0:
182,192,41931,1,0,0:0:0:0:
256,192,41992,1,0,0:0:0:0:
109,192,42052,1,2,0:0:0:0:
329,192,42052,1,0,0:0:0:0:
475,192,42052,1,0,0:0:0:0:
36,192,42052,1,0,0:0:0:0:
256,192,42143,1,0,0:0:0:0:
36,192,42234,1,0,0:0:0:0:
182,192,42234,1,0,0:0:0:0:
402,192,42325,1,0,0:0:0:0:
329,192,42325,1,0,0:0:0:0:
475,192,42416,1,2,0:0:0:0:
256,192,42416,1,4,0:0:0:0:
109,192,42416,1,0,0:0:0:0:
36,192,42416,1,0,0:0:0:0:
329,192,42507,1,0,0:0:0:0:
402,192,42598,1,0,0:0:0:0:
256,192,42689,1,0,0:0:0:0:
109,192,42689,1,0,0:0:0:0:
36,192,42780,1,2,0:0:0:0:
402,192,42780,1,4,0:0:0:0:
475,192,42780,1,0,0:0:0:0:
182,192,42780,1,0,0:0:0:0:
329,192,42871,1,0,0:0:0:0:
256,192,42962,1,0,0:0:0:0:
109,192,42962,1,0,0:0:0:0:
402,192,43052,1,0,0:0:0:0:
329,192,43052,1,0,0:0:0:0:
256,192,43143,1,2,0:0:0:0:
36,192,43143,1,4,0:0:0:0:
109,192,43143,1,0,0:0:0:0:
475,192,43143,1,0,0:0:0:0:
329,192,43234,1,0,0:0:0:0:
402,192,43325,1,0,0:0:0:0:
182,192,43325,1,0,0:0:0:0:
256,192,43416,1,0,0:0:0:0:
36,192,43507,1,2,0:0:0:0:
329,192,43507,1,0,0:0:0:0:
475,192,43507,1,0,0:0:0:0:
182,192,43507,1,0,0:0:0:0:
109,192,43598,1,8,0:0:0:0:
402,192,43598,1,0,0:0:0:0:
182,192,43689,1,8,0:0:0:0:
329,192,43689,1,0,0:0:0:0:
36,192,43780,1,2,0:0:0:0:
475,192,43780,1,0,0:0:0:0:
256,192,43780,1,0,0:0:0:0:
402,192,43871,1,8,0:0:0:0:
109,192,43871,1,0,0:0:0:0:
329,192,43962,1,8,0:0:0:0:
182,192,43962,1,0,0:0:0:0:
36,192,44052,1,2,0:0:0:0:
475,192,44052,1,0,0:0:0:0:
256,192,44052,1,0,0:0:0:0:
329,192,44143,1,8,0:0:0:0:
109,192,44143,1,0,0:0:0:0:
182,192,44234,1,2,0:0:0:0:
36,192,44234,1,0,0:0:0:0:
475,192,44234,1,0,0:0:0:0:
402,192,44295,1,0,0:0:0:0:
256,192,44295,1,0,0:0:0:0:
329,192,44355,1,0,0:0:0:0:
109,192,44355,1,0,0:0:0:0:
182,192,44416,1,0,0:0:0:0:
109,192,44477,1,0,0:0:0:0:
182,192,44537,1,0,0:0:0:0:
329,192,45325,128,0,45598:0:0:0:0:
182,192,45325,128,0,45598:0:0:0:0:
475,192,45689,1,2,0:0:0:0:
36,192,45689,128,4,45962:0:0:0:0:
182,192,45689,128,0,45962:0:0:0:0:
329,192,45689,1,0,0:0:0:0:
402,192,45780,1,0,0:0:0:0:
256,192,45871,1,0,0:0:0:0:
475,192,45871,1,0,0:0:0:0:
36,192,46052,128,2,46143:0:0:0:0:
475,192,46052,1,0,0:0:0:0:
182,192,46052,128,0,46143:0:0:0:0:
256,192,46052,1,0,0:0:0:0:
329,192,46143,1,0,0:0:0:0:
402,192,46234,1,0,0:0:0:0:
109,192,46234,1,0,0:0:0:0:
36,192,46416,128,2,46507:0:0:0:0:
182,192,46416,128,0,46507:0:0:0:0:
256,192,46416,1,0,0:0:0:0:
475,192,46416,1,0,0:0:0:0:
402,192,46507,1,0,0:0:0:0:
329,192,46598,128,0,46780:0:0:0:0:
109,192,46598,1,0,0:0:0:0:
402,192,46689,128,0,46871:0:0:0:0:
475,192,46780,128,2,46962:0:0:0:0:
36,192,46780,1,0,0:0:0:0:
256,192,46780,1,0,0:0:0:0:
109,192,46871,1,0,0:0:0:0:
256,192,46962,128,0,47143:0:0:0:0:
182,192,46962,1,0,0:0:0:0:
475,192,47143,128,2,47325:0:0:0:0:
182,192,47143,1,0,0:0:0:0:
402,192,47234,128,0,47416:0:0:0:0:
109,192,47234,1,0,0:0:0:0:
329,192,47325,128,0,47507:0:0:0:0:
36,192,47325,1,0,0:0:0:0:
36,192,47507,128,2,47598:0:0:0:0:
182,192,47507,128,0,47598:0:0:0:0:
475,192,47507,1,0,0:0:0:0:
109,192,47689,128,0,47780:0:0:0:0:
256,192,47689,128,0,47780:0:0:0:0:
329,192,47689,1,0,0:0:0:0:
182,192,47871,128,2,48143:0:0:0:0:
36,192,47871,128,0,48143:0:0:0:0:
475,192,47871,1,0,0:0:0:0:
329,192,47962,1,0,0:0:0:0:
402,192,48052,1,0,0:0:0:0:
475,192,48052,1,0,0:0:0:0:
36,192,48234,128,2,48325:0:0:0:0:
182,192,48234,128,0,48325:0:0:0:0:
475,192,48234,1,0,0:0:0:0:
256,192,48234,1,0,0:0:0:0:
329,192,48325,1,0,0:0:0:0:
402,192,48416,1,0,0:0:0:0:
109,192,48416,1,0,0:0:0:0:
182,192,48598,128,2,48689:0:0:0:0:
36,192,48598,128,0,48689:0:0:0:0:
475,192,48598,1,0,0:0:0:0:
329,192,48598,1,0,0:0:0:0:
256,192,48689,1,0,0:0:0:0:
36,192,48780,1,0,0:0:0:0:
182,192,48780,1,0,0:0:0:0:
109,192,48871,1,0,0:0:0:0:
256,192,48871,1,0,0:0:0:0:
182,192,48962,128,2,49143:0:0:0:0:
475,192,48962,128,0,49143:0:0:0:0:
329,192,48962,1,0,0:0:0:0:
36,192,49143,128,0,49325:0:0:0:0:
256,192,49143,128,0,49325:0:0:0:0:
402,192,49143,1,0,0:0:0:0:
475,192,49325,128,2,49507:0:0:0:0:
402,192,49325,128,0,49507:0:0:0:0:
109,192,49325,1,0,0:0:0:0:
109,192,49507,128,0,49689:0:0:0:0:
36,192,49507,128,0,49689:0:0:0:0:
182,192,49507,1,0,0:0:0:0:
475,192,49689,1,2,0:0:0:0:
402,192,49689,1,0,0:0:0:0:
256,192,49689,1,0,0:0:0:0:
182,192,49780,1,0,0:0:0:0:
109,192,49871,1,2,0:0:0:0:
329,192,49871,1,0,0:0:0:0:
475,192,49871,1,0,0:0:0:0:
256,192,49962,1,0,0:0:0:0:
182,192,50052,1,2,0:0:0:0:
36,192,50052,1,4,0:0:0:0:
402,192,50052,128,0,50325:0:0:0:0:
475,192,50052,128,0,50325:0:0:0:0:
329,192,50143,1,0,0:0:0:0:
109,192,50234,1,0,0:0:0:0:
36,192,50234,1,0,0:0:0:0:
402,192,50416,128,2,50507:0:0:0:0:
475,192,50416,128,0,50507:0:0:0:0:
36,192,50416,1,0,0:0:0:0:
256,192,50416,1,0,0:0:0:0:
182,192,50507,1,0,0:0:0:0:
329,192,50598,1,0,0:0:0:0:
109,192,50598,1,0,0:0:0:0:
36,192,50780,1,2,0:0:0:0:
402,192,50780,128,0,50871:0:0:0:0:
475,192,50780,128,0,50871:0:0:0:0:
256,192,50780,1,0,0:0:0:0:
109,192,50871,1,0,0:0:0:0:
182,192,50962,128,0,51143:0:0:0:0:
329,192,50962,1,0,0:0:0:0:
109,192,51052,128,0,51234:0:0:0:0:
36,192,51143,128,2,51325:0:0:0:0:
475,192,51143,1,0,0:0:0:0:
256,192,51143,1,0,0:0:0:0:
402,192,51234,1,0,0:0:0:0:
256,192,51325,128,0,51507:0:0:0:0:
329,192,51325,1,0,0:0:0:0:
36,192,51507,128,2,51689:0:0:0:0:
329,192,51507,1,0,0:0:0:0:
109,192,51598,128,0,51780:0:0:0:0:
402,192,51598,1,0,0:0:0:0:
182,192,51689,128,0,51871:0:0:0:0:
475,192,51689,1,0,0:0:0:0:
402,192,51871,128,2,51962:0:0:0:0:
256,192,51871,128,0,51962:0:0:0:0:
36,192,51871,1,0,0:0:0:0:
329,192,52052,128,0,52143:0:0:0:0:
182,192,52052,128,0,52143:0:0:0:0:
475,192,52052,1,0,0:0:0:0:
475,192,52234,128,2,52507:0:0:0:0:
402,192,52234,128,0,52507:0:0:0:0:
182,192,52234,1,0,0:0:0:0:
329,192,52234,1,0,0:0:0:0:
109,192,52325,1,0,0:0:0:0:
256,192,52416,1,0,0:0:0:0:
36,192,52416,1,0,0:0:0:0:
475,192,52598,128,2,52689:0:0:0:0:
402,192,52598,128,0,52689:0:0:0:0:
329,192,52598,1,0,0:0:0:0:
36,192,52598,1,0,0:0:0:0:
109,192,52689,1,0,0:0:0:0:
256,192,52780,1,0,0:0:0:0:
182,192,52780,1,0,0:0:0:0:
475,192,52962,128,2,53052:0:0:0:0:
402,192,52962,128,0,53052:0:0:0:0:
36,192,52962,1,0,0:0:0:0:
182,192,52962,1,0,0:0:0:0:
182,192,53143,1,0,0:0:0:0:
402,192,53143,1,0,0:0:0:0:
109,192,53234,1,0,0:0:0:0:
329,192,53234,1,0,0:0:0:0:
36,192,53325,1,2,0:0:0:0:
256,192,53325,1,0,0:0:0:0:
475,192,53325,1,0,0:0:0:0:
329,192,53416,1,0,0:0:0:0:
402,192,53507,1,0,0:0:0:0:
182,192,53507,1,0,0:0:0:0:
475,192,53598,1,2,0:0:0:0:
36,192,53598,1,0,0:0:0:0:
256,192,53598,1,0,0:0:0:0:
109,192,53689,1,0,0:0:0:0:
329,192,53689,1,0,0:0:0:0:
182,192,53749,1,0,0:0:0:0:
256,192,53810,1,0,0:0:0:0:
329,192,53871,1,8,0:0:0:0:
402,192,53871,128,0,54234:0:0:0:0:
475,192,53871,128,0,54234:0:0:0:0:
36,192,53871,1,0,0:0:0:0:
36,192,54052,1,8,0:0:0:0:
329,192,54052,1,0,0:0:0:0:
256,192,54052,1,0,0:0:0:0:
182,192,54143,1,0,0:0:0:0:
109,192,54234,1,0,0:0:0:0:
329,192,54234,1,0,0:0:0:0:
36,192,54234,1,0,0:0:0:0:
402,192,54325,1,0,0:0:0:0:
182,192,54325,1,0,0:0:0:0:
475,192,54416,1,2,0:0:0:0:
256,192,54416,1,4,0:0:0:0:
109,192,54416,1,0,0:0:0:0:
36,192,54416,1,0,0:0:0:0:
329,192,54416,1,0,0:0:0:0:
36,192,54598,1,0,0:0:0:0:
402,192,54598,1,0,0:0:0:0:
182,192,54598,1,0,0:0:0:0:
182,192,54780,1,2,0:0:0:0:
475,192,54780,1,0,0:0:0:0:
256,192,54780,1,0,0:0:0:0:
36,192,54780,1,0,0:0:0:0:
329,192,54962,1,0,0:0:0:0:
109,192,54962,1,0,0:0:0:0:
475,192,54962,1,0,0:0:0:0:
36,192,55143,1,2,0:0:0:0:
475,192,55143,1,0,0:0:0:0:
256,192,55143,1,0,0:0:0:0:
329,192,55143,1,0,0:0:0:0:
36,192,55325,1,0,0:0:0:0:
402,192,55325,1,0,0:0:0:0:
182,192,55325,1,0,0:0:0:0:
475,192,55507,1,2,0:0:0:0:
402,192,55507,1,0,0:0:0:0:
182,192,55507,1,0,0:0:0:0:
36,192,55507,1,0,0:0:0:0:
329,192,55568,1,0,0:0:0:0:
256,192,55628,1,0,0:0:0:0:
109,192,55689,1,0,0:0:0:0:
475,192,55689,1,0,0:0:0:0:
182,192,55689,1,0,0:0:0:0:
36,192,55871,1,2,0:0:0:0:
475,192,55871,1,0,0:0:0:0:
402,192,55871,1,0,0:0:0:0:
109,192,55871,1,0,0:0:0:0:
329,192,55931,1,0,0:0:0:0:
256,192,55992,1,0,0:0:0:0:
36,192,56052,1,0,0:0:0:0:
402,192,56052,1,0,0:0:0:0:
182,192,56052,1,0,0:0:0:0:
256,192,56234,1,2,0:0:0:0:
475,192,56234,1,0,0:0:0:0:
109,192,56234,1,0,0:0:0:0:
36,192,56234,1,0,0:0:0:0:
182,192,56416,1,0,0:0:0:0:
329,192,56416,1,0,0:0:0:0:
402,192,56416,1,0,0:0:0:0:
475,192,56598,1,2,0:0:0:0:
256,192,56598,1,0,0:0:0:0:
36,192,56598,1,0,0:0:0:0:
109,192,56598,1,0,0:0:0:0:
475,192,56780,1,0,0:0:0:0:
109,192,56780,1,0,0:0:0:0:
182,192,56780,1,0,0:0:0:0:
329,192,56962,1,2,0:0:0:0:
36,192,56962,1,0,0:0:0:0:
256,192,56962,1,0,0:0:0:0:
402,192,56962,1,0,0:0:0:0:
109,192,57143,1,0,0:0:0:0:
329,192,57143,1,0,0:0:0:0:
475,192,57143,1,0,0:0:0:0:
182,192,57325,1,2,0:0:0:0:
402,192,57325,1,0,0:0:0:0:
36,192,57325,1,0,0:0:0:0:
475,192,57507,128,0,57689:0:0:0:0:
36,192,57507,128,0,57689:0:0:0:0:
402,192,57598,128,0,57780:0:0:0:0:
109,192,57598,128,0,57780:0:0:0:0:
329,192,57689,128,0,57871:0:0:0:0:
182,192,57689,128,2,57871:0:0:0:0:
36,192,57871,1,0,0:0:0:0:
475,192,57871,1,0,0:0:0:0:
109,192,57931,1,0,0:0:0:0:
402,192,57931,1,0,0:0:0:0:
182,192,57992,1,0,0:0:0:0:
329,192,57992,1,0,0:0:0:0:
475,192,58052,1,2,0:0:0:0:
256,192,58052,1,0,0:0:0:0:
36,192,58052,1,0,0:0:0:0:
109,192,58234,128,0,58416:0:0:0:0:
402,192,58234,128,0,58416:0:0:0:0:
475,192,58416,1,2,0:0:0:0:
256,192,58416,1,0,0:0:0:0:
36,192,58416,1,0,0:0:0:0:
182,192,58598,128,0,58780:0:0:0:0:
329,192,58598,128,0,58780:0:0:0:0:
475,192,58780,1,2,0:0:0:0:
402,192,58780,1,4,0:0:0:0:
36,192,58780,1,0,0:0:0:0:
109,192,58780,1,0,0:0:0:0:
475,192,58962,1,0,0:0:0:0:
182,192,58962,1,0,0:0:0:0:
36,192,58962,1,0,0:0:0:0:
256,192,59143,1,2,0:0:0:0:
109,192,59143,1,0,0:0:0:0:
329,192,59143,1,0,0:0:0:0:
475,192,59143,1,0,0:0:0:0:
329,192,59325,1,0,0:0:0:0:
402,192,59325,1,0,0:0:0:0:
109,192,59325,1,0,0:0:0:0:
475,192,59507,1,2,0:0:0:0:
256,192,59507,1,2,0:0:0:0:
36,192,59507,1,0,0:0:0:0:
182,192,59507,1,0,0:0:0:0:
329,192,59689,1,0,0:0:0:0:
109,192,59689,1,0,0:0:0:0:
402,192,59689,1,0,0:0:0:0:
36,192,59871,1,0,0:0:0:0:
109,192,59871,1,2,0:0:0:0:
329,192,59871,1,0,0:0:0:0:
475,192,59871,1,0,0:0:0:0:
182,192,59931,1,0,0:0:0:0:
256,192,59992,1,0,0:0:0:0:
109,192,60052,1,0,0:0:0:0:
475,192,60052,1,0,0:0:0:0:
329,192,60052,1,0,0:0:0:0:
475,192,60234,1,2,0:0:0:0:
36,192,60234,1,0,0:0:0:0:
109,192,60234,1,0,0:0:0:0:
402,192,60234,1,0,0:0:0:0:
182,192,60295,1,0,0:0:0:0:
256,192,60355,1,0,0:0:0:0:
402,192,60416,1,0,0:0:0:0:
329,192,60416,1,0,0:0:0:0:
36,192,60416,1,0,0:0:0:0:
36,192,60598,1,2,0:0:0:0:
329,192,60598,1,0,0:0:0:0:
475,192,60598,1,0,0:0:0:0:
182,192,60598,1,0,0:0:0:0:
329,192,60780,1,0,0:0:0:0:
402,192,60780,1,0,0:0:0:0:
109,192,60780,1,0,0:0:0:0:
182,192,60962,1,2,0:0:0:0:
256,192,60962,1,0,0:0:0:0:
36,192,60962,1,0,0:0:0:0:
475,192,60962,1,0,0:0:0:0:
182,192,61143,1,0,0:0:0:0:
402,192,61143,1,0,0:0:0:0:
329,192,61143,1,0,0:0:0:0:
36,192,61325,1,2,0:0:0:0:
256,192,61325,1,0,0:0:0:0:
475,192,61325,1,0,0:0:0:0:
402,192,61325,1,0,0:0:0:0:
36,192,61507,1,0,0:0:0:0:
182,192,61507,1,0,0:0:0:0:
329,192,61507,1,0,0:0:0:0:
182,192,61689,1,2,0:0:0:0:
402,192,61689,1,0,0:0:0:0:
109,192,61689,1,0,0:0:0:0:
475,192,61689,1,0,0:0:0:0:
182,192,61871,1,2,0:0:0:0:
36,192,61871,1,0,0:0:0:0:
402,192,61871,1,0,0:0:0:0:
475,192,61871,1,0,0:0:0:0:
256,192,61962,1,0,0:0:0:0:
36,192,62052,1,2,0:0:0:0:
402,192,62052,1,0,0:0:0:0:
475,192,62052,1,0,0:0:0:0:
329,192,62052,1,0,0:0:0:0:
36,192,62234,1,0,0:0:0:0:
329,192,62234,1,0,0:0:0:0:
475,192,62234,1,0,0:0:0:0:
109,192,62295,1,0,0:0:0:0:
182,192,62355,1,0,0:0:0:0:
256,192,62416,1,2,0:0:0:0:
36,192,62416,1,0,0:0:0:0:
329,192,62416,1,0,0:0:0:0:
475,192,62416,1,0,0:0:0:0:
36,192,62598,1,8,0:0:0:0:
475,192,62598,1,0,0:0:0:0:
109,192,62643,1,8,0:0:0:0:
402,192,62643,1,0,0:0:0:0:
182,192,62689,1,8,0:0:0:0:
329,192,62689,1,0,0:0:0:0:
256,192,62734,1,8,0:0:0:0:
475,192,62780,1,2,0:0:0:0:
36,192,62780,1,0,0:0:0:0:
109,192,62780,1,0,0:0:0:0:
402,192,62780,1,0,0:0:0:0:
182,192,62962,1,0,0:0:0:0:
36,192,62962,1,0,0:0:0:0:
256,192,63052,1,0,0:0:0:0:
402,192,63052,1,0,0:0:0:0:
109,192,63143,1,2,0:0:0:0:
36,192,63143,1,4,0:0:0:0:
475,192,63143,1,0,0:0:0:0:
329,192,63143,1,0,0:0:0:0:
182,192,63143,1,0,0:0:0:0:
475,192,63507,1,8,0:0:0:0:
36,192,63507,128,0,64234:0:0:0:0:
329,192,63507,1,0,0:0:0:0:
256,192,63689,1,2,0:0:0:0:
402,192,63689,1,0,0:0:0:0:
109,192,63871,128,8,64234:0:0:0:0:
182,192,63871,1,0,0:0:0:0:
475,192,64052,1,8,0:0:0:0:
402,192,64052,1,0,0:0:0:0:
182,192,64234,1,2,0:0:0:0:
256,192,64234,128,0,64598:0:0:0:0:
402,192,64234,128,0,64598:0:0:0:0:
475,192,64234,1,0,0:0:0:0:
475,192,64598,128,0,64689:0:0:0:0:
329,192,64598,128,0,64689:0:0:0:0:
109,192,64598,1,0,0:0:0:0:
402,192,64780,128,0,64871:0:0:0:0:
256,192,64780,128,0,64871:0:0:0:0:
329,192,64962,128,2,65052:0:0:0:0:
182,192,64962,128,0,65052:0:0:0:0:
475,192,64962,128,0,65234:0:0:0:0:
36,192,64962,1,0,0:0:0:0:
256,192,65143,128,0,65234:0:0:0:0:
109,192,65143,128,0,65234:0:0:0:0:
36,192,65325,1,4,0:0:0:0:
182,192,65325,1,2,0:0:0:0:
475,192,65325,1,0,0:0:0:0:
402,192,65325,1,0,0:0:0:0:
256,192,65507,1,0,0:0:0:0:
109,192,65689,128,8,66416:0:0:0:0:
475,192,65689,1,0,0:0:0:0:
329,192,65689,1,0,0:0:0:0:
402,192,65871,1,2,0:0:0:0:
256,192,65871,1,0,0:0:0:0:
182,192,66052,128,8,66416:0:0:0:0:
329,192,66052,1,0,0:0:0:0:
329,192,66234,1,8,0:0:0:0:
475,192,66234,1,0,0:0:0:0:
256,192,66416,1,2,0:0:0:0:
36,192,66416,1,0,0:0:0:0:
329,192,66416,128,0,66780:0:0:0:0:
475,192,66416,128,0,66780:0:0:0:0:
182,192,66780,128,0,66871:0:0:0:0:
36,192,66780,128,0,66871:0:0:0:0:
402,192,66780,1,0,0:0:0:0:
109,192,66962,128,0,67052:0:0:0:0:
256,192,66962,128,0,67052:0:0:0:0:
182,192,67143,128,2,67416:0:0:0:0:
329,192,67143,128,0,67416:0:0:0:0:
475,192,67143,1,0,0:0:0:0:
36,192,67143,1,0,0:0:0:0:
329,192,67507,1,2,0:0:0:0:
475,192,67507,1,0,0:0:0:0:
256,192,67507,1,0,0:0:0:0:
182,192,67507,1,4,0:0:0:0:
36,192,67507,1,0,0:0:0:0:
475,192,67871,128,8,68598:0:0:0:0:
36,192,67871,1,0,0:0:0:0:
182,192,67871,1,0,0:0:0:0:
109,192,68052,1,2,0:0:0:0:
256,192,68052,1,0,0:0:0:0:
402,192,68234,128,8,68598:0:0:0:0:
329,192,68234,1,0,0:0:0:0:
256,192,68416,1,8,0:0:0:0:
109,192,68416,1,0,0:0:0:0:
182,192,68598,1,2,0:0:0:0:
36,192,68598,1,0,0:0:0:0:
329,192,68598,128,0,68962:0:0:0:0:
109,192,68598,128,0,68962:0:0:0:0:
182,192,68962,128,0,69052:0:0:0:0:
36,192,68962,128,0,69052:0:0:0:0:
475,192,68962,1,0,0:0:0:0:
109,192,69143,128,0,69234:0:0:0:0:
256,192,69143,128,0,69234:0:0:0:0:
182,192,69325,128,2,69416:0:0:0:0:
329,192,69325,128,0,69416:0:0:0:0:
36,192,69325,128,0,69598:0:0:0:0:
475,192,69325,128,0,69598:0:0:0:0:
256,192,69507,128,0,69598:0:0:0:0:
402,192,69507,128,0,69598:0:0:0:0:
475,192,69689,1,4,0:0:0:0:
182,192,69689,1,2,0:0:0:0:
36,192,69689,1,0,0:0:0:0:
402,192,69689,1,0,0:0:0:0:
256,192,69780,1,0,0:0:0:0:
329,192,69871,1,0,0:0:0:0:
109,192,69871,1,0,0:0:0:0:
475,192,70052,1,2,0:0:0:0:
182,192,70052,1,0,0:0:0:0:
36,192,70052,1,0,0:0:0:0:
256,192,70052,1,0,0:0:0:0:
402,192,70143,1,0,0:0:0:0:
329,192,70234,1,0,0:0:0:0:
109,192,70234,1,0,0:0:0:0:
36,192,70416,1,2,0:0:0:0:
475,192,70416,1,0,0:0:0:0:
402,192,70416,1,0,0:0:0:0:
256,192,70416,1,0,0:0:0:0:
109,192,70507,1,0,0:0:0:0:
182,192,70598,1,0,0:0:0:0:
402,192,70598,128,0,70780:0:0:0:0:
109,192,70689,1,0,0:0:0:0:
329,192,70689,128,0,70871:0:0:0:0:
36,192,70780,1,2,0:0:0:0:
256,192,70780,128,0,70962:0:0:0:0:
475,192,70780,1,0,0:0:0:0:
475,192,70962,1,0,0:0:0:0:
36,192,70962,1,0,0:0:0:0:
402,192,71022,1,0,0:0:0:0:
109,192,71022,1,0,0:0:0:0:
329,192,71083,1,0,0:0:0:0:
182,192,71083,1,0,0:0:0:0:
256,192,71143,1,2,0:0:0:0:
36,192,71143,1,0,0:0:0:0:
475,192,71143,1,0,0:0:0:0:
475,192,71325,128,0,71780:0:0:0:0:
329,192,71325,1,0,0:0:0:0:
182,192,71325,1,0,0:0:0:0:
36,192,71507,1,8,0:0:0:0:
182,192,71507,1,0,0:0:0:0:
256,192,71598,1,8,0:0:0:0:
402,192,71598,1,0,0:0:0:0:
182,192,71689,1,8,0:0:0:0:
36,192,71689,1,0,0:0:0:0:
256,192,71780,1,8,0:0:0:0:
402,192,71780,1,0,0:0:0:0:
109,192,71871,1,2,0:0:0:0:
36,192,71871,1,4,0:0:0:0:
329,192,71871,1,0,0:0:0:0:
475,192,71871,1,0,0:0:0:0:
402,192,72052,1,0,0:0:0:0:
256,192,72052,1,0,0:0:0:0:
182,192,72234,128,2,72689:0:0:0:0:
36,192,72234,128,0,72962:0:0:0:0:
329,192,72234,1,0,0:0:0:0:
402,192,72416,1,0,0:0:0:0:
329,192,72598,128,2,72780:0:0:0:0:
475,192,72598,128,0,72871:0:0:0:0:
182,192,72780,1,0,0:0:0:0:
329,192,72871,1,0,0:0:0:0:
402,192,72916,1,0,0:0:0:0:
475,192,72962,1,2,0:0:0:0:
109,192,72962,1,0,0:0:0:0:
182,192,72962,128,0,73325:0:0:0:0:
256,192,72962,1,0,0:0:0:0:
402,192,73143,1,0,0:0:0:0:
475,192,73325,128,2,73416:0:0:0:0:
329,192,73325,128,0,73416:0:0:0:0:
109,192,73325,1,0,0:0:0:0:
402,192,73507,128,0,73598:0:0:0:0:
256,192,73507,128,0,73598:0:0:0:0:
329,192,73689,128,8,73780:0:0:0:0:
182,192,73689,128,0,73780:0:0:0:0:
36,192,73689,1,0,0:0:0:0:
475,192,73689,1,0,0:0:0:0:
256,192,73871,128,0,73962:0:0:0:0:
109,192,73871,128,0,73962:0:0:0:0:
36,192,74052,1,2,0:0:0:0:
109,192,74052,1,0,0:0:0:0:
256,192,74052,1,0,0:0:0:0:
475,192,74052,1,0,0:0:0:0:
182,192,74234,1,0,0:0:0:0:
402,192,74234,1,0,0:0:0:0:
475,192,74416,128,2,75052:0:0:0:0:
329,192,74416,128,0,75052:0:0:0:0:
36,192,74416,1,0,0:0:0:0:
256,192,74416,1,0,0:0:0:0:
109,192,74507,1,0,0:0:0:0:
182,192,74598,1,0,0:0:0:0:
182,192,74780,128,2,75052:0:0:0:0:
36,192,74780,128,0,75052:0:0:0:0:
256,192,74780,1,0,0:0:0:0:
475,192,75143,1,2,0:0:0:0:
36,192,75143,1,0,0:0:0:0:
109,192,75143,128,0,75507:0:0:0:0:
402,192,75143,128,0,75507:0:0:0:0:
256,192,75143,1,0,0:0:0:0:
475,192,75507,1,2,0:0:0:0:
256,192,75507,1,0,0:0:0:0:
36,192,75507,1,0,0:0:0:0:
109,192,75598,1,8,0:0:0:0:
402,192,75598,1,0,0:0:0:0:
182,192,75689,1,8,0:0:0:0:
329,192,75689,1,0,0:0:0:0:
256,192,75749,1,0,0:0:0:0:
329,192,75810,1,0,0:0:0:0:
402,192,75871,1,2,0:0:0:0:
475,192,75871,128,0,76143:0:0:0:0:
36,192,75871,128,0,76143:0:0:0:0:
109,192,75871,1,0,0:0:0:0:
182,192,75871,1,0,0:0:0:0:
36,192,76234,1,2,0:0:0:0:
109,192,76234,1,4,0:0:0:0:
256,192,76234,1,0,0:0:0:0:
475,192,76234,1,0,0:0:0:0:
402,192,76234,1,0,0:0:0:0:
329,192,76416,1,0,0:0:0:0:
182,192,76416,1,0,0:0:0:0:
36,192,76598,128,2,77234:0:0:0:0:
109,192,76598,128,0,77234:0:0:0:0:
256,192,76598,1,0,0:0:0:0:
475,192,76598,1,0,0:0:0:0:
402,192,76689,1,0,0:0:0:0:
329,192,76780,1,0,0:0:0:0:
402,192,76962,128,8,77234:0:0:0:0:
475,192,76962,128,0,77234:0:0:0:0:
256,192,76962,1,0,0:0:0:0:
182,192,77325,128,2,77689:0:0:0:0:
36,192,77325,128,0,77689:0:0:0:0:
475,192,77325,1,0,0:0:0:0:
402,192,77325,1,0,0:0:0:0:
256,192,77689,128,2,77780:0:0:0:0:
402,192,77689,128,0,77780:0:0:0:0:
475,192,77689,1,0,0:0:0:0:
475,192,77871,128,0,77962:0:0:0:0:
329,192,77871,128,0,77962:0:0:0:0:
256,192,78052,128,8,78143:0:0:0:0:
109,192,78052,128,0,78143:0:0:0:0:
475,192,78052,1,0,0:0:0:0:
329,192,78052,1,0,0:0:0:0:
182,192,78234,128,0,78325:0:0:0:0:
36,192,78234,128,0,78325:0:0:0:0:
329,192,78416,128,2,79143:0:0:0:0:
182,192,78416,1,4,0:0:0:0:
36,192,78416,1,0,0:0:0:0:
475,192,78780,128,0,79143:0:0:0:0:
109,192,78780,1,0,0:0:0:0:
475,192,79325,1,0,0:0:0:0:
402,192,79386,1,0,0:0:0:0:
329,192,79446,1,0,0:0:0:0:
36,192,79507,128,0,79780:0:0:0:0:
182,192,79507,128,0,79780:0:0:0:0:
256,192,79507,1,0,0:0:0:0:
329,192,79871,128,0,80143:0:0:0:0:
36,192,79871,128,0,80143:0:0:0:0:
182,192,79871,128,0,80143:0:0:0:0:
475,192,80234,128,0,80507:0:0:0:0:
36,192,80234,128,0,80507:0:0:0:0:
329,192,80234,128,0,80507:0:0:0:0:
182,192,80234,128,0,80507:0:0:0:0:
475,192,80598,1,2,0:0:0:0:
256,192,80598,1,4,0:0:0:0:
329,192,80598,1,0,0:0:0:0:
182,192,80598,1,0,0:0:0:0:
36,192,80598,1,0,0:0:0:0:
475,192,80780,1,0,0:0:0:0:
402,192,80780,1,0,0:0:0:0:
182,192,80780,1,0,0:0:0:0:
109,192,80962,1,2,0:0:0:0:
36,192,80962,1,0,0:0:0:0:
329,192,80962,1,0,0:0:0:0:
475,192,80962,1,0,0:0:0:0:
402,192,81143,1,0,0:0:0:0:
182,192,81143,1,0,0:0:0:0:
109,192,81143,1,0,0:0:0:0:
182,192,81325,1,8,0:0:0:0:
475,192,81325,1,0,0:0:0:0:
256,192,81325,1,0,0:0:0:0:
329,192,81325,1,0,0:0:0:0:
402,192,81507,1,0,0:0:0:0:
36,192,81507,1,0,0:0:0:0:
256,192,81507,1,0,0:0:0:0:
475,192,81689,1,2,0:0:0:0:
329,192,81689,1,0,0:0:0:0:
182,192,81689,1,0,0:0:0:0:
109,192,81689,1,0,0:0:0:0:
402,192,81871,1,0,0:0:0:0:
256,192,81871,1,0,0:0:0:0:
36,192,81871,1,0,0:0:0:0:
182,192,82052,128,2,82143:0:0:0:0:
36,192,82052,128,0,82143:0:0:0:0:
329,192,82052,1,0,0:0:0:0:
109,192,82234,128,0,82325:0:0:0:0:
256,192,82234,128,0,82325:0:0:0:0:
402,192,82234,1,0,0:0:0:0:
475,192,82416,128,8,82507:0:0:0:0:
329,192,82416,128,0,82507:0:0:0:0:
36,192,82416,1,0,0:0:0:0:
402,192,82598,128,0,82689:0:0:0:0:
256,192,82598,128,0,82689:0:0:0:0:
109,192,82598,1,0,0:0:0:0:
182,192,82780,128,0,82962:0:0:0:0:
329,192,82780,128,0,82962:0:0:0:0:
256,192,82780,1,2,0:0:0:0:
475,192,82780,1,0,0:0:0:0:
36,192,82780,1,0,0:0:0:0:
36,192,82962,1,0,0:0:0:0:
475,192,82962,1,0,0:0:0:0:
109,192,83022,1,0,0:0:0:0:
402,192,83022,1,0,0:0:0:0:
182,192,83083,1,0,0:0:0:0:
329,192,83083,1,0,0:0:0:0:
475,192,83143,1,2,0:0:0:0:
36,192,83143,1,0,0:0:0:0:
256,192,83143,1,0,0:0:0:0:
402,192,83325,1,0,0:0:0:0:
256,192,83325,1,0,0:0:0:0:
109,192,83325,1,0,0:0:0:0:
329,192,83507,1,8,0:0:0:0:
36,192,83507,1,0,0:0:0:0:
475,192,83507,1,0,0:0:0:0:
109,192,83507,1,0,0:0:0:0:
182,192,83689,1,0,0:0:0:0:
256,192,83689,1,0,0:0:0:0:
402,192,83689,1,0,0:0:0:0:
36,192,83871,128,2,84234:0:0:0:0:
329,192,83871,128,0,84234:0:0:0:0:
475,192,83871,1,0,0:0:0:0:
109,192,83871,1,0,0:0:0:0:
475,192,84234,1,2,0:0:0:0:
182,192,84234,1,0,0:0:0:0:
109,192,84416,1,0,0:0:0:0:
402,192,84416,128,0,84780:0:0:0:0:
182,192,84598,1,8,0:0:0:0:
36,192,84598,1,0,0:0:0:0:
475,192,84598,1,0,0:0:0:0:
329,192,84598,128,0,84780:0:0:0:0:
109,192,84780,1,0,0:0:0:0:
256,192,84780,1,0,0:0:0:0:
475,192,84962,1,2,0:0:0:0:
402,192,84962,1,4,0:0:0:0:
182,192,84962,1,0,0:0:0:0:
36,192,84962,1,0,0:0:0:0:
329,192,85143,1,0,0:0:0:0:
109,192,85143,1,0,0:0:0:0:
475,192,85143,1,0,0:0:0:0:
329,192,85325,1,2,0:0:0:0:
475,192,85325,1,0,0:0:0:0:
256,192,85325,1,0,0:0:0:0:
36,192,85325,1,0,0:0:0:0:
182,192,85507,1,0,0:0:0:0:
256,192,85507,1,0,0:0:0:0:
402,192,85507,1,0,0:0:0:0:
109,192,85689,1,8,0:0:0:0:
182,192,85689,1,0,0:0:0:0:
329,192,85689,1,0,0:0:0:0:
36,192,85689,1,0,0:0:0:0:
475,192,85871,1,0,0:0:0:0:
256,192,85871,1,0,0:0:0:0:
36,192,85871,1,0,0:0:0:0:
36,192,86052,128,2,86416:0:0:0:0:
182,192,86052,128,0,86416:0:0:0:0:
402,192,86052,1,0,0:0:0:0:
475,192,86052,1,0,0:0:0:0:
256,192,86234,1,0,0:0:0:0:
329,192,86234,1,0,0:0:0:0:
402,192,86325,1,0,0:0:0:0:
475,192,86416,1,2,0:0:0:0:
256,192,86416,1,0,0:0:0:0:
109,192,86416,1,0,0:0:0:0:
329,192,86507,1,0,0:0:0:0:
182,192,86507,1,0,0:0:0:0:
402,192,86598,128,0,86962:0:0:0:0:
256,192,86598,128,0,86962:0:0:0:0:
36,192,86780,128,8,86962:0:0:0:0:
109,192,86780,128,0,86962:0:0:0:0:
475,192,86780,128,0,86962:0:0:0:0:
182,192,86962,1,0,0:0:0:0:
329,192,86962,1,0,0:0:0:0:
256,192,87052,1,0,0:0:0:0:
402,192,87052,1,0,0:0:0:0:
329,192,87143,128,2,87689:0:0:0:0:
475,192,87143,128,0,87689:0:0:0:0:
36,192,87143,1,0,0:0:0:0:
109,192,87143,1,0,0:0:0:0:
182,192,87234,1,0,0:0:0:0:
256,192,87325,1,0,0:0:0:0:
36,192,87325,1,0,0:0:0:0:
109,192,87416,1,0,0:0:0:0:
182,192,87507,1,2,0:0:0:0:
402,192,87507,1,0,0:0:0:0:
109,192,87598,1,0,0:0:0:0:
256,192,87689,1,0,0:0:0:0:
36,192,87689,1,0,0:0:0:0:
329,192,87871,1,8,0:0:0:0:
475,192,87871,1,0,0:0:0:0:
182,192,87871,1,0,0:0:0:0:
36,192,87871,1,0,0:0:0:0:
402,192,88052,1,0,0:0:0:0:
109,192,88052,1,0,0:0:0:0:
256,192,88052,1,0,0:0:0:0:
109,192,88234,1,2,0:0:0:0:
36,192,88234,1,0,0:0:0:0:
475,192,88234,1,0,0:0:0:0:
402,192,88234,1,0,0:0:0:0:
182,192,88325,1,0,0:0:0:0:
329,192,88325,1,0,0:0:0:0:
402,192,88416,1,0,0:0:0:0:
109,192,88416,1,0,0:0:0:0:
475,192,88507,1,0,0:0:0:0:
36,192,88507,1,0,0:0:0:0:
256,192,88507,1,2,0:0:0:0:
329,192,88598,1,2,0:0:0:0:
182,192,88598,1,0,0:0:0:0:
402,192,88689,1,0,0:0:0:0:
109,192,88689,1,0,0:0:0:0:
36,192,88780,1,0,0:0:0:0:
475,192,88780,1,2,0:0:0:0:
256,192,88780,1,0,0:0:0:0:
402,192,88962,1,8,0:0:0:0:
475,192,88962,1,0,0:0:0:0:
109,192,88962,1,0,0:0:0:0:
36,192,88962,1,0,0:0:0:0:
329,192,89052,1,0,0:0:0:0:
182,192,89052,1,0,0:0:0:0:
36,192,89143,1,0,0:0:0:0:
475,192,89143,1,0,0:0:0:0:
256,192,89143,1,2,0:0:0:0:
329,192,89234,1,0,0:0:0:0:
182,192,89234,1,0,0:0:0:0:
109,192,89325,1,2,0:0:0:0:
36,192,89325,1,4,0:0:0:0:
256,192,89325,1,0,0:0:0:0:
402,192,89325,128,0,89598:0:0:0:0:
475,192,89325,128,0,89598:0:0:0:0:
182,192,89507,128,0,89780:0:0:0:0:
36,192,89507,128,0,89780:0:0:0:0:
475,192,89689,128,2,89871:0:0:0:0:
329,192,89689,128,0,89871:0:0:0:0:
109,192,89871,128,0,90052:0:0:0:0:
256,192,89871,128,0,90052:0:0:0:0:
36,192,90052,128,8,90234:0:0:0:0:
475,192,90052,128,0,90234:0:0:0:0:
402,192,90052,128,0,90234:0:0:0:0:
182,192,90234,128,0,90416:0:0:0:0:
329,192,90234,128,0,90416:0:0:0:0:
36,192,90416,128,2,90689:0:0:0:0:
109,192,90416,128,0,90689:0:0:0:0:
475,192,90416,1,0,0:0:0:0:
475,192,90598,128,0,90780:0:0:0:0:
402,192,90598,128,0,90780:0:0:0:0:
36,192,90780,128,2,90871:0:0:0:0:
182,192,90780,128,0,90871:0:0:0:0:
109,192,90962,128,0,91052:0:0:0:0:
256,192,90962,128,0,91052:0:0:0:0:
329,192,91143,128,8,91234:0:0:0:0:
475,192,91143,128,0,91234:0:0:0:0:
36,192,91143,1,0,0:0:0:0:
109,192,91143,1,0,0:0:0:0:
402,192,91325,128,0,91416:0:0:0:0:
256,192,91325,128,0,91416:0:0:0:0:
475,192,91507,1,2,0:0:0:0:
256,192,91507,1,0,0:0:0:0:
329,192,91507,128,0,91689:0:0:0:0:
182,192,91507,128,0,91689:0:0:0:0:
36,192,91507,1,0,0:0:0:0:
36,192,91689,1,0,0:0:0:0:
475,192,91689,1,0,0:0:0:0:
402,192,91749,1,0,0:0:0:0:
109,192,91749,1,0,0:0:0:0:
182,192,91810,1,0,0:0:0:0:
329,192,91810,1,0,0:0:0:0:
36,192,91871,1,2,0:0:0:0:
475,192,91871,1,0,0:0:0:0:
256,192,91871,1,0,0:0:0:0:
402,192,92052,1,0,0:0:0:0:
256,192,92052,1,0,0:0:0:0:
109,192,92052,1,0,0:0:0:0:
109,192,92234,1,8,0:0:0:0:
329,192,92234,1,0,0:0:0:0:
475,192,92234,1,0,0:0:0:0:
36,192,92234,1,0,0:0:0:0:
182,192,92416,1,0,0:0:0:0:
402,192,92416,1,0,0:0:0:0:
256,192,92416,1,0,0:0:0:0:
36,192,92598,128,2,92962:0:0:0:0:
182,192,92598,128,0,92962:0:0:0:0:
475,192,92598,1,0,0:0:0:0:
402,192,92598,1,0,0:0:0:0:
329,192,92962,1,2,0:0:0:0:
475,192,92962,1,0,0:0:0:0:
109,192,93143,128,0,93234:0:0:0:0:
256,192,93143,128,0,93234:0:0:0:0:
182,192,93325,128,8,93416:0:0:0:0:
329,192,93325,128,0,93416:0:0:0:0:
475,192,93325,1,0,0:0:0:0:
36,192,93325,1,0,0:0:0:0:
256,192,93507,128,0,93598:0:0:0:0:
402,192,93507,128,0,93598:0:0:0:0:
475,192,93689,1,4,0:0:0:0:
256,192,93689,1,2,0:0:0:0:
402,192,93689,1,0,0:0:0:0:
36,192,93689,128,0,93962:0:0:0:0:
109,192,93689,128,0,93962:0:0:0:0:
329,192,93871,128,0,94143:0:0:0:0:
475,192,93871,128,0,94143:0:0:0:0:
182,192,94052,128,2,94325:0:0:0:0:
36,192,94052,128,0,94325:0:0:0:0:
402,192,94234,128,0,94416:0:0:0:0:
475,192,94234,128,0,94416:0:0:0:0:
182,192,94416,128,8,94598:0:0:0:0:
329,192,94416,128,0,94598:0:0:0:0:
36,192,94416,128,0,94598:0:0:0:0:
256,192,94598,128,0,94780:0:0:0:0:
109,192,94598,128,0,94780:0:0:0:0:
475,192,94780,128,2,95507:0:0:0:0:
329,192,94780,128,0,95052:0:0:0:0:
182,192,94780,128,0,95052:0:0:0:0:
329,192,95143,1,2,0:0:0:0:
36,192,95143,1,0,0:0:0:0:
402,192,95143,1,0,0:0:0:0:
182,192,95234,1,0,0:0:0:0:
109,192,95280,1,0,0:0:0:0:
36,192,95325,128,0,95689:0:0:0:0:
109,192,95507,128,8,95689:0:0:0:0:
256,192,95507,128,0,95689:0:0:0:0:
402,192,95507,128,0,95689:0:0:0:0:
182,192,95689,128,0,95871:0:0:0:0:
329,192,95689,128,0,95871:0:0:0:0:
475,192,95871,128,2,96416:0:0:0:0:
109,192,95871,1,0,0:0:0:0:
36,192,95871,1,0,0:0:0:0:
402,192,95871,1,0,0:0:0:0:
329,192,96052,1,0,0:0:0:0:
182,192,96052,1,0,0:0:0:0:
256,192,96234,1,2,0:0:0:0:
36,192,96234,1,0,0:0:0:0:
402,192,96234,1,0,0:0:0:0:
109,192,96416,1,0,0:0:0:0:
329,192,96416,1,0,0:0:0:0:
475,192,96598,1,8,0:0:0:0:
402,192,96598,1,0,0:0:0:0:
36,192,96598,1,0,0:0:0:0:
182,192,96598,128,0,96962:0:0:0:0:
329,192,96780,1,0,0:0:0:0:
36,192,96962,1,2,0:0:0:0:
475,192,96962,1,0,0:0:0:0:
329,192,96962,1,0,0:0:0:0:
109,192,97052,1,0,0:0:0:0:
182,192,97143,1,8,0:0:0:0:
475,192,97143,1,0,0:0:0:0:
329,192,97234,1,8,0:0:0:0:
256,192,97234,1,0,0:0:0:0:
475,192,97325,1,2,0:0:0:0:
36,192,97325,1,0,0:0:0:0:
109,192,97325,1,0,0:0:0:0:
182,192,97416,1,8,0:0:0:0:
402,192,97416,1,0,0:0:0:0:
36,192,97507,1,8,0:0:0:0:
329,192,97507,1,0,0:0:0:0:
36,192,97689,1,8,0:0:0:0:
475,192,97689,1,0,0:0:0:0:
182,192,97689,1,0,0:0:0:0:
402,192,97689,1,0,0:0:0:0:
109,192,97780,1,8,0:0:0:0:
256,192,97780,1,0,0:0:0:0:
182,192,97871,1,8,0:0:0:0:
329,192,97871,1,0,0:0:0:0:
256,192,97962,1,8,0:0:0:0:
402,192,97962,1,0,0:0:0:0:
329,192,98052,1,2,0:0:0:0:
109,192,98052,1,4,0:0:0:0:
36,192,98052,1,0,0:0:0:0:
475,192,98052,128,0,99780:0:0:0:0:
182,192,98234,1,0,0:0:0:0:
329,192,98234,1,0,0:0:0:0:
36,192,98416,1,2,0:0:0:0:
402,192,98416,1,0,0:0:0:0:
256,192,98416,1,0,0:0:0:0:
182,192,98598,1,0,0:0:0:0:
402,192,98598,1,0,0:0:0:0:
36,192,98780,1,8,0:0:0:0:
329,192,98780,1,0,0:0:0:0:
109,192,98780,1,0,0:0:0:0:
182,192,98962,1,0,0:0:0:0:
329,192,98962,1,0,0:0:0:0:
36,192,99143,1,2,0:0:0:0:
402,192,99143,1,0,0:0:0:0:
256,192,99143,1,0,0:0:0:0:
182,192,99325,1,0,0:0:0:0:
402,192,99325,1,0,0:0:0:0:
36,192,99507,1,2,0:0:0:0:
109,192,99507,1,0,0:0:0:0:
329,192,99507,1,0,0:0:0:0:
182,192,99689,1,0,0:0:0:0:
329,192,99689,1,0,0:0:0:0:
36,192,99871,1,8,0:0:0:0:
256,192,99871,1,0,0:0:0:0:
475,192,99871,1,0,0:0:0:0:
402,192,99871,1,0,0:0:0:0:
329,192,100052,1,0,0:0:0:0:
182,192,100052,1,0,0:0:0:0:
36,192,100052,1,0,0:0:0:0:
109,192,100234,128,2,101325:0:0:0:0:
475,192,100234,1,0,0:0:0:0:
36,192,100234,1,0,0:0:0:0:
256,192,100234,1,0,0:0:0:0:
329,192,100416,1,0,0:0:0:0:
402,192,100416,1,0,0:0:0:0:
475,192,100598,1,2,0:0:0:0:
182,192,100598,1,0,0:0:0:0:
36,192,100598,1,0,0:0:0:0:
402,192,100689,1,0,0:0:0:0:
329,192,100780,1,0,0:0:0:0:
256,192,100780,1,0,0:0:0:0:
475,192,100962,1,8,0:0:0:0:
36,192,100962,1,0,0:0:0:0:
182,192,100962,1,0,0:0:0:0:
256,192,101052,1,0,0:0:0:0:
329,192,101143,1,0,0:0:0:0:
402,192,101143,1,0,0:0:0:0:
256,192,101325,128,2,102416:0:0:0:0:
475,192,101325,1,0,0:0:0:0:
36,192,101325,1,0,0:0:0:0:
329,192,101325,1,0,0:0:0:0:
109,192,101416,1,0,0:0:0:0:
182,192,101507,1,0,0:0:0:0:
402,192,101507,1,0,0:0:0:0:
475,192,101689,1,2,0:0:0:0:
182,192,101689,1,0,0:0:0:0:
109,192,101780,1,0,0:0:0:0:
36,192,101871,1,0,0:0:0:0:
329,192,101871,1,0,0:0:0:0:
475,192,102052,1,8,0:0:0:0:
36,192,102052,1,0,0:0:0:0:
329,192,102143,1,0,0:0:0:0:
109,192,102143,1,0,0:0:0:0:
475,192,102234,1,0,0:0:0:0:
182,192,102234,1,0,0:0:0:0:
329,192,102325,1,0,0:0:0:0:
109,192,102325,1,0,0:0:0:0:
402,192,102416,1,2,0:0:0:0:
475,192,102416,1,0,0:0:0:0:
36,192,102416,1,0,0:0:0:0:
182,192,102416,1,0,0:0:0:0:
329,192,102598,1,0,0:0:0:0:
475,192,102598,1,0,0:0:0:0:
36,192,102689,1,2,0:0:0:0:
182,192,102689,1,0,0:0:0:0:
402,192,102689,1,0,0:0:0:0:
256,192,102780,1,0,0:0:0:0:
475,192,102780,1,0,0:0:0:0:
329,192,102871,1,0,0:0:0:0:
182,192,102962,1,2,0:0:0:0:
36,192,102962,1,0,0:0:0:0:
402,192,102962,1,0,0:0:0:0:
475,192,103143,1,8,0:0:0:0:
182,192,103143,1,0,0:0:0:0:
36,192,103143,1,0,0:0:0:0:
402,192,103143,1,0,0:0:0:0:
256,192,103234,1,0,0:0:0:0:
109,192,103325,1,0,0:0:0:0:
329,192,103325,1,0,0:0:0:0:
182,192,103507,1,2,0:0:0:0:
36,192,103507,1,0,0:0:0:0:
475,192,103507,1,0,0:0:0:0:
402,192,103689,1,0,0:0:0:0:
256,192,103689,1,0,0:0:0:0:
182,192,103780,1,2,0:0:0:0:
36,192,103780,1,0,0:0:0:0:
475,192,103780,1,0,0:0:0:0:
329,192,103871,1,0,0:0:0:0:
109,192,103871,1,0,0:0:0:0:
256,192,103962,1,0,0:0:0:0:
182,192,104052,1,2,0:0:0:0:
36,192,104052,1,0,0:0:0:0:
475,192,104052,1,0,0:0:0:0:
182,192,104234,1,8,0:0:0:0:
36,192,104234,1,0,0:0:0:0:
475,192,104234,1,0,0:0:0:0:
402,192,104234,1,0,0:0:0:0:
256,192,104325,1,0,0:0:0:0:
402,192,104416,1,0,0:0:0:0:
182,192,104416,1,0,0:0:0:0:
256,192,104507,1,0,0:0:0:0:
329,192,104598,1,2,0:0:0:0:
36,192,104598,1,0,0:0:0:0:
475,192,104598,1,0,0:0:0:0:
182,192,104689,1,0,0:0:0:0:
109,192,104780,1,0,0:0:0:0:
256,192,104780,1,0,0:0:0:0:
329,192,104871,1,2,0:0:0:0:
475,192,104871,1,0,0:0:0:0:
36,192,104871,1,0,0:0:0:0:
182,192,104962,1,0,0:0:0:0:
109,192,105052,1,0,0:0:0:0:
329,192,105143,1,2,0:0:0:0:
475,192,105143,1,0,0:0:0:0:
36,192,105143,1,0,0:0:0:0:
36,192,105325,1,8,0:0:0:0:
109,192,105325,1,0,0:0:0:0:
329,192,105325,1,0,0:0:0:0:
475,192,105325,1,0,0:0:0:0:
256,192,105416,1,0,0:0:0:0:
182,192,105507,1,0,0:0:0:0:
402,192,105507,1,0,0:0:0:0:
36,192,105689,1,2,0:0:0:0:
475,192,105689,1,0,0:0:0:0:
109,192,105689,1,0,0:0:0:0:
256,192,105689,1,0,0:0:0:0:
182,192,105780,1,8,0:0:0:0:
329,192,105780,1,0,0:0:0:0:
475,192,105871,1,8,0:0:0:0:
402,192,105871,1,0,0:0:0:0:
36,192,105871,1,0,0:0:0:0:
109,192,105962,1,2,0:0:0:0:
182,192,105962,1,0,0:0:0:0:
256,192,106052,1,8,0:0:0:0:
329,192,106052,1,0,0:0:0:0:
475,192,106052,1,0,0:0:0:0:
36,192,106143,1,8,0:0:0:0:
109,192,106143,1,0,0:0:0:0:
329,192,106234,1,2,0:0:0:0:
402,192,106234,1,0,0:0:0:0:
475,192,106234,1,0,0:0:0:0:
182,192,106325,1,0,0:0:0:0:
402,192,106416,1,0,0:0:0:0:
256,192,106416,1,0,0:0:0:0:
109,192,106416,1,8,0:0:0:0:
36,192,106507,1,8,0:0:0:0:
475,192,106507,1,0,0:0:0:0:
182,192,106598,1,8,0:0:0:0:
329,192,106598,1,0,0:0:0:0:
109,192,106689,1,8,0:0:0:0:
402,192,106689,1,0,0:0:0:0:
475,192,106780,1,2,0:0:0:0:
256,192,106780,1,4,0:0:0:0:
182,192,106780,1,0,0:0:0:0:
36,192,106780,1,0,0:0:0:0:
329,192,106780,1,0,0:0:0:0:
402,192,106962,1,0,0:0:0:0:
329,192,106962,1,0,0:0:0:0:
36,192,107052,1,0,0:0:0:0:
182,192,107052,1,0,0:0:0:0:
329,192,107143,1,2,0:0:0:0:
475,192,107143,1,0,0:0:0:0:
109,192,107143,1,0,0:0:0:0:
256,192,107234,1,0,0:0:0:0:
182,192,107325,1,0,0:0:0:0:
36,192,107325,1,0,0:0:0:0:
36,192,107507,1,8,0:0:0:0:
182,192,107507,1,0,0:0:0:0:
475,192,107507,1,0,0:0:0:0:
329,192,107507,1,0,0:0:0:0:
402,192,107689,1,0,0:0:0:0:
109,192,107689,1,0,0:0:0:0:
329,192,107871,1,2,0:0:0:0:
475,192,107871,1,0,0:0:0:0:
36,192,107871,1,0,0:0:0:0:
109,192,107871,1,0,0:0:0:0:
402,192,107962,1,0,0:0:0:0:
182,192,107962,1,0,0:0:0:0:
109,192,108052,1,0,0:0:0:0:
256,192,108052,1,0,0:0:0:0:
329,192,108143,1,0,0:0:0:0:
475,192,108143,1,0,0:0:0:0:
182,192,108234,1,2,0:0:0:0:
36,192,108234,1,0,0:0:0:0:
402,192,108234,1,0,0:0:0:0:
256,192,108325,1,0,0:0:0:0:
329,192,108416,1,0,0:0:0:0:
475,192,108416,1,0,0:0:0:0:
256,192,108477,1,0,0:0:0:0:
182,192,108537,1,0,0:0:0:0:
475,192,108598,1,8,0:0:0:0:
329,192,108598,1,0,0:0:0:0:
36,192,108598,1,0,0:0:0:0:
109,192,108598,1,0,0:0:0:0:
256,192,108689,1,0,0:0:0:0:
402,192,108780,1,0,0:0:0:0:
182,192,108780,1,0,0:0:0:0:
329,192,108871,1,0,0:0:0:0:
256,192,108962,1,2,0:0:0:0:
36,192,108962,1,4,0:0:0:0:
475,192,108962,1,0,0:0:0:0:
109,192,108962,1,0,0:0:0:0:
402,192,109143,1,0,0:0:0:0:
182,192,109143,1,0,0:0:0:0:
329,192,109234,1,0,0:0:0:0:
475,192,109234,1,0,0:0:0:0:
109,192,109325,1,2,0:0:0:0:
36,192,109325,1,0,0:0:0:0:
256,192,109325,1,0,0:0:0:0:
402,192,109416,1,0,0:0:0:0:
329,192,109507,1,0,0:0:0:0:
182,192,109507,1,0,0:0:0:0:
36,192,109507,1,0,0:0:0:0:
256,192,109598,1,0,0:0:0:0:
475,192,109689,1,8,0:0:0:0:
402,192,109689,1,0,0:0:0:0:
109,192,109689,1,0,0:0:0:0:
36,192,109689,1,0,0:0:0:0:
182,192,109780,1,0,0:0:0:0:
256,192,109871,1,0,0:0:0:0:
402,192,109871,1,0,0:0:0:0:
329,192,109962,1,0,0:0:0:0:
109,192,109962,1,0,0:0:0:0:
182,192,110052,1,2,0:0:0:0:
36,192,110052,1,0,0:0:0:0:
475,192,110052,1,0,0:0:0:0:
402,192,110052,1,0,0:0:0:0:
256,192,110143,1,0,0:0:0:0:
329,192,110234,1,0,0:0:0:0:
109,192,110234,1,0,0:0:0:0:
475,192,110234,1,0,0:0:0:0:
182,192,110325,1,0,0:0:0:0:
402,192,110325,1,0,0:0:0:0:
36,192,110416,1,2,0:0:0:0:
256,192,110416,1,0,0:0:0:0:
475,192,110416,1,0,0:0:0:0:
109,192,110507,1,0,0:0:0:0:
329,192,110507,1,0,0:0:0:0:
182,192,110598,1,0,0:0:0:0:
402,192,110598,1,0,0:0:0:0:
475,192,110598,1,0,0:0:0:0:
109,192,110689,1,0,0:0:0:0:
329,192,110689,1,0,0:0:0:0:
256,192,110780,1,8,0:0:0:0:
475,192,110780,1,0,0:0:0:0:
36,192,110780,1,0,0:0:0:0:
182,192,110871,1,0,0:0:0:0:
402,192,110871,1,0,0:0:0:0:
329,192,110962,1,0,0:0:0:0:
36,192,110962,1,0,0:0:0:0:
182,192,111052,1,0,0:0:0:0:
475,192,111052,1,0,0:0:0:0:
329,192,111143,1,4,0:0:0:0:
402,192,111143,1,2,0:0:0:0:
109,192,111143,1,0,0:0:0:0:
36,192,111143,1,0,0:0:0:0:
256,192,111143,1,0,0:0:0:0:
329,192,111325,1,0,0:0:0:0:
475,192,111325,1,0,0:0:0:0:
182,192,111416,1,0,0:0:0:0:
36,192,111416,1,0,0:0:0:0:
109,192,111507,1,2,0:0:0:0:
256,192,111507,1,0,0:0:0:0:
402,192,111507,1,0,0:0:0:0:
475,192,111598,1,0,0:0:0:0:
329,192,111689,1,0,0:0:0:0:
182,192,111689,1,0,0:0:0:0:
36,192,111689,1,0,0:0:0:0:
475,192,111871,1,8,0:0:0:0:
402,192,111871,1,0,0:0:0:0:
109,192,111871,1,0,0:0:0:0:
36,192,111871,1,0,0:0:0:0:
182,192,111962,1,0,0:0:0:0:
256,192,112052,1,0,0:0:0:0:
402,192,112052,1,0,0:0:0:0:
109,192,112143,1,0,0:0:0:0:
36,192,112143,1,0,0:0:0:0:
182,192,112234,1,2,0:0:0:0:
475,192,112234,1,0,0:0:0:0:
402,192,112234,1,0,0:0:0:0:
329,192,112234,1,0,0:0:0:0:
256,192,112325,1,0,0:0:0:0:
182,192,112416,1,0,0:0:0:0:
36,192,112416,1,0,0:0:0:0:
402,192,112416,1,0,0:0:0:0:
329,192,112507,1,0,0:0:0:0:
109,192,112507,1,0,0:0:0:0:
182,192,112598,1,2,0:0:0:0:
256,192,112598,1,0,0:0:0:0:
475,192,112598,1,0,0:0:0:0:
402,192,112689,1,0,0:0:0:0:
329,192,112689,1,0,0:0:0:0:
36,192,112780,1,0,0:0:0:0:
475,192,112780,1,0,0:0:0:0:
109,192,112840,1,0,0:0:0:0:
182,192,112901,1,0,0:0:0:0:
256,192,112962,1,8,0:0:0:0:
475,192,112962,1,0,0:0:0:0:
402,192,112962,1,0,0:0:0:0:
36,192,112962,1,0,0:0:0:0:
109,192,113052,1,0,0:0:0:0:
182,192,113143,1,0,0:0:0:0:
329,192,113143,1,0,0:0:0:0:
402,192,113234,1,0,0:0:0:0:
475,192,113325,1,2,0:0:0:0:
256,192,113325,1,4,0:0:0:0:
36,192,113325,1,0,0:0:0:0:
109,192,113325,1,0,0:0:0:0:
329,192,113416,1,0,0:0:0:0:
182,192,113507,1,0,0:0:0:0:
36,192,113507,1,0,0:0:0:0:
256,192,113598,1,0,0:0:0:0:
402,192,113598,1,0,0:0:0:0:
329,192,113689,1,2,0:0:0:0:
475,192,113689,1,4,0:0:0:0:
36,192,113689,1,0,0:0:0:0:
109,192,113689,1,0,0:0:0:0:
182,192,113780,1,0,0:0:0:0:
256,192,113780,1,0,0:0:0:0:
475,192,113871,1,0,0:0:0:0:
329,192,113871,1,0,0:0:0:0:
36,192,113871,1,0,0:0:0:0:
109,192,113962,1,0,0:0:0:0:
402,192,113962,1,0,0:0:0:0:
475,192,114052,1,2,0:0:0:0:
36,192,114052,1,4,0:0:0:0:
329,192,114052,1,0,0:0:0:0:
182,192,114052,1,0,0:0:0:0:
256,192,114143,1,0,0:0:0:0:
402,192,114234,1,0,0:0:0:0:
109,192,114234,1,0,0:0:0:0:
329,192,114325,1,0,0:0:0:0:
256,192,114325,1,0,0:0:0:0:
182,192,114325,1,0,0:0:0:0:
475,192,114416,1,2,0:0:0:0:
109,192,114416,1,4,0:0:0:0:
36,192,114416,1,0,0:0:0:0:
402,192,114416,1,0,0:0:0:0:
182,192,114507,1,8,0:0:0:0:
329,192,114507,1,0,0:0:0:0:
36,192,114598,1,8,0:0:0:0:
109,192,114598,1,0,0:0:0:0:
402,192,114689,1,2,0:0:0:0:
475,192,114689,1,0,0:0:0:0:
36,192,114780,1,8,0:0:0:0:
182,192,114780,1,0,0:0:0:0:
329,192,114780,1,0,0:0:0:0:
256,192,114871,1,8,0:0:0:0:
109,192,114871,1,0,0:0:0:0:
329,192,114962,1,2,0:0:0:0:
475,192,114962,1,0,0:0:0:0:
182,192,114962,1,0,0:0:0:0:
109,192,115052,1,8,0:0:0:0:
402,192,115052,1,0,0:0:0:0:
475,192,115143,1,4,0:0:0:0:
36,192,115143,1,8,0:0:0:0:
402,192,115204,1,8,0:0:0:0:
109,192,115204,1,0,0:0:0:0:
182,192,115265,1,8,0:0:0:0:
329,192,115265,1,0,0:0:0:0:
256,192,115325,1,8,0:0:0:0:
36,192,115325,1,0,0:0:0:0:
475,192,115325,1,0,0:0:0:0:
402,192,115386,1,8,0:0:0:0:
109,192,115386,1,0,0:0:0:0:
329,192,115446,1,8,0:0:0:0:
182,192,115446,1,0,0:0:0:0:
256,192,115507,1,2,0:0:0:0:
109,192,115507,1,0,0:0:0:0:
36,192,115507,1,0,0:0:0:0:
402,192,115507,1,0,0:0:0:0:
475,192,115507,1,0,0:0:0:0:
109,192,115780,1,2,0:0:0:0:
36,192,115780,1,0,0:0:0:0:
256,192,115780,1,0,0:0:0:0:
402,192,115780,1,0,0:0:0:0:
475,192,115780,1,0,0:0:0:0:
475,192,116052,1,2,0:0:0:0:
402,192,116052,1,0,0:0:0:0:
256,192,116052,1,0,0:0:0:0:
109,192,116052,1,0,0:0:0:0:
36,192,116052,1,0,0:0:0:0:
109,192,116234,1,2,0:0:0:0:
36,192,116234,1,0,0:0:0:0:
256,192,116234,1,0,0:0:0:0:
402,192,116234,1,0,0:0:0:0:
475,192,116234,1,0,0:0:0:0:
256,192,116416,1,0,0:0:0:0:
256,192,116507,1,0,0:0:0:0:
182,192,116598,1,4,0:0:0:0:
109,192,116598,1,2,0:0:0:0:
36,192,116598,1,0,0:0:0:0:
329,192,116598,1,0,0:0:0:0:
402,192,116598,1,0,0:0:0:0:
475,192,116598,1,0,0:0:0:0:
182,192,116871,1,2,0:0:0:0:
36,192,116871,1,4,0:0:0:0:
329,192,116871,1,0,0:0:0:0:
475,192,116871,1,0,0:0:0:0:
256,192,116871,1,0,0:0:0:0:
475,192,117143,1,4,0:0:0:0:
36,192,117143,1,2,0:0:0:0:
256,192,117143,1,0,0:0:0:0:
109,192,117204,1,0,0:0:0:0:
402,192,117204,1,0,0:0:0:0:
182,192,117265,1,0,0:0:0:0:
329,192,117265,1,0,0:0:0:0:
36,192,117325,1,2,0:0:0:0:
109,192,117325,1,4,0:0:0:0:
402,192,117325,1,0,0:0:0:0:
475,192,117325,1,0,0:0:0:0:
256,192,117325,1,0,0:0:0:0:
