osu file format v14

[General]
AudioFilename: audio.mp3
AudioLeadIn: 0
PreviewTime: 69318
Countdown: 0
SampleSet: Soft
StackLeniency: 0.7
Mode: 0
LetterboxInBreaks: 0
EpilepsyWarning: 1
WidescreenStoryboard: 1

[Editor]
Bookmarks: 16075
DistanceSpacing: 1.4
BeatDivisor: 4
GridSize: 4
TimelineZoom: 0.8

[Metadata]
Title:Sayonara Heaven
TitleUnicode:サヨナラ・ヘヴン
Artist:Nekomata Master
ArtistUnicode:猫叉Master
Creator:Enon
Version:jieusieu's Standard
Source:pop'n music 11
Tags:goodbye Beomsan jieusieu
BeatmapID:1147050
BeatmapSetID:516995

[Difficulty]
HPDrainRate:3
CircleSize:5
OverallDifficulty:4
ApproachRate:5
SliderMultiplier:1.3
SliderTickRate:2

[Events]
//Background and Video events
0,0,"BG.png",0,0
//Break Periods
//Storyboard Layer 0 (Background)
//Storyboard Layer 1 (Fail)
//Storyboard Layer 2 (Pass)
//Storyboard Layer 3 (Foreground)
Sprite,Foreground,Centre,"sb\jieusieu.png",320,240 F,0,0,,0 F,0,5264,6345,0,1 M,0,5264,9588,89,377,99,377 P,0,5264,9588,A F,0,8507,9588,1,0
//Storyboard Sound Samples

[TimingPoints]
940,540.540540540541,4,2,9,85,1,0
16075,-100,4,2,9,95,0,0
16345,-100,4,2,9,85,0,0
17967,-100,4,2,90,85,0,0
18777,-100,4,2,9,85,0,0
20129,-100,4,2,90,85,0,0
20940,-100,4,2,9,85,0,0
22291,-100,4,2,90,85,0,0
22561,-100,4,2,9,85,0,0
22831,-100,4,2,90,85,0,0
23102,-100,4,2,9,85,0,0
24723,-100,4,2,9,95,0,0
24994,-100,4,2,9,85,0,0
26615,-100,4,2,90,85,0,0
27426,-100,4,2,9,85,0,0
28777,-100,4,2,90,85,0,0
29588,-100,4,2,9,85,0,0
30940,-100,4,2,90,85,0,0
31210,-100,4,2,9,85,0,0
31480,-100,4,2,90,85,0,0
31750,-100,4,2,9,85,0,0
32696,-100,4,2,9,90,0,0
33102,-100,4,2,9,80,0,0
33372,-100,4,2,9,90,0,0
33507,-100,4,2,9,80,0,0
40129,-100,4,2,98,55,0,0
40264,-100,4,2,9,80,0,0
40399,-100,4,2,98,55,0,0
40534,-100,4,2,9,80,0,0
42021,-100,4,2,9,90,0,0
42156,-100,4,2,9,80,0,0
48777,-100,4,2,98,55,0,0
48912,-100,4,2,9,80,0,0
49048,-100,4,2,98,55,0,0
49183,-100,4,2,9,80,0,0
49994,-100,4,2,9,90,0,0
50399,-100,4,2,9,80,0,0
50669,-100,4,2,9,90,0,0
50804,-100,4,2,9,80,0,0
59318,-100,4,2,9,90,0,0
59453,-100,4,2,9,80,0,0
63642,-100,4,2,9,90,0,0
63777,-100,4,2,9,80,0,0
67967,-100,4,2,9,95,0,0
69858,-100,4,2,9,85,0,0
70129,-100,4,2,9,100,0,1
70264,-100,4,2,9,90,0,1
71615,-100,4,2,9,90,0,1
72021,-100,4,2,90,90,0,1
72291,-100,4,2,9,90,0,1
72426,-100,4,2,99,75,0,1
72696,-100,4,2,9,90,0,1
74183,-100,4,2,90,90,0,1
74453,-100,4,2,9,90,0,1
74588,-100,4,2,99,75,0,1
74858,-100,4,2,9,90,0,1
76345,-100,4,2,90,90,0,1
77156,-100,4,2,9,90,0,1
78777,-100,4,2,9,100,0,1
78912,-100,4,2,9,90,0,1
80264,-100,4,2,9,90,0,1
80669,-100,4,2,90,90,0,1
80940,-100,4,2,9,90,0,1
81075,-100,4,2,99,75,0,1
81345,-100,4,2,9,90,0,1
82831,-100,4,2,90,90,0,1
83102,-100,4,2,9,90,0,1
83237,-100,4,2,99,75,0,1
83507,-100,4,2,9,90,0,1
84994,-100,4,2,90,90,0,1
85804,-100,4,2,9,90,0,1
87426,-100,4,2,9,100,0,1
87561,-100,4,2,9,90,0,1
88912,-100,4,2,9,90,0,1
89318,-100,4,2,90,90,0,1
89588,-100,4,2,9,90,0,1
89723,-100,4,2,99,75,0,1
89994,-100,4,2,9,90,0,1
91480,-100,4,2,90,90,0,1
91750,-100,4,2,9,90,0,1
91885,-100,4,2,99,75,0,1
92156,-100,4,2,9,90,0,1
93642,-100,4,2,90,90,0,1
94453,-100,4,2,9,90,0,1
96075,-100,4,2,9,100,0,1
96210,-100,4,2,9,90,0,1
98777,-100,4,2,9,80,0,1
99048,-100,4,2,9,90,0,1
100129,-100,4,2,9,75,0,1
100399,-100,4,2,9,100,0,1
100534,-100,4,2,9,90,0,1
102561,-100,4,2,9,95,0,0
102831,-100,4,2,9,85,0,0
104453,-100,4,2,90,85,0,0
105264,-100,4,2,9,85,0,0
106615,-100,4,2,90,85,0,0
107426,-100,4,2,9,85,0,0
108777,-100,4,2,90,85,0,0
109048,-100,4,2,9,85,0,0
109318,-100,4,2,90,85,0,0
109588,-100,4,2,9,85,0,0
110940,-100,4,2,9,70,0,0
111210,-100,4,2,9,95,0,0
111480,-100,4,2,9,85,0,0
113102,-100,4,2,90,85,0,0
113912,-100,4,2,9,85,0,0
115264,-100,4,2,90,85,0,0
116075,-100,4,2,9,85,0,0
117426,-100,4,2,90,85,0,0
117696,-100,4,2,9,85,0,0
117967,-100,4,2,90,85,0,0
118237,-100,4,2,9,85,0,0
119183,-100,4,2,9,90,0,0

[Colours]
Combo1 : 154,71,152
Combo2 : 192,163,220
Combo3 : 255,164,223
Combo4 : 241,80,132

[HitObjects]
120,336,16075,5,4,0:1:0:0:
64,264,16345,2,0,P|60:228|52:188,1,65,2|2,0:0|0:0,0:0:0:0:
140,164,16885,2,0,P|160:128|192:104,1,65,0|0,0:0|0:0,0:0:0:0:
268,92,17426,2,0,P|332:120|356:192,1,130,2|6,0:0|0:0,0:0:0:0:
300,244,18237,1,0,0:0:0:0:
244,316,18507,6,0,P|216:300|176:292,1,65,6|2,0:0|0:0,0:0:0:0:
128,220,19048,2,0,P|120:200|120:152,1,65,0|0,0:0|0:0,0:0:0:0:
188,96,19588,2,0,L|328:80,1,130,2|6,0:0|0:0,0:0:0:0:
380,148,20399,1,0,0:0:0:0:
444,212,20669,6,0,P|440:240|432:292,1,65,6|2,0:0|0:0,0:0:0:0:
368,336,21210,2,0,P|332:340|304:352,1,65,0|0,0:0|0:0,0:0:0:0:
240,288,21750,2,0,P|232:208|224:140,1,130,2|6,0:0|0:0,0:0:0:0:
188,76,22561,6,0,P|150:105|136:131,1,65,0|6,0:0|0:0,0:0:0:0:
72,180,23102,2,0,P|96:204|108:232,1,65,0|2,0:0|0:0,0:0:0:0:
160,308,23642,1,0,0:0:0:0:
244,272,23912,2,0,P|256:252|260:232,1,32.5,8|0,0:0|0:0,0:0:0:0:
272,200,24183,2,0,L|264:120,1,65,4|0,0:0|0:0,0:0:0:0:
320,64,24723,5,4,0:1:0:0:
404,100,24994,2,0,P|404:136|388:168,1,65,2|2,0:0|0:0,0:0:0:0:
376,252,25534,2,0,P|340:260|300:280,1,65,0|0,0:0|0:0,0:0:0:0:
252,204,26074,2,0,P|188:204|140:148,1,130,2|6,0:0|0:0,0:0:0:0:
224,120,26885,1,0,0:0:0:0:
148,68,27155,6,0,P|155:36|159:3,1,65,6|2,0:0|0:0,0:0:0:0:
72,28,27696,2,0,P|65:60|61:93,1,65,0|0,0:0|0:0,0:0:0:0:
48,184,28236,2,0,P|104:224|152:268,1,130,2|6,0:0|0:0,0:0:0:0:
188,348,29048,1,0,0:0:0:0:
280,340,29318,6,0,P|312:324|352:320,1,65,6|2,0:0|0:0,0:0:0:0:
408,260,29858,2,0,P|420:220|416:188,1,65,0|0,0:0|0:0,0:0:0:0:
348,140,30399,2,0,L|212:124,1,130,2|6,0:0|0:0,0:0:0:0:
148,184,31209,6,0,P|120:208|104:244,1,65,0|6,0:0|0:0,0:0:0:0:
124,324,31750,2,0,P|152:348|184:356,1,65,0|2,0:0|0:0,0:0:0:0:
192,264,32291,2,0,L|312:252,1,97.5,8|8,3:0|3:0,0:0:0:0:
332,284,32831,1,4,3:0:0:0:
360,196,33102,1,4,3:0:0:0:
424,260,33372,6,0,P|432:208|448:156,2,97.5,4|2|2,0:1|0:0|0:0,0:0:0:0:
360,196,34453,1,0,0:0:0:0:
376,108,34723,2,0,P|372:76|356:36,1,65,2|2,0:0|0:0,0:0:0:0:
268,200,35534,6,0,P|228:164|188:144,2,97.5,2|2|2,0:0|0:0|0:0,0:0:0:0:
320,276,36615,1,0,0:0:0:0:
248,332,36885,2,0,P|216:340|180:360,1,65,2|2,0:0|0:0,0:0:0:0:
108,188,37696,5,4,0:0:0:0:
32,240,37967,2,0,P|36:272|48:307,1,65,2|2,0:0|0:0,0:0:0:0:
220,260,38777,6,0,P|212:308|204:367,2,97.5,2|2|2,0:0|0:0|0:0,0:0:0:0:
196,168,39858,2,0,P|240:152|298:127,2,97.5
135,235,40940,2,0,P|104:208|61:173,1,97.5,2|2,0:0|0:0,0:0:0:0:
20,192,41480,1,0,0:0:0:0:
96,28,42021,6,0,P|145:21|192:8,2,97.5,4|2|2,0:1|0:0|0:0,0:0:0:0:
28,88,43102,1,0,0:0:0:0:
60,172,43372,2,0,P|96:180|124:192,1,65,2|2,0:0|0:0,0:0:0:0:
212,348,44183,6,0,L|200:232,2,97.5,2|2|2,0:0|0:0|0:0,0:0:0:0:
296,384,45264,1,0,0:0:0:0:
368,332,45534,2,0,P|380:300|380:260,1,65,2|2,0:0|0:0,0:0:0:0:
202,250,46345,5,0,0:0:0:0:
272,192,46616,2,0,P|308:188|356:180,1,65,2|6,0:0|0:0,0:0:0:0:
312,360,47426,6,0,P|276:352|200:336,2,97.5,2|2|2,0:0|0:0|0:0,0:0:0:0:
356,280,48507,2,0,P|332:244|301:196,2,97.5
448,292,49588,2,0,P|460:224|470:168,1,97.5,4|8,0:3|3:0,0:0:0:0:
432,168,50129,1,4,3:0:0:0:
388,88,50399,1,4,3:0:0:0:
300,108,50669,6,0,P|300:60|327:21,1,97.5,4|2,0:1|0:0,0:0:0:0:
327,20,51210,2,0,P|297:36|249:32,1,65,0|2,0:0|0:0,0:0:0:0:
88,0,52021,1,8,0:0:0:0:
88,0,52291,1,8,0:0:0:0:
0,152,52831,6,0,P|47:166|92:185,1,97.5,0|2,0:0|0:0,0:0:0:0:
91,184,53372,2,0,P|135:172|172:160,1,65,0|2,0:0|0:0,0:0:0:0:
304,272,54183,1,8,0:0:0:0:
304,272,54453,1,8,0:0:0:0:
400,120,54994,6,0,P|353:113|313:140,1,97.5,0|8,0:0|0:0,0:0:0:0:
313,139,55534,2,0,P|312:156|304:220,1,65,0|8,0:0|0:0,0:0:0:0:
240,264,56075,2,0,P|191:270|144:280,1,97.5,0|8,0:0|0:0,0:0:0:0:
143,280,56615,2,0,P|139:251|131:191,1,65,0|8,0:0|0:0,0:0:0:0:
56,164,57156,6,0,P|48:140|52:92,1,65,0|2,0:0|0:0,0:0:0:0:
136,124,57696,1,2,0:0:0:0:
316,164,58237,2,0,P|324:104|329:67,2,97.5,2|2|2,0:0|0:0|0:0,0:0:0:0:
232,200,59318,6,0,P|238:248|244:297,1,97.5,4|2,0:1|0:0,0:0:0:0:
243,296,59859,2,0,P|274:310|312:339,1,65,0|2,0:0|0:0,0:0:0:0:
456,232,60670,1,8,0:0:0:0:
456,232,60940,1,12,0:0:0:0:
344,88,61480,6,0,P|264:80|232:76,1,97.5,0|2,0:0|0:0,0:0:0:0:
247,77,62021,2,0,P|216:96|168:104,1,65,0|2,0:0|0:0,0:0:0:0:
120,272,62832,1,8,0:0:0:0:
120,272,63102,1,12,0:0:0:0:
293,331,63642,6,0,P|341:331|380:360,1,97.5,4|8,0:1|0:0,0:0:0:0:
379,359,64183,2,0,P|412:351|448:343,1,65,0|8,0:0|0:0,0:0:0:0:
436,252,64723,2,0,P|442:203|452:156,1,97.5,0|8,0:0|0:0,0:0:0:0:
452,155,65264,2,0,P|443:119|435:80,1,65,0|8,0:0|0:0,0:0:0:0:
352,124,65804,6,0,P|312:120|276:100,1,65,8|0,0:0|0:0,0:0:0:0:
232,40,66345,1,0,0:0:0:0:
60,104,66885,2,0,P|96:164|112:232,1,130,2|2,0:0|0:0,0:0:0:0:
200,380,67967,6,0,P|196:356|184:320,2,43.3333333333333,8|8|8,3:0|3:0|3:0,0:0:0:0:
260,276,68687,2,0,P|264:260|268:232,2,43.3333333333333,8|8|8,3:0|3:0|3:0,0:0:0:0:
164,180,69453,5,8,3:0:0:0:
164,180,69588,2,0,P|164:144|176:112,1,65,4|4,3:0|3:0,0:0:0:0:
248,64,70129,6,0,P|308:60|364:52,1,97.5,4|2,0:1|0:0,0:0:0:0:
392,80,70669,2,0,P|396:108|400:152,1,65,0|10,0:0|0:0,0:0:0:0:
464,228,71210,6,0,P|464:260|444:304,1,65,0|8,0:0|0:0,0:0:0:0:
424,336,71615,1,8,0:0:0:0:
424,336,71750,2,0,P|384:344|344:352,1,65,0|4,0:0|0:0,0:0:0:0:
268,296,72291,6,0,P|240:252|264:188,1,97.5,0|2,0:0|0:0,0:0:0:0:
272,162,72831,2,0,P|232:158|204:146,1,65,0|2,0:0|0:0,0:0:0:0:
140,72,73372,5,0,0:0:0:0:
4,228,73912,2,0,P|44:232|76:252,1,65,0|4,0:0|0:0,0:0:0:0:
144,312,74453,6,0,P|192:308|268:304,1,97.5,0|2,0:0|0:0,0:0:0:0:
283,272,74994,2,0,P|319:260|355:224,1,65,0|2,0:0|0:0,0:0:0:0:
440,224,75534,6,0,L|448:160,1,65,0|10,0:0|0:0,0:0:0:0:
380,80,76075,2,0,L|372:144,1,65,0|14,0:0|0:0,0:0:0:0:
284,200,76615,6,0,L|292:136,1,65,0|14,0:0|0:0,0:0:0:0:
224,56,77156,2,0,L|216:120,1,65,0|10,0:0|0:0,0:0:0:0:
112,104,77696,5,2,0:0:0:0:
148,204,77967,2,0,L|152:171,2,32.5,8|8|2,0:0|0:0|0:0,0:0:0:0:
68,268,78507,1,4,0:0:0:0:
164,308,78777,6,0,P|212:304|288:300,1,97.5,4|2,0:1|0:0,0:0:0:0:
312,316,79318,2,0,P|348:304|384:268,1,65,0|2,0:0|0:0,0:0:0:0:
300,208,79858,6,0,P|308:152|316:116,1,65,0|10,0:0|0:0,0:0:0:0:
332,96,80264,1,8,0:0:0:0:
332,96,80399,2,0,P|308:68|292:28,1,65,0|4,0:0|0:0,0:0:0:0:
200,80,80939,6,0,P|148:80|104:128,1,97.5,0|2,0:0|0:0,0:0:0:0:
92,156,81480,2,0,P|104:184|112:228,1,65,0|2,0:0|0:0,0:0:0:0:
208,260,82021,5,0,0:0:0:0:
376,140,82561,2,0,P|388:100|384:68,1,65,0|4,0:0|0:0,0:0:0:0:
288,104,83101,6,0,L|296:224,1,97.5,0|2,0:0|0:0,0:0:0:0:
320,250,83642,2,0,P|292:266|264:298,1,65,0|2,0:0|0:0,0:0:0:0:
192,360,84183,6,0,L|128:368,1,65,0|10,0:0|0:0,0:0:0:0:
48,300,84724,2,0,L|112:292,1,65,0|14,0:0|0:0,0:0:0:0:
168,204,85264,6,0,L|104:212,1,65,0|14,0:0|0:0,0:0:0:0:
24,144,85805,2,0,L|88:136,1,65,0|10,0:0|0:0,0:0:0:0:
72,32,86345,5,2,0:0:0:0:
172,68,86616,2,0,L|139:72,2,32.5,8|8|6,0:0|0:0|0:0,0:0:0:0:
186,171,87156,1,0,0:0:0:0:
272,112,87426,6,0,L|388:124,1,97.5,4|2,0:1|0:0,0:0:0:0:
410,157,87966,2,0,P|426:193|426:233,1,65,0|2,0:0|0:0,0:0:0:0:
380,312,88507,6,0,P|356:316|316:324,1,65,0|10,0:0|0:0,0:0:0:0:
268,344,88912,1,8,0:0:0:0:
268,344,89047,2,0,P|244:328|200:316,1,65,0|4,0:0|0:0,0:0:0:0:
108,284,89588,6,0,P|104:232|96:168,1,97.5,0|2,0:0|0:0,0:0:0:0:
76,140,90128,2,0,P|88:100|96:52,1,65,0|2,0:0|0:0,0:0:0:0:
180,136,90669,5,0,0:0:0:0:
356,20,91210,2,0,P|364:52|368:92,1,65,0|4,0:0|0:0,0:0:0:0:
444,156,91750,6,0,P|436:204|428:264,1,97.5,0|2,0:0|0:0,0:0:0:0:
392,288,92291,2,0,P|360:292|328:308,1,65,0|2,0:0|0:0,0:0:0:0:
236,348,92831,6,0,L|228:280,1,65,0|10,0:0|0:0,0:0:0:0:
136,328,93372,2,0,L|128:260,1,65,0|14,0:0|0:0,0:0:0:0:
216,204,93912,6,0,L|208:136,1,65,0|14,0:0|0:0,0:0:0:0:
116,184,94453,2,0,L|108:116,1,65,0|10,0:0|0:0,0:0:0:0:
196,60,94993,5,2,0:0:0:0:
96,36,95264,2,0,L|92:-4,2,32.5,8|8|2,0:0|0:0|0:0,0:0:0:0:
8,88,95804,1,12,0:0:0:0:
108,119,96075,6,0,L|124:244,2,97.5,14|12|12,3:0|3:0|3:0,0:0:0:0:
212,136,97156,6,0,L|224:39,2,97.5,12|12|12,3:0|3:0|3:0,0:0:0:0:
312,164,98237,6,0,L|324:260,1,97.5,12|12,3:0|3:0,0:0:0:0:
360,300,98777,2,0,P|376:264|400:240,1,65,4|12,3:0|3:0,0:0:0:0:
416,144,99318,1,0,0:0:0:0:
212,136,99858,6,0,L|224:48,1,65,4|4,0:0|0:1,0:0:0:0:
124,108,100399,6,0,P|120:156|156:212,1,97.5,4|2,0:1|0:0,0:0:0:0:
184,232,100940,2,0,P|216:236|248:248,1,65,0|2,0:0|0:0,0:0:0:0:
372,220,101480,5,4,0:3:0:0:
372,220,101750,1,4,0:3:0:0:
324,296,102021,5,8,0:3:0:0:
324,296,102291,1,12,0:3:0:0:
404,344,102561,5,4,0:1:0:0:
452,268,102831,2,0,P|456:232|464:192,1,65,2|2,0:0|0:0,0:0:0:0:
376,168,103371,2,0,P|356:132|324:108,1,65,0|0,0:0|0:0,0:0:0:0:
248,96,103912,2,0,P|184:124|160:196,1,130,2|6,0:0|0:0,0:0:0:0:
216,248,104723,1,0,0:0:0:0:
272,320,104993,6,0,P|300:304|340:296,1,65,6|2,0:0|0:0,0:0:0:0:
388,224,105534,2,0,P|396:204|396:156,1,65
328,100,106074,2,0,L|188:84,1,130,2|6,0:0|0:0,0:0:0:0:
136,152,106885,1,0,0:0:0:0:
72,216,107155,6,0,P|76:244|84:296,1,65,6|2,0:0|0:0,0:0:0:0:
148,340,107696,2,0,P|184:344|212:356,1,65,0|0,0:0|0:0,0:0:0:0:
276,292,108236,2,0,P|284:212|292:144,1,130,2|6,0:0|0:0,0:0:0:0:
328,80,109047,6,0,P|366:109|380:135,1,65,0|6,0:0|0:0,0:0:0:0:
444,184,109588,2,0,P|420:208|408:236,1,65,0|2,0:0|0:0,0:0:0:0:
356,312,110128,1,0,0:0:0:0:
272,276,110398,2,0,P|260:256|256:236,1,32.5,2|0,0:0|0:0,0:0:0:0:
244,204,110669,2,0,L|252:124,1,65,2|4,0:0|0:0,0:0:0:0:
196,68,111209,5,4,0:1:0:0:
112,104,111480,2,0,P|112:140|128:172,1,65,2|2,0:0|0:0,0:0:0:0:
140,256,112020,2,0,P|176:264|216:284,1,65,0|0,0:0|0:0,0:0:0:0:
264,208,112561,2,0,P|328:208|376:152,1,130,2|6,0:0|0:0,0:0:0:0:
292,124,113371,1,0,0:0:0:0:
368,72,113641,6,0,P|361:40|357:7,1,65,6|2,0:0|0:0,0:0:0:0:
444,32,114182,2,0,P|451:64|455:97,1,65,0|0,0:0|0:0,0:0:0:0:
468,188,114723,2,0,P|412:228|364:272,1,130,2|6,0:0|0:0,0:0:0:0:
328,352,115534,1,0,0:0:0:0:
236,344,115804,6,0,P|204:328|164:324,1,65,6|2,0:0|0:0,0:0:0:0:
108,264,116344,2,0,P|96:224|100:192,1,65,0|0,0:0|0:0,0:0:0:0:
168,144,116885,2,0,L|304:128,1,130,2|6,0:0|0:0,0:0:0:0:
368,188,117696,6,0,P|396:212|412:248,1,65,0|6,0:0|0:0,0:0:0:0:
392,328,118236,2,0,P|364:352|332:360,1,65
324,268,118777,2,0,L|204:256,1,97.5,2|0,0:0|0:0,0:0:0:0:
184,288,119317,1,4,0:0:0:0:
