osu file format v14

[General]
AudioFilename: audio.mp3
AudioLeadIn: 0
PreviewTime: 69318
Countdown: 0
SampleSet: Soft
StackLeniency: 0.7
Mode: 0
LetterboxInBreaks: 0
EpilepsyWarning: 1
WidescreenStoryboard: 1

[Editor]
Bookmarks: 16075,33372,50670,70129,96075
DistanceSpacing: 1
BeatDivisor: 4
GridSize: 8
TimelineZoom: 1.3

[Metadata]
Title:Sayonara Heaven
TitleUnicode:サヨナラ・ヘヴン
Artist:Nekomata Master
ArtistUnicode:猫叉Master
Creator:Enon
Version:Normal
Source:pop'n music 11
Tags:goodbye Beomsan jieusieu
BeatmapID:1305668
BeatmapSetID:516995

[Difficulty]
HPDrainRate:2.5
CircleSize:4.5
OverallDifficulty:3.3
ApproachRate:4
SliderMultiplier:1.4
SliderTickRate:2

[Events]
//Background and Video events
0,0,"BG.png",0,0
//Break Periods
//Storyboard Layer 0 (Background)
//Storyboard Layer 1 (Fail)
//Storyboard Layer 2 (Pass)
//Storyboard Layer 3 (Foreground)
Sprite,Foreground,Centre,"sb\enon.png",320,240 F,0,0,,0 F,0,5264,6345,0,1 M,0,5264,9588,89,377,99,377 P,0,5264,9588,A F,0,8507,9588,1,0
//Storyboard Sound Samples

[TimingPoints]
940,540.540540540541,4,2,1,70,1,0
24183,-100,4,2,2,70,0,0
24318,-100,4,2,1,70,0,0
32696,-100,4,2,3,70,0,0
33372,-100,4,2,1,45,0,0
37696,-100,4,3,4,70,0,0
37831,-100,4,2,1,45,0,0
50129,-100,4,2,3,60,0,0
50669,-100,4,2,1,65,0,0
67967,-100,4,2,1,65,0,0
69588,-100,4,2,1,65,0,0
70129,-100,4,2,1,90,0,1
86885,-100,4,2,6,90,0,1
86985,-100,4,2,1,90,0,1
87358,-100,4,2,1,90,0,0
87426,-100,4,2,1,90,0,1
96007,-100,4,2,1,90,0,0
96075,-100,4,2,1,90,0,1
102494,-100,4,2,1,90,0,0
102561,-100,4,2,1,90,0,0
102696,-100,4,2,1,70,0,0
110669,-100,4,2,2,70,0,0
110804,-100,4,2,1,70,0,0

[Colours]
Combo1 : 154,71,152
Combo2 : 192,163,220
Combo3 : 255,164,223
Combo4 : 241,80,132

[HitObjects]
292,307,16075,6,0,P|343:334|431:288,1,140,12|8,0:0|0:0,0:0:0:0:
454,249,16885,1,0,0:0:0:0:
418,189,17156,2,0,P|367:162|279:208,1,140,8|8,0:0|0:0,0:0:0:0:
256,247,17967,1,0,0:0:0:0:
218,306,18237,6,0,P|155:332|93:304,1,140,8|8,0:0|0:0,0:0:0:0:
57,245,19048,1,0,0:0:0:0:
127,243,19318,2,0,L|134:166,1,70,8|0,0:0|0:0,0:0:0:0:
203,171,19858,2,0,L|210:94,1,70,8|0,0:0|0:0,0:0:0:0:
272,70,20399,6,0,P|221:32|148:67,1,140,8|8,0:0|0:0,0:0:0:0:
209,101,21210,1,0,0:0:0:0:
146,132,21480,2,0,P|201:171|264:146,1,140,8|8,0:0|0:0,0:0:0:0:
327,115,22291,1,0,0:0:0:0:
321,185,22561,6,0,L|307:331,1,140,8|8,0:0|0:0,0:0:0:0:
367,362,23372,1,0,0:0:0:0:
430,331,23642,2,0,L|436:257,1,70,8|0,0:0|0:0,0:0:0:0:
397,203,24183,2,0,L|403:129,1,70,6|0,0:0|0:0,0:0:0:0:
458,89,24723,6,0,P|392:63|340:102,1,140,12|8,0:0|0:0,0:0:0:0:
307,161,25534,1,0,0:0:0:0:
273,221,25804,2,0,P|217:259|156:233,1,140,8|8,0:0|0:0,0:0:0:0:
211,189,26615,1,0,0:0:0:0:
240,125,26885,6,0,L|379:137,1,140,8|8,0:0|0:0,0:0:0:0:
444,110,27696,1,0,0:0:0:0:
503,148,27967,2,0,L|496:217,1,70,8|0,0:0|0:0,0:0:0:0:
440,259,28507,2,0,L|433:328,1,70,8|0,0:0|0:0,0:0:0:0:
371,361,29048,6,0,P|315:323|253:349,1,140,8|8,0:0|0:0,0:0:0:0:
215,291,29858,1,0,0:0:0:0:
176,232,30129,2,0,P|114:258|59:221,1,140,8|8,0:0|0:0,0:0:0:0:
26,158,30940,1,0,0:0:0:0:
96,156,31210,6,0,L|165:162,1,70,8|0,0:0|0:0,0:0:0:0:
176,232,31750,2,0,L|245:238,1,70,8|0,0:0|0:0,0:0:0:0:
256,308,32291,2,0,L|423:323,1,140,8|8,0:0|0:0,0:0:0:0:
448,366,33102,1,8,0:0:0:0:
465,298,33372,6,0,P|477:262|416:198,2,105,12|0|0,0:0|0:0|0:0,0:0:0:0:
395,320,34453,2,0,L|256:308,1,140,8|8,0:0|0:0,0:0:0:0:
246,238,35264,1,0,0:0:0:0:
235,167,35534,6,0,L|304:173,1,70,8|0,0:0|0:0,0:0:0:0:
319,104,36075,2,0,L|388:110,1,70,8|0,0:0|0:0,0:0:0:0:
403,41,36615,2,0,P|453:81|430:168,1,140,8|8,0:0|0:0,0:0:0:0:
484,285,37696,6,0,L|344:272,1,140,10|8,0:0|0:0,0:0:0:0:
290,316,38507,1,0,0:0:0:0:
347,357,38777,2,0,L|475:368,2,105,8|0|0,0:0|0:0|0:0,0:0:0:0:
290,316,39858,6,0,L|161:304,2,105,8|0|0,0:0|0:0|0:0,0:0:0:0:
345,272,40940,2,0,L|338:202,1,70,8|0,0:0|0:0,0:0:0:0:
268,203,41480,2,0,L|261:133,1,70,8|0,0:0|0:0,0:0:0:0:
192,134,42021,6,0,P|210:85|267:63,2,105,12|0|0,0:0|0:0|0:0,0:0:0:0:
196,204,43102,2,0,L|56:191,1,140,8|8,0:0|0:0,0:0:0:0:
17,249,43912,1,0,0:0:0:0:
66,298,44183,6,0,L|149:305,1,70,8|0,0:0|0:0,0:0:0:0:
200,276,44723,2,0,L|283:283,1,70,8|0,0:0|0:0,0:0:0:0:
334,254,45264,2,0,P|335:309|270:353,1,140,8|8,0:0|0:0,0:0:0:0:
269,282,46075,1,0,0:0:0:0:
204,310,46345,6,0,P|203:255|268:211,1,140,8|12,0:0|3:0,0:0:0:0:
338,214,47156,1,0,0:0:0:0:
408,220,47426,2,0,L|396:348,2,105,8|0|0,0:0|0:0|0:0,0:0:0:0:
338,214,48507,6,0,L|349:85,2,105,8|0|0,0:0|0:0|0:0,0:0:0:0:
364,279,49588,2,0,P|423:295|479:218,1,140,8|8,0:0|0:0,0:0:0:0:
511,110,50669,6,0,L|343:95,1,140,12|8,0:0|0:0,0:0:0:0:
327,42,51480,1,0,0:0:0:0:
396,32,51750,2,0,L|466:39,2,70,8|0|8,0:0|0:0|0:0,0:0:0:0:
372,98,52561,1,0,0:0:0:0:
348,164,52831,6,0,L|180:149,1,140,8|8,0:0|0:0,0:0:0:0:
164,96,53642,1,0,0:0:0:0:
233,86,53912,2,0,L|303:93,2,70,8|0|8,0:0|0:0|0:0,0:0:0:0:
209,152,54723,1,0,0:0:0:0:
185,218,54994,6,0,L|17:203,1,140,8|8,0:0|0:0,0:0:0:0:
1,150,55805,1,0,0:0:0:0:
62,115,56075,2,0,L|132:122,1,70,8|0,0:0|0:0,0:0:0:0:
190,83,56615,2,0,L|260:90,1,70,8|0,0:0|0:0,0:0:0:0:
318,51,57156,6,0,P|329:100|306:143,1,70,8|0,0:0|0:0,0:0:0:0:
363,176,57696,2,0,P|314:187|271:164,1,70,8|0,0:0|0:0,0:0:0:0:
238,221,58237,2,0,P|227:172|250:129,1,70,8|0,0:0|0:0,0:0:0:0:
193,96,58777,2,0,P|242:85|285:108,1,70,8|0,0:0|0:0,0:0:0:0:
324,118,59318,6,0,L|492:103,1,140,12|8,0:0|0:0,0:0:0:0:
508,50,60129,1,0,0:0:0:0:
439,40,60399,2,0,L|369:47,2,70,8|0|8,0:0|0:0|0:0,0:0:0:0:
463,106,61210,1,0,0:0:0:0:
487,172,61480,6,0,L|319:187,1,140,8|8,0:0|0:0,0:0:0:0:
303,240,62291,1,0,0:0:0:0:
372,250,62561,2,0,L|442:243,2,70,8|0|8,0:0|0:0|0:0,0:0:0:0:
348,184,63372,1,0,0:0:0:0:
303,240,63642,6,0,L|135:255,1,140,8|8,0:0|0:0,0:0:0:0:
119,308,64453,1,0,0:0:0:0:
157,366,64723,2,0,L|227:359,1,70,8|0,0:0|0:0,0:0:0:0:
279,313,65264,2,0,L|349:306,1,70,8|0,0:0|0:0,0:0:0:0:
411,275,65804,6,0,P|405:208|345:178,1,140,8|8,0:0|0:0,0:0:0:0:
208,211,66885,2,0,P|147:181|142:114,1,140,8|8,0:0|0:0,0:0:0:0:
170,51,67696,1,0,0:0:0:0:
240,44,67967,6,0,L|309:34,2,46.6666666666667,8|8|8,3:0|3:0|3:0,0:0:0:0:
251,137,68687,2,0,L|181:146,2,46.6666666666667,0|8|12,3:0|3:0|3:0,0:0:0:0:
135,58,69588,2,0,L|65:48,1,70,2|0,3:0|0:0,0:0:0:0:
36,112,70129,6,0,L|163:130,2,105,12|0|0,0:0|0:0|0:0,0:0:0:0:
42,182,71210,2,0,L|169:200,2,105,8|0|0,0:0|0:0|0:0,0:0:0:0:
47,251,72291,2,0,L|174:269,2,105,8|0|0,0:0|0:0|0:0,0:0:0:0:
54,322,73372,2,0,L|203:343,1,140,8|8,0:0|0:0,0:0:0:0:
223,279,74183,1,0,0:0:0:0:
253,215,74453,6,0,L|378:233,2,105,8|0|0,0:0|0:0|0:0,0:0:0:0:
283,151,75534,2,0,L|213:140,1,70,8|0,0:0|0:0,0:0:0:0:
243,76,76075,2,0,L|313:87,1,70,8|0,0:0|0:0,0:0:0:0:
381,100,76615,6,0,P|388:169|356:229,1,140,8|8,0:0|0:0,0:0:0:0:
299,271,77426,1,0,0:0:0:0:
325,335,77696,2,0,L|463:314,1,140,8|8,0:0|0:0,0:0:0:0:
511,262,78507,1,0,0:0:0:0:
459,214,78777,6,0,L|356:230,2,105,12|0|0,0:0|0:0|0:0,0:0:0:0:
463,144,79858,2,0,L|359:159,2,105,8|0|0,0:0|0:0|0:0,0:0:0:0:
466,74,80940,2,0,L|362:89,2,105,8|0|0,0:0|0:0|0:0,0:0:0:0:
469,4,82021,2,0,L|311:27,1,140,8|8,0:0|0:0,0:0:0:0:
291,82,82831,1,0,0:0:0:0:
252,140,83102,6,0,L|133:122,2,105,8|0|0,0:0|0:0|0:0,0:0:0:0:
252,210,84183,2,0,L|175:198,1,70,8|0,0:0|0:0,0:0:0:0:
182,269,84723,2,0,L|252:280,1,70,8|0,0:0|0:0,0:0:0:0:
264,348,85264,6,0,P|197:363|137:320,1,140,8|8,0:0|0:0,0:0:0:0:
182,269,86075,1,0,0:0:0:0:
113,256,86345,1,8,0:0:0:0:
45,132,86885,2,0,P|38:98|46:64,1,70,12|0,0:0|0:0,0:0:0:0:
115,52,87426,6,0,L|248:71,2,105,12|0|0,0:0|0:0|0:0,0:0:0:0:
94,119,88507,2,0,L|227:138,2,105,8|0|0,0:0|0:0|0:0,0:0:0:0:
73,186,89588,2,0,L|206:205,2,105,8|0|0,0:0|0:0|0:0,0:0:0:0:
52,253,90669,2,0,L|190:272,1,140,8|8,0:0|0:0,0:0:0:0:
242,225,91480,1,0,0:0:0:0:
295,180,91750,6,0,L|420:198,2,105,8|0|0,0:0|0:0|0:0,0:0:0:0:
322,116,92831,2,0,L|404:128,1,70,8|0,0:0|0:0,0:0:0:0:
417,61,93372,2,0,L|348:51,1,70,8|0,0:0|0:0,0:0:0:0:
278,38,93912,6,0,P|225:79|235:145,1,140,8|8,0:0|0:0,0:0:0:0:
296,181,94723,1,0,0:0:0:0:
357,217,94994,2,0,P|367:283|314:324,1,140,8|8,0:0|0:0,0:0:0:0:
256,363,95804,1,0,0:0:0:0:
198,324,96075,6,0,L|73:342,2,105,4|4|4,3:0|3:0|3:0,0:0:0:0:
224,259,97156,2,0,L|348:240,2,105,4|4|4,3:0|3:0|3:0,0:0:0:0:
167,218,98237,2,0,L|42:236,2,105,4|4|4,3:0|3:0|3:0,0:0:0:0:
193,153,99318,2,0,L|356:129,1,140,4|4,3:0|3:0,0:0:0:0:
372,190,100129,1,0,0:0:0:0:
327,243,100399,6,0,L|224:259,2,105,4|4|4,3:0|3:0|3:0,0:0:0:0:
372,190,101480,2,0,P|391:217|394:255,1,70,4|10,3:0|3:0,0:0:0:0:
448,298,102021,2,0,P|421:317|383:320,1,70,4|10,3:0|3:0,0:0:0:0:
319,343,102561,6,0,L|303:200,1,140,12|8,0:0|0:0,0:0:0:0:
256,152,103372,1,0,0:0:0:0:
208,203,103642,2,0,L|193:343,1,140,8|8,0:0|0:0,0:0:0:0:
134,381,104453,1,0,0:0:0:0:
103,318,104723,6,0,P|114:249|95:182,1,140,8|8,0:0|0:0,0:0:0:0:
60,121,105534,1,0,0:0:0:0:
129,112,105804,2,0,L|198:101,1,70,8|0,0:0|0:0,0:0:0:0:
255,142,106345,2,0,L|324:131,1,70,8|0,0:0|0:0,0:0:0:0:
379,86,106885,6,0,P|430:48|503:83,1,140,8|8,0:0|0:0,0:0:0:0:
442,117,107696,1,0,0:0:0:0:
505,148,107966,2,0,P|450:187|387:162,1,140,8|8,0:0|0:0,0:0:0:0:
323,135,108777,1,0,0:0:0:0:
335,204,109048,6,0,L|347:283,1,70,8|8,0:0|0:0,0:0:0:0:
370,338,109588,2,0,L|291:350,1,70,8|8,0:0|0:0,0:0:0:0:
236,373,110129,2,0,L|223:294,1,70,8|8,0:0|0:0,0:0:0:0:
273,251,110669,2,0,L|260:171,1,70,6|0,0:0|0:0,0:0:0:0:
315,136,111210,6,0,P|252:111|198:150,1,140,12|8,0:0|0:0,0:0:0:0:
178,217,112021,1,0,0:0:0:0:
158,284,112291,2,0,P|103:323|41:298,1,140,8|8,0:0|0:0,0:0:0:0:
23,230,113102,1,0,0:0:0:0:
7,162,113372,6,0,L|145:139,1,140,8|8,0:0|0:0,0:0:0:0:
182,79,114183,1,0,0:0:0:0:
218,139,114453,2,0,L|204:221,1,70,8|0,0:0|0:0,0:0:0:0:
271,237,114994,2,0,L|257:319,1,70,8|0,0:0|0:0,0:0:0:0:
312,351,115534,6,0,P|374:375|429:336,1,140,8|8,0:0|0:0,0:0:0:0:
409,269,116345,1,0,0:0:0:0:
388,201,116615,2,0,P|443:162|506:187,1,140,8|8,0:0|0:0,0:0:0:0:
500,256,117426,1,0,0:0:0:0:
494,325,117696,6,0,L|411:311,1,70,8|0,0:0|0:0,0:0:0:0:
355,320,118237,2,0,L|368:237,1,70,8|0,0:0|0:0,0:0:0:0:
360,181,118777,2,0,L|443:194,1,70,8|0,0:0|0:0,0:0:0:0:
499,185,119318,1,12,0:0:0:0:
