osu file format v14

[General]
AudioFilename: audio.mp3
AudioLeadIn: 0
PreviewTime: 69318
Countdown: 0
SampleSet: Soft
StackLeniency: 0.5
Mode: 0
LetterboxInBreaks: 0
EpilepsyWarning: 1
WidescreenStoryboard: 1

[Editor]
Bookmarks: 16075,33372,50670,68327,70129,96075
DistanceSpacing: 1.1
BeatDivisor: 4
GridSize: 16
TimelineZoom: 2.899999

[Metadata]
Title:Sayonara Heaven
TitleUnicode:サヨナラ・ヘヴン
Artist:Nekomata Master
ArtistUnicode:猫叉Master
Creator:Enon
Version:Hyper
Source:pop'n music 11
Tags:goodbye Beomsan jieusieu
BeatmapID:1114767
BeatmapSetID:516995

[Difficulty]
HPDrainRate:4
CircleSize:5
OverallDifficulty:6
ApproachRate:7
SliderMultiplier:1.3
SliderTickRate:2

[Events]
//Background and Video events
0,0,"BG.png",0,0
//Break Periods
//Storyboard Layer 0 (Background)
//Storyboard Layer 1 (Fail)
//Storyboard Layer 2 (Pass)
//Storyboard Layer 3 (Foreground)
Sprite,Foreground,Centre,"sb\enon.png",320,240 F,0,0,,0 F,0,5264,6345,0,1 M,0,5264,9588,89,377,99,377 P,0,5264,9588,A F,0,8507,9588,1,0
//Storyboard Sound Samples

[TimingPoints]
940,540.540540540541,4,2,1,70,1,0
16075,-50,4,2,1,70,0,0
24183,-50,4,2,2,70,0,0
24318,-50,4,2,1,70,0,0
32561,-50,4,2,10,70,0,0
32696,-50,4,2,1,70,0,0
32831,-50,4,2,3,70,0,0
33372,-50,4,2,1,45,0,0
36885,-50,4,2,10,45,0,0
37021,-50,4,2,1,45,0,0
37696,-50,4,3,4,70,0,0
37967,-50,4,2,1,45,0,0
41210,-50,4,2,10,45,0,0
41345,-50,4,2,1,45,0,0
45534,-50,4,2,10,45,0,0
45669,-50,4,2,1,45,0,0
46615,-50,4,2,10,45,0,0
46750,-50,4,2,1,45,0,0
49858,-50,4,2,10,45,0,0
49994,-50,4,2,1,45,0,0
50129,-50,4,2,3,60,0,0
50264,-50,4,2,1,45,0,0
50669,-50,4,2,1,65,0,0
52291,-50,4,2,6,65,0,0
52426,-50,4,2,1,65,0,0
54453,-50,4,2,6,65,0,0
54588,-50,4,2,1,65,0,0
60940,-50,4,2,6,65,0,0
61075,-50,4,2,1,65,0,0
63102,-50,4,2,6,65,0,0
63237,-50,4,2,1,65,0,0
69048,-50,4,2,1,80,0,0
70129,-50,4,2,1,90,0,1
70399,-50,4,2,10,90,0,1
70534,-50,4,2,1,90,0,1
71480,-50,4,2,10,90,0,1
71615,-50,4,2,1,90,0,1
74723,-50,4,2,10,90,0,1
74858,-50,4,2,1,90,0,1
77967,-50,4,2,10,90,0,1
78102,-50,4,2,1,90,0,1
79048,-50,4,2,10,90,0,1
79183,-50,4,2,1,90,0,1
80129,-50,4,2,10,90,0,1
80264,-50,4,2,1,90,0,1
83372,-50,4,2,10,90,0,1
83507,-50,4,2,1,90,0,1
86615,-50,4,2,10,90,0,1
86750,-50,4,2,1,90,0,1
87696,-50,4,2,10,90,0,1
87831,-50,4,2,1,90,0,1
88777,-50,4,2,10,90,0,1
88912,-50,4,2,1,90,0,1
92021,-50,4,2,10,90,0,1
92156,-50,4,2,1,90,0,1
95264,-50,4,2,10,90,0,1
95399,-50,4,2,1,90,0,1
95804,-50,4,2,1,90,0,0
96075,-50,4,2,1,90,0,1
100669,-50,4,2,10,90,0,1
100804,-50,4,2,1,90,0,1
102561,-50,4,2,1,90,0,0
102696,-50,4,2,1,70,0,0
110669,-50,4,2,2,70,0,0
110804,-50,4,2,1,70,0,0
119048,-50,4,2,10,70,0,0
119183,-50,4,2,1,70,0,0
119318,-133.333333333333,4,2,1,70,0,0
119858,-133.333333333333,4,2,1,5,0,0

[Colours]
Combo1 : 154,71,152
Combo2 : 192,163,220
Combo3 : 255,164,223
Combo4 : 241,80,132

[HitObjects]
465,35,16075,6,0,L|481:211,1,130,12|2,0:0|0:0,0:0:0:0:
418,205,16480,1,0,0:0:0:0:
359,246,16615,2,0,P|290:231|255:165,1,130,8|2,0:0|0:0,0:0:0:0:
162,78,17156,2,0,L|173:207,1,130,8|2,0:0|0:0,0:0:0:0:
39,255,17696,2,0,L|33:190,1,65,8|0,0:0|0:0,0:0:0:0:
98,159,17967,2,0,L|92:94,1,65,2|0,0:0|0:0,0:0:0:0:
162,77,18237,6,0,P|219:50|279:70,1,130,8|2,0:0|0:0,0:0:0:0:
376,176,18777,2,0,P|318:203|258:183,1,130,8|2,0:0|0:0,0:0:0:0:
379,105,19318,2,0,P|434:135|443:197,1,130,8|2,0:0|0:0,0:0:0:0:
376,176,19723,1,0,0:0:0:0:
373,247,19858,2,0,P|317:216|308:154,1,130,8|2,0:0|0:0,0:0:0:0:
295,297,20399,6,0,L|112:283,1,130,8|2,0:0|0:0,0:0:0:0:
108,329,20804,1,0,0:0:0:0:
39,307,20940,2,0,P|12:250|48:177,1,130,8|2,0:0|0:0,0:0:0:0:
174,157,21480,2,0,L|164:302,1,130,8|2,0:0|0:0,0:0:0:0:
227,322,21885,1,0,0:0:0:0:
295,297,22021,2,0,L|305:152,1,130,8|2,0:0|0:0,0:0:0:0:
394,55,22561,6,0,P|422:38|453:35,1,65,8|0,0:0|0:0,0:0:0:0:
445,106,22831,2,0,P|477:113|501:133,1,65,2|0,0:0|0:0,0:0:0:0:
445,177,23102,2,0,P|462:204|465:236,1,65,8|0,0:0|0:0,0:0:0:0:
394,227,23372,2,0,P|386:259|366:283,1,65,2|0,0:0|0:0,0:0:0:0:
295,297,23642,2,0,L|160:280,1,130,8|2,0:0|0:0,0:0:0:0:
46,360,24183,2,0,L|181:377,1,130,6|2,0:0|0:0,0:0:0:0:
295,297,24723,6,0,P|270:232|288:174,1,130,12|2,0:0|0:0,0:0:0:0:
274,105,25129,1,0,0:0:0:0:
212,141,25264,2,0,L|77:124,1,130,8|2,0:0|0:0,0:0:0:0:
210,60,25804,2,0,L|345:77,1,130,8|2,0:0|0:0,0:0:0:0:
473,26,26345,2,0,L|483:110,1,65,8|0,0:0|0:0,0:0:0:0:
423,133,26615,2,0,L|433:217,1,65,2|0,0:0|0:0,0:0:0:0:
373,240,26885,6,0,P|337:291|274:294,1,130,8|2,0:0|0:0,0:0:0:0:
134,270,27426,2,0,P|169:218|232:215,1,130,8|2,0:0|0:0,0:0:0:0:
373,240,27967,2,0,P|321:204|318:141,1,130,8|2,0:0|0:0,0:0:0:0:
385,170,28373,1,0,0:0:0:0:
397,100,28508,2,0,P|448:135|451:198,1,130,8|2,0:0|0:0,0:0:0:0:
374,319,29048,6,0,L|510:310,1,130,8|2,0:0|0:0,0:0:0:0:
510,239,29453,1,0,0:0:0:0:
451,198,29588,2,0,L|315:207,1,130,8|2,0:0|0:0,0:0:0:0:
191,268,30129,2,0,L|61:259,1,130,8|2,0:0|0:0,0:0:0:0:
55,188,30534,1,0,0:0:0:0:
114,147,30669,2,0,L|250:156,1,130,8|2,0:0|0:0,0:0:0:0:
351,60,31210,6,0,P|325:39|292:34,1,65,8|0,0:0|0:0,0:0:0:0:
296,104,31480,2,0,P|264:108|238:126,1,65,2|0,0:0|0:0,0:0:0:0:
290,175,31750,2,0,P|268:201|264:233,1,65,8|0,0:0|0:0,0:0:0:0:
334,229,32021,2,0,P|337:262|357:288,1,65,2|0,0:0|0:0,0:0:0:0:
418,322,32291,2,0,P|458:258|422:81,1,260,8|8,0:0|0:0,0:0:0:0:
294,34,33102,2,0,L|224:41,1,65,8|0,0:0|0:0,0:0:0:0:
185,96,33372,6,0,L|43:81,1,130,12|2,0:0|0:0,0:0:0:0:
36,151,33777,2,0,L|178:166,1,130,0|0,0:0|0:0,0:0:0:0:
226,202,34183,2,0,L|239:272,1,65,2|0,0:0|0:0,0:0:0:0:
216,334,34453,2,0,P|156:344|91:285,1,130,8|2,0:0|0:0,0:0:0:0:
238,266,34994,2,0,P|298:256|363:315,1,130,0|2,0:0|0:0,0:0:0:0:
476,364,35534,6,0,L|491:260,1,65,8|0,0:0|0:0,0:0:0:0:
429,254,35804,2,0,L|414:150,1,65,2|0,0:0|0:0,0:0:0:0:
489,173,36075,2,0,L|504:69,1,65,0|0,0:0|0:0,0:0:0:0:
442,63,36345,2,0,L|427:-41,1,65,2|0,0:0|0:0,0:0:0:0:
362,12,36615,2,0,B|282:4|230:47|230:47|178:91|98:84,1,260,8|0,0:0|0:0,0:0:0:0:
6,173,37426,2,0,P|47:163|85:172,1,65,2|0,0:0|0:0,0:0:0:0:
132,198,37696,6,0,L|110:352,1,130,10|2,0:0|0:0,0:0:0:0:
249,371,38237,2,0,L|271:217,1,130,0|2,0:0|0:0,0:0:0:0:
324,199,38642,1,0,0:0:0:0:
383,158,38777,2,0,P|441:135|495:166,1,130,8|2,0:0|0:0,0:0:0:0:
436,207,39183,2,0,P|378:230|324:199,1,130,0|0,0:0|0:0,0:0:0:0:
275,144,39588,1,2,0:0:0:0:
364,29,39858,6,0,L|382:157,1,130,8|2,0:0|0:0,0:0:0:0:
436,207,40264,1,0,0:0:0:0:
436,207,40399,2,0,L|417:335,1,130,0|2,0:0|0:0,0:0:0:0:
275,357,40940,2,0,P|212:251|275:144,1,260,8|0,0:0|0:0,0:0:0:0:
364,29,41750,2,0,L|372:93,1,65,2|0,0:0|0:0,0:0:0:0:
384,164,42021,6,0,P|445:153|491:195,1,130,12|2,0:0|0:0,0:0:0:0:
425,223,42426,2,0,P|435:284|393:330,1,130,0|0,0:0|0:0,0:0:0:0:
366,264,42831,2,0,L|295:276,1,65,2|0,0:0|0:0,0:0:0:0:
263,336,43102,2,0,L|134:313,1,130,8|2,0:0|0:0,0:0:0:0:
62,191,43642,2,0,L|189:213,1,130,0|2,0:0|0:0,0:0:0:0:
256,186,44048,1,0,0:0:0:0:
322,159,44183,6,0,P|277:116|263:113,1,65,8|0,0:0|0:0,0:0:0:0:
249,49,44453,2,0,P|206:94|203:108,1,65,2|0,0:0|0:0,0:0:0:0:
139,122,44723,2,0,P|184:165|198:168,1,65,0|0,0:0|0:0,0:0:0:0:
212,232,44994,2,0,P|255:187|258:173,1,65,2|0,0:0|0:0,0:0:0:0:
322,159,45264,2,0,P|414:142|468:300,1,260,8|0,0:0|0:0,0:0:0:0:
371,362,46075,2,0,P|305:351|291:355,1,65,2|0,0:0|0:0,0:0:0:0:
239,367,46345,6,0,L|228:169,1,195,8|0,0:0|0:0,0:0:0:0:
261,109,46885,2,0,P|198:107|159:158,1,130,12|2,0:3|0:0,0:0:0:0:
228,172,47291,1,0,0:0:0:0:
296,187,47426,2,0,L|444:170,1,130,8|2,0:0|0:0,0:0:0:0:
443,241,47831,2,0,L|295:258,1,130,0|0,0:0|0:0,0:0:0:0:
258,301,48237,1,2,0:0:0:0:
137,378,48507,6,0,P|117:306|139:228,1,130,8|2,0:0|0:0,0:0:0:0:
58,231,48912,2,0,P|77:169|68:105,1,130,0|0,0:0|0:0,0:0:0:0:
37,40,49318,1,2,0:0:0:0:
147,130,49588,2,0,P|211:160|401:85,1,260,8|8,0:0|0:0,0:0:0:0:
496,19,50399,2,0,L|477:106,1,65,2|0,0:0|0:0,0:0:0:0:
446,144,50669,6,0,P|481:193|468:271,1,130,12|2,0:0|0:0,0:0:0:0:
422,309,51075,2,0,P|362:314|301:264,1,130,0|0,0:0|0:0,0:0:0:0:
246,313,51480,2,0,P|217:298|183:299,1,65,2|0,0:0|0:0,0:0:0:0:
127,341,51750,2,0,L|-9:315,2,130,8|2|12,0:0|0:0|0:0,0:0:0:0:
233,238,52561,2,0,P|226:199|247:160,1,65,2|0,0:0|0:0,0:0:0:0:
270,114,52831,6,0,P|198:112|164:180,1,130,8|2,0:0|0:0,0:0:0:0:
130,215,53237,2,0,P|202:217|236:149,1,130,0|0,0:0|0:0,0:0:0:0:
270,113,53642,2,0,L|339:103,1,65,2|0,0:0|0:0,0:0:0:0:
401,126,53912,2,0,L|427:-10,2,130,8|2|12,0:0|0:0|0:0,0:0:0:0:
307,234,54723,2,0,L|319:297,1,65,2|0,0:0|0:0,0:0:0:0:
338,367,54994,6,0,P|405:371|453:316,1,130,8|2,0:0|0:0,0:0:0:0:
469,264,55399,2,0,P|429:208|356:207,1,130,0|0,0:0|0:0,0:0:0:0:
307,234,55804,2,0,P|239:225|224:213,1,65,2|0,0:0|0:0,0:0:0:0:
176,252,56075,2,0,L|158:98,1,130,8|2,0:0|0:0,0:0:0:0:
148,52,56480,1,0,0:0:0:0:
214,76,56615,2,0,P|276:87|335:61,1,130,0|2,0:0|0:0,0:0:0:0:
470,12,57156,6,0,L|452:158,1,130,8|2,0:0|0:0,0:0:0:0:
319,189,57696,2,0,L|337:43,1,130,0|2,0:0|0:0,0:0:0:0:
454,141,58237,2,0,L|436:287,2,130,0|8|8,3:0|3:0|0:0,0:0:0:0:
319,189,59048,2,0,P|319:221|334:249,1,65,0|0,0:0|0:0,0:0:0:0:
377,307,59318,6,0,P|326:344|264:331,1,130,12|2,0:0|0:0,0:0:0:0:
230,268,59723,2,0,P|168:280|117:243,1,130,0|0,0:0|0:0,0:0:0:0:
45,242,60129,2,0,L|37:177,1,65,2|0,0:0|0:0,0:0:0:0:
30,106,60399,2,0,L|206:127,2,130,8|2|12,0:0|0:0|0:0,0:0:0:0:
159,44,61210,2,0,L|223:51,1,65,2|0,0:0|0:0,0:0:0:0:
289,25,61480,6,0,P|311:96|271:153,1,130,8|2,0:0|0:0,0:0:0:0:
218,164,61885,2,0,P|240:235|200:292,1,130,0|0,0:0|0:0,0:0:0:0:
258,337,62291,2,0,L|342:324,1,65,2|0,0:0|0:0,0:0:0:0:
389,351,62561,2,0,L|408:222,2,130,8|2|12,0:0|0:0|0:0,0:0:0:0:
484,244,63372,2,0,L|493:179,1,65,2|0,0:0|0:0,0:0:0:0:
507,109,63642,6,0,P|455:94|385:145,1,130,8|2,0:0|0:0,0:0:0:0:
347,186,64048,2,0,P|294:150|232:164,1,130,0|0,0:0|0:0,0:0:0:0:
176,208,64453,2,0,L|207:285,1,65,2|0,0:0|0:0,0:0:0:0:
156,324,64723,2,0,P|94:337|41:302,1,130,8|2,0:0|0:0,0:0:0:0:
11,237,65129,1,0,0:0:0:0:
38,171,65264,2,0,L|18:42,1,130,0|2,0:0|0:0,0:0:0:0:
156,79,65804,6,0,L|175:207,1,130,8|2,0:0|0:0,0:0:0:0:
313,244,66345,2,0,L|294:116,1,130,8|2,0:0|0:0,0:0:0:0:
175,207,66885,2,0,L|194:335,1,130,8|2,0:0|0:0,0:0:0:0:
333,373,67426,2,0,L|313:244,1,130,8|2,0:0|0:0,0:0:0:0:
399,129,67967,6,0,P|454:104|519:132,2,86.6666666666667,8|8|8,3:0|3:0|3:0,0:0:0:0:
211,92,68687,2,0,P|156:117|91:89,2,86.6666666666667,8|8|12,3:0|3:0|3:0,0:0:0:0:
489,26,69453,5,0,0:0:0:0:
489,26,69588,2,0,L|466:206,1,130,2|0,3:0|3:0,0:0:0:0:
499,295,70129,6,0,P|408:267|311:328,1,195,12|0,0:0|0:0,0:0:0:0:
279,366,70669,2,0,L|188:351,1,65,8|0,0:0|0:0,0:0:0:0:
162,306,70940,2,0,L|97:295,1,65,2|0,0:0|0:0,0:0:0:0:
45,246,71210,2,0,P|28:159|154:89,1,195,8|0,0:0|0:0,0:0:0:0:
168,87,71750,2,0,L|156:176,1,65,8|0,0:0|0:0,0:0:0:0:
221,187,72021,2,0,L|212:251,1,65,2|0,0:0|0:0,0:0:0:0:
274,290,72291,6,0,P|221:325|162:306,1,130,8|2,0:0|0:0,0:0:0:0:
101,266,72696,1,0,0:0:0:0:
149,211,72831,2,0,P|202:176|262:196,1,130,8|2,0:0|0:0,0:0:0:0:
347,311,73372,2,0,L|376:140,1,130,8|2,0:0|0:0,0:0:0:0:
491,110,73912,2,0,L|462:281,1,130,8|2,0:0|0:0,0:0:0:0:
398,248,74318,1,0,0:0:0:0:
369,183,74453,6,0,P|326:114|198:114,1,195,8|0,0:0|0:0,0:0:0:0:
155,134,74994,2,0,P|97:159|42:129,1,130,8|2,0:0|0:0,0:0:0:0:
101,88,75399,1,0,0:0:0:0:
155,134,75534,2,0,L|167:230,1,65,8|0,0:0|0:0,0:0:0:0:
140,266,75804,2,0,L|235:284,1,65,2|0,0:0|0:0,0:0:0:0:
260,321,76075,2,0,L|306:236,1,65,8|0,0:0|0:0,0:0:0:0:
349,223,76345,2,0,L|282:152,1,65,2|0,0:0|0:0,0:0:0:0:
237,199,76615,6,0,L|220:70,1,130,8|2,0:0|0:0,0:0:0:0:
280,29,77021,1,0,0:0:0:0:
345,56,77156,2,0,P|405:74|460:44,1,130,8|2,0:0|0:0,0:0:0:0:
370,153,77696,2,0,P|288:143|207:288,1,260,8|8,0:0|0:0,0:0:0:0:
327,352,78507,2,0,L|416:339,1,65,2|0,0:0|0:0,0:0:0:0:
460,358,78777,6,0,P|454:272|513:183,1,195,12|0,0:0|0:0,0:0:0:0:
491,115,79318,2,0,L|420:107,1,65,8|0,0:0|0:0,0:0:0:0:
370,153,79588,2,0,L|299:145,1,65,2|0,0:0|0:0,0:0:0:0:
244,184,79858,2,0,P|240:114|358:96,1,195,8|0,0:0|0:0,0:0:0:0:
370,153,80399,2,0,L|353:222,1,65,8|0,0:0|0:0,0:0:0:0:
325,281,80669,2,0,L|341:350,1,65,2|0,0:0|0:0,0:0:0:0:
270,361,80940,6,0,P|207:364|166:316,1,130,8|2,0:0|0:0,0:0:0:0:
236,299,81345,1,0,0:0:0:0:
202,237,81480,2,0,P|264:233|305:281,1,130,8|2,0:0|0:0,0:0:0:0:
166,316,82021,2,0,L|151:186,1,130,8|2,0:0|0:0,0:0:0:0:
29,113,82561,2,0,L|43:242,1,130,8|2,0:0|0:0,0:0:0:0:
115,248,82967,1,0,0:0:0:0:
152,187,83102,6,0,P|222:154|321:227,1,195,8|0,0:0|0:0,0:0:0:0:
372,253,83642,2,0,P|434:248|471:196,1,130,8|2,0:0|0:0,0:0:0:0:
400,186,84048,1,0,0:0:0:0:
372,253,84183,2,0,L|385:330,1,65,8|0,0:0|0:0,0:0:0:0:
311,310,84453,2,0,L|241:346,1,65,2|0,0:0|0:0,0:0:0:0:
237,269,84723,2,0,L|181:214,1,65,8|0,0:0|0:0,0:0:0:0:
252,187,84994,2,0,L|286:117,1,65,2|0,0:0|0:0,0:0:0:0:
334,175,85264,6,0,L|472:195,1,130,8|2,0:0|0:0,0:0:0:0:
511,141,85669,1,0,0:0:0:0:
471,80,85804,2,0,P|439:134|462:193,1,130,8|2,0:0|0:0,0:0:0:0:
510,328,86345,2,0,B|392:285|370:410|222:348,1,260,8|8,0:0|0:0,0:0:0:0:
148,269,87156,2,0,L|182:199,1,65,2|0,0:0|0:0,0:0:0:0:
152,143,87426,6,0,P|58:136|5:213,1,195,12|0,0:0|0:0,0:0:0:0:
57,264,87967,2,0,L|140:253,1,65,8|0,0:0|0:0,0:0:0:0:
177,211,88237,2,0,L|260:200,1,65,2|0,0:0|0:0,0:0:0:0:
283,145,88507,2,0,P|311:188|224:272,1,195,8|0,0:0|0:0,0:0:0:0:
177,211,89048,2,0,L|166:128,1,65,8|0,0:0|0:0,0:0:0:0:
124,91,89318,2,0,L|113:8,1,65,2|0,0:0|0:0,0:0:0:0:
184,43,89588,6,0,P|230:100|309:90,1,130,8|2,0:0|0:0,0:0:0:0:
349,77,89994,1,0,0:0:0:0:
410,40,90129,2,0,P|472:48|508:100,1,130,8|2,0:0|0:0,0:0:0:0:
491,242,90669,2,0,L|348:260,1,130,8|2,0:0|0:0,0:0:0:0:
279,143,91210,2,0,L|421:124,1,130,8|2,0:0|0:0,0:0:0:0:
452,182,91615,1,0,0:0:0:0:
491,242,91750,6,0,P|476:327|353:355,1,195,8|0,0:0|0:0,0:0:0:0:
318,332,92291,2,0,P|270:290|209:303,1,130,8|2,0:0|0:0,0:0:0:0:
252,361,92696,1,0,0:0:0:0:
318,332,92831,2,0,L|334:233,1,65,8|0,0:0|0:0,0:0:0:0:
384,223,93102,2,0,L|294:177,1,65,2|0,0:0|0:0,0:0:0:0:
300,126,93372,2,0,L|228:196,1,65,8|0,0:0|0:0,0:0:0:0:
182,175,93642,2,0,L|227:264,1,65,2|0,0:0|0:0,0:0:0:0:
192,302,93912,6,0,L|342:278,1,130,8|2,0:0|0:0,0:0:0:0:
391,294,94318,1,0,0:0:0:0:
383,222,94453,2,0,P|431:235|459:313,1,130,8|2,0:0|0:0,0:0:0:0:
329,353,94994,2,0,L|359:94,1,260,8|8,0:0|0:0,0:0:0:0:
223,45,95804,2,0,P|152:33|136:41,1,65,2|0,0:0|0:0,0:0:0:0:
103,72,96075,6,0,L|117:201,1,130,4|2,3:0|3:0,0:0:0:0:
61,246,96480,1,4,3:0:0:0:
128,270,96615,2,0,L|121:334,1,65,4|0,3:0|0:0,0:0:0:0:
186,228,96885,1,4,3:0:0:0:
186,228,97021,1,0,0:0:0:0:
251,258,97156,6,0,P|248:193|183:156,1,130,4|2,3:0|3:0,0:0:0:0:
187,228,97561,1,0,0:0:0:0:
193,300,97696,2,0,L|186:364,1,65,4|0,3:0|0:0,0:0:0:0:
251,258,97967,1,4,3:0:0:0:
251,258,98102,1,0,0:0:0:0:
317,286,98237,6,0,L|331:157,1,130,4|2,3:0|3:0,0:0:0:0:
392,192,98642,1,0,0:0:0:0:
452,227,98777,2,0,L|445:291,1,65,4|0,3:0|0:0,0:0:0:0:
510,185,99048,1,4,3:0:0:0:
510,185,99183,1,0,0:0:0:0:
450,146,99318,6,0,L|464:17,1,130,4|2,3:0|0:0,0:0:0:0:
330,70,99858,2,0,L|316:199,1,130,4|2,3:0|0:0,0:0:0:0:
257,239,100264,1,8,0:0:0:0:
198,279,100399,6,0,P|123:290|28:217,1,195,4|2,3:0|3:0,0:0:0:0:
10,154,100940,2,0,L|30:26,1,130,4|6,3:0|3:0,0:0:0:0:
101,30,101345,1,8,0:0:0:0:
85,99,101480,2,0,P|127:96|157:74,1,65,12|8,0:3|0:0,0:0:0:0:
166,151,101750,2,0,P|200:127|215:93,1,65,10|4,0:3|3:0,0:0:0:0:
262,155,102021,2,0,P|280:117|276:80,1,65,12|8,0:3|0:0,0:0:0:0:
347,110,102291,2,0,P|344:67|322:38,1,65,14|8,0:3|0:0,0:0:0:0:
280,95,102561,6,0,P|307:166|402:150,1,130,12|2,0:0|0:0,0:0:0:0:
423,159,102967,1,0,0:0:0:0:
491,138,103102,2,0,L|475:319,1,130,8|2,0:0|0:0,0:0:0:0:
379,369,103642,2,0,P|345:315|357:252,1,130,8|2,0:0|0:0,0:0:0:0:
347,110,104183,2,0,P|344:67|322:38,1,65,8|0,0:0|0:0,0:0:0:0:
280,95,104453,2,0,P|283:138|305:167,1,65,2|0,0:0|0:0,0:0:0:0:
236,198,104723,6,0,L|84:182,1,130,8|2,0:0|0:0,0:0:0:0:
3,283,105264,2,0,L|155:299,1,130,8|2,0:0|0:0,0:0:0:0:
36,190,105804,2,0,P|58:132|120:114,1,130,8|2,0:0|0:0,0:0:0:0:
106,184,106210,1,0,0:0:0:0:
176,178,106345,2,0,P|154:236|91:253,1,130,8|2,0:0|0:0,0:0:0:0:
119,114,106885,6,0,L|271:98,1,130,8|2,0:0|0:0,0:0:0:0:
309,137,107291,1,0,0:0:0:0:
366,178,107426,2,0,P|374:112|321:68,1,130,8|2,0:0|0:0,0:0:0:0:
281,205,107967,2,0,L|297:357,1,130,8|2,0:0|0:0,0:0:0:0:
354,374,108372,1,0,0:0:0:0:
379,307,108507,2,0,L|363:155,1,130,8|2,0:0|0:0,0:0:0:0:
403,39,109048,6,0,P|426:15|456:6,1,65,8|0,0:0|0:0,0:0:0:0:
464,78,109318,2,0,P|493:93|511:118,1,65,2|0,0:0|0:0,0:0:0:0:
447,148,109588,2,0,P|441:181|423:206,1,65,8|0,0:0|0:0,0:0:0:0:
372,153,109858,2,0,P|338:158|309:148,1,65,2|0,0:0|0:0,0:0:0:0:
241,172,110129,2,0,P|222:245|263:290,1,130,8|2,0:0|0:0,0:0:0:0:
363,374,110669,2,0,P|384:315|351:261,1,130,6|2,0:0|0:0,0:0:0:0:
241,172,111210,6,0,L|75:185,1,130,12|2,0:0|0:0,0:0:0:0:
50,218,111615,1,0,0:0:0:0:
48,146,111750,2,0,P|33:84|69:33,1,130,8|2,0:0|0:0,0:0:0:0:
170,136,112291,2,0,P|184:197|148:248,1,130,8|2,0:0|0:0,0:0:0:0:
21,314,112831,2,0,L|85:308,1,65,8|0,0:0|0:0,0:0:0:0:
151,338,113102,2,0,L|215:332,1,65,2|0,0:0|0:0,0:0:0:0:
280,361,113372,6,0,P|284:300|336:249,1,130,8|2,0:0|0:0,0:0:0:0:
446,171,113912,2,0,P|442:232|390:283,1,130,8|2,0:0|0:0,0:0:0:0:
382,137,114453,2,0,P|432:99|492:115,1,130,8|2,0:0|0:0,0:0:0:0:
446,171,114858,1,0,0:0:0:0:
510,205,114994,2,0,P|459:242|399:226,1,130,8|2,0:0|0:0,0:0:0:0:
297,126,115534,6,0,L|328:252,1,130,8|2,0:0|0:0,0:0:0:0:
276,301,115940,1,0,0:0:0:0:
219,345,116075,2,0,P|153:354|88:312,1,130,8|2,0:0|0:0,0:0:0:0:
208,232,116615,2,0,P|272:222|329:252,1,130,8|2,0:0|0:0,0:0:0:0:
386,295,117021,1,0,0:0:0:0:
434,242,117156,2,0,L|465:115,1,130,8|2,0:0|0:0,0:0:0:0:
341,42,117696,6,0,P|310:49|285:69,1,65,8|0,0:0|0:0,0:0:0:0:
217,46,117967,2,0,P|213:78|233:118,1,65,2|0,0:0|0:0,0:0:0:0:
181,165,118237,2,0,P|211:178|255:171,1,65,8|0,0:0|0:0,0:0:0:0:
283,235,118507,2,0,P|303:211|312:180,1,65,2|0,0:0|0:0,0:0:0:0:
378,155,118777,2,0,P|301:109|242:176,1,195,8|4,0:0|3:0,0:0:0:0:
283,236,119318,6,0,L|388:231,1,97.50000371933,6|0,0:0|0:0,0:0:0:0:
