osu file format v14

[General]
AudioFilename: audio.mp3
AudioLeadIn: 0
PreviewTime: 69318
Countdown: 0
SampleSet: Soft
StackLeniency: 0.7
Mode: 0
LetterboxInBreaks: 0
EpilepsyWarning: 1
WidescreenStoryboard: 1

[Editor]
Bookmarks: 16075,33372,50670,70129,96075
DistanceSpacing: 0.7
BeatDivisor: 4
GridSize: 8
TimelineZoom: 1.3

[Metadata]
Title:Sayonara Heaven
TitleUnicode:サヨナラ・ヘヴン
Artist:Nekomata Master
ArtistUnicode:猫叉Master
Creator:Enon
Version:Beom's Beginner
Source:pop'n music 11
Tags:goodbye Beomsan jieusieu
BeatmapID:1130763
BeatmapSetID:516995

[Difficulty]
HPDrainRate:2
CircleSize:4
OverallDifficulty:2
ApproachRate:3
SliderMultiplier:1.4
SliderTickRate:2

[Events]
//Background and Video events
0,0,"BG.png",0,0
//Break Periods
//Storyboard Layer 0 (Background)
//Storyboard Layer 1 (Fail)
//Storyboard Layer 2 (Pass)
//Storyboard Layer 3 (Foreground)
Sprite,Foreground,Centre,"sb\beomsan.png",320,240 F,0,0,,0 F,0,5264,6345,0,1 M,0,5264,9588,89,377,99,377 P,0,5264,9588,A F,0,8507,9588,1,0
//Storyboard Sound Samples

[TimingPoints]
940,540.540540540541,4,2,1,70,1,0
24183,-100,4,2,2,70,0,0
24318,-100,4,2,1,70,0,0
32696,-100,4,2,3,70,0,0
33372,-100,4,2,1,45,0,0
37696,-100,4,3,4,70,0,0
37831,-100,4,2,1,45,0,0
50129,-100,4,2,3,60,0,0
50669,-100,4,2,1,65,0,0
52291,-100,4,2,6,65,0,0
52426,-100,4,2,1,65,0,0
54453,-100,4,2,6,65,0,0
54588,-100,4,2,1,65,0,0
60940,-100,4,2,6,65,0,0
61075,-100,4,2,1,65,0,0
63102,-100,4,2,6,65,0,0
63237,-100,4,2,1,65,0,0
67967,-100,4,2,1,65,0,0
69588,-100,4,2,1,65,0,0
70129,-100,4,2,1,90,0,1
86885,-100,4,2,6,90,0,1
87358,-100,4,2,1,90,0,0
87426,-100,4,2,1,90,0,1
96007,-100,4,2,1,90,0,0
96075,-100,4,2,1,90,0,1
102494,-100,4,2,1,90,0,0
102561,-100,4,2,1,90,0,1
102696,-100,4,2,1,70,0,1
110669,-100,4,2,2,70,0,1
110804,-100,4,2,1,70,0,1
118777,-100,4,2,1,70,0,0

[Colours]
Combo1 : 154,71,152
Combo2 : 192,163,220
Combo3 : 255,164,223
Combo4 : 241,80,132

[HitObjects]
318,215,16075,6,0,P|384:194|442:233,2,140,12|8|8,0:0|0:0|0:0,0:0:0:0:
258,292,17696,1,8,0:0:0:0:
171,244,18237,2,0,L|188:100,1,140,8|8,0:0|0:0,0:0:0:0:
95,71,19318,2,0,L|78:215,1,140,8|8,0:0|0:0,0:0:0:0:
90,307,20399,6,0,B|213:358|242:274|364:323,1,280,8|8,0:0|0:0,0:0:0:0:
445,267,22021,1,8,0:0:0:0:
417,172,22561,2,0,P|433:104|489:68,2,140,8|8|8,0:0|0:0|0:0,0:0:0:0:
445,267,24183,1,6,0:0:0:0:
368,328,24723,6,0,P|239:280|112:331,1,280,12|8,0:0|0:0,0:0:0:0:
64,244,26345,1,8,0:0:0:0:
111,158,26885,2,0,L|91:13,1,140,8|8,0:0|0:0,0:0:0:0:
189,30,27967,2,0,L|209:175,1,140,8|8,0:0|0:0,0:0:0:0:
285,228,29048,6,0,P|420:232|501:124,1,280,8|8,0:0|0:0,0:0:0:0:
493,26,30669,1,8,0:0:0:0:
412,82,31210,2,0,L|273:68,1,140,8|8,0:0|0:0,0:0:0:0:
183,109,32291,2,0,B|169:178|169:178|196:243,1,140,8|8,0:0|0:0,0:0:0:0:
283,286,33372,6,0,B|143:272|143:272|121:349|42:357,1,280,12|8,0:0|0:0,0:0:0:0:
46,258,34994,1,0,0:0:0:0:
104,179,35534,2,0,L|251:192,2,140,8|0|8,0:0|0:0|0:0,0:0:0:0:
46,258,37156,1,0,0:0:0:0:
94,343,37696,6,0,L|233:330,1,140,10|0,0:0|0:0,0:0:0:0:
305,264,38777,2,0,L|444:276,1,140,8|0,0:0|0:0,0:0:0:0:
512,207,39858,2,0,P|512:136|470:84,2,140,8|0|8,0:0|0:0|0:0,0:0:0:0:
421,170,41480,1,0,0:0:0:0:
340,225,42021,6,0,P|226:153|102:212,1,280,12|8,0:0|0:0,0:0:0:0:
63,297,43642,1,0,0:0:0:0:
122,374,44183,2,0,L|264:358,2,140,8|0|8,0:0|0:0|0:0,0:0:0:0:
63,297,45804,1,0,0:0:0:0:
113,212,46345,6,0,B|122:142|122:142|88:80,1,140,8|12,0:0|0:3,0:0:0:0:
185,64,47426,2,0,L|332:64,1,140,8|0,0:0|0:0,0:0:0:0:
423,81,48507,2,0,B|390:142|390:142|399:212,1,140,8|0,0:0|0:0,0:0:0:0:
449,297,49588,1,8,0:0:0:0:
394,378,50129,1,8,0:0:0:0:
312,323,50669,6,0,B|184:266|184:266|60:333,1,280,12|8,0:0|0:0,0:0:0:0:
25,241,52291,1,12,0:0:0:0:
64,151,52831,6,0,B|192:94|192:94|316:161,1,280,8|8,0:0|0:0,0:0:0:0:
403,202,54453,1,12,0:0:0:0:
471,272,54994,6,0,B|348:340|326:218|202:288,1,280,8|8,0:0|0:0,0:0:0:0:
124,345,56615,1,0,0:0:0:0:
40,294,57156,2,0,L|52:152,2,140,8|0|0,0:0|0:0|3:0,0:0:0:0:
124,345,58777,1,8,0:0:0:0:
203,287,59318,6,0,P|316:214|432:279,1,280,12|8,0:0|0:0,0:0:0:0:
487,197,60940,1,12,0:0:0:0:
449,106,61480,6,0,P|336:33|220:98,1,280,8|8,0:0|0:0,0:0:0:0:
187,189,63102,1,12,0:0:0:0:
116,257,63642,6,0,B|239:325|261:203|385:273,1,280,12|8,0:0|0:0,0:0:0:0:
463,214,65264,2,0,L|439:74,1,140,0|8,0:0|0:0,0:0:0:0:
256,192,66075,12,8,67967,3:0:0:0:
416,232,69588,6,0,L|399:147,1,70,2|0,3:0|3:0,0:0:0:0:
393,115,70129,6,0,B|333:150|333:150|262:137,1,140,12|8,0:0|0:0,0:0:0:0:
197,65,71210,2,0,B|127:52|127:52|67:87,1,140,8|8,0:0|0:0,0:0:0:0:
38,180,72291,2,0,L|62:320,1,140,8|8,0:0|0:0,0:0:0:0:
142,374,73372,1,8,0:0:0:0:
220,315,73912,1,8,0:0:0:0:
297,374,74453,6,0,P|317:312|285:244,1,140,8|8,0:0|0:0,0:0:0:0:
225,170,75534,2,0,P|205:108|237:40,1,140,8|8,0:0|0:0,0:0:0:0:
330,20,76615,2,0,L|473:39,2,140,8|8|8,0:0|0:0|0:0,0:0:0:0:
294,111,78237,1,8,0:0:0:0:
359,183,78777,6,0,B|357:255|357:255|304:300,1,140,12|8,0:0|0:0,0:0:0:0:
206,298,79858,2,0,B|155:255|155:255|153:183,1,140,8|8,0:0|0:0,0:0:0:0:
63,141,80940,2,0,L|63:284,2,140,8|8|8,0:0|0:0|0:0,0:0:0:0:
140,81,82561,1,8,0:0:0:0:
230,117,83102,6,0,P|300:126|354:89,1,140,8|8,0:0|0:0,0:0:0:0:
438,37,84183,2,0,L|460:175,1,140,8|8,0:0|0:0,0:0:0:0:
383,235,85264,2,0,P|430:283|439:353,2,140,8|8|8,0:0|0:0|0:0,0:0:0:0:
291,269,86885,1,12,0:0:0:0:
210,213,87426,6,0,L|69:226,1,140,12|8,0:0|0:0,0:0:0:0:
95,130,88507,2,0,L|236:117,1,140,8|8,0:0|0:0,0:0:0:0:
313,175,89588,2,0,B|373:139|373:139|442:149,1,140,8|8,0:0|0:0,0:0:0:0:
510,219,90669,1,8,0:0:0:0:
489,314,91210,1,8,0:0:0:0:
397,349,91750,6,0,L|258:331,1,140,8|8,0:0|0:0,0:0:0:0:
162,351,92831,2,0,B|173:283|173:283|136:220,1,140,8|8,0:0|0:0,0:0:0:0:
73,146,93912,2,0,B|137:121|137:121|173:57,2,140,8|8|8,0:0|0:0|0:0,0:0:0:0:
136,221,95534,1,8,0:0:0:0:
221,173,96075,6,0,L|437:178,1,210,4|4,3:0|3:0,0:0:0:0:
474,155,97156,2,0,P|400:224|412:328,1,210,4|4,3:0|3:0,0:0:0:0:
431,369,98237,2,0,L|215:364,1,210,4|4,3:0|3:0,0:0:0:0:
187,328,99318,2,0,L|172:187,1,140,4|4,3:0|3:0,0:0:0:0:
78,161,100399,6,0,L|93:302,1,140,4|4,3:0|3:0,0:0:0:0:
169,360,101480,2,0,B|238:373|238:373|297:336,1,140,12|12,0:3|0:3,0:0:0:0:
305,238,102561,6,0,B|373:223|373:223|436:253,2,140,12|8|8,0:0|0:0|0:0,0:0:0:0:
217,194,104183,1,8,0:0:0:0:
131,241,104723,2,0,L|115:99,1,140,8|8,0:0|0:0,0:0:0:0:
201,54,105804,2,0,L|217:196,1,140,8|8,0:0|0:0,0:0:0:0:
242,287,106885,6,0,P|367:335|471:249,1,280,8|8,0:0|0:0,0:0:0:0:
478,152,108507,1,8,0:0:0:0:
442,60,109048,2,0,L|300:81,2,140,8|8|8,0:0|0:0|0:0,0:0:0:0:
478,152,110669,1,6,0:0:0:0:
413,225,111210,6,0,P|288:170|166:228,1,280,12|8,0:0|0:0,0:0:0:0:
121,315,112831,1,8,0:0:0:0:
33,270,113372,2,0,B|46:130|46:130|157:47,1,280,8|8,0:0|0:0,0:0:0:0:
239,105,114994,1,8,0:0:0:0:
315,43,115534,6,0,B|384:60|384:60|446:27,2,140,8|8|8,0:0|0:0|0:0,0:0:0:0:
239,105,117156,1,8,0:0:0:0:
274,196,117696,2,0,L|265:336,2,140,8|8|8,0:0|0:0|0:0,0:0:0:0:
371,188,119318,5,6,0:0:0:0:
