osu file format v14

[General]
AudioFilename: audio.mp3
AudioLeadIn: 0
PreviewTime: 69318
Countdown: 0
SampleSet: Soft
StackLeniency: 0.7
Mode: 0
LetterboxInBreaks: 0
EpilepsyWarning: 1
WidescreenStoryboard: 1

[Editor]
Bookmarks: 16075,33372,50670,68327,70129,96075
DistanceSpacing: 1
BeatDivisor: 4
GridSize: 8
TimelineZoom: 1

[Metadata]
Title:Sayonara Heaven
TitleUnicode:サヨナラ・ヘヴン
Artist:Nekomata Master
ArtistUnicode:猫叉Master
Creator:Enon
Version:Another
Source:pop'n music 11
Tags:goodbye Beomsan jieusieu
BeatmapID:1264401
BeatmapSetID:516995

[Difficulty]
HPDrainRate:6
CircleSize:5
OverallDifficulty:7
ApproachRate:9
SliderMultiplier:1.6
SliderTickRate:2

[Events]
//Background and Video events
0,0,"BG.png",0,0
//Break Periods
//Storyboard Layer 0 (Background)
//Storyboard Layer 1 (Fail)
//Storyboard Layer 2 (Pass)
//Storyboard Layer 3 (Foreground)
Sprite,Foreground,Centre,"sb\enon.png",320,240 F,0,0,,0 F,0,5264,6345,0,1 M,0,5264,9588,89,377,99,377 P,0,5264,9588,A F,0,8507,9588,1,0
//Storyboard Sound Samples

[TimingPoints]
940,540.540540540541,4,2,1,70,1,0
16075,-50,4,2,1,70,0,0
17426,-50,4,2,10,70,0,0
17561,-50,4,2,1,70,0,0
24183,-50,4,2,2,70,0,0
24318,-50,4,2,1,70,0,0
26075,-50,4,2,10,70,0,0
26210,-50,4,2,1,70,0,0
32696,-50,4,2,3,70,0,0
33372,-50,4,2,1,45,0,0
37696,-50,4,3,4,70,0,0
37967,-50,4,2,1,45,0,0
41210,-50,4,2,10,45,0,0
41345,-50,4,2,1,45,0,0
46615,-50,4,2,10,45,0,0
46750,-50,4,2,1,45,0,0
50129,-50,4,2,3,60,0,0
50264,-50,4,2,1,45,0,0
50669,-50,4,2,1,65,0,0
52021,-50,4,2,10,45,0,0
52156,-50,4,2,1,65,0,0
52291,-50,4,2,6,65,0,0
52426,-50,4,2,1,65,0,0
54183,-50,4,2,10,45,0,0
54318,-50,4,2,1,65,0,0
54453,-50,4,2,6,65,0,0
54588,-50,4,2,1,65,0,0
60669,-50,4,2,10,45,0,0
60804,-50,4,2,1,65,0,0
60940,-50,4,2,6,65,0,0
61075,-50,4,2,1,65,0,0
62831,-50,4,2,10,45,0,0
62967,-50,4,2,1,65,0,0
63102,-50,4,2,6,65,0,0
63237,-50,4,2,1,65,0,0
69048,-50,4,2,1,80,0,0
69183,-50,4,2,1,65,0,0
70129,-50,4,2,1,90,0,1
95804,-50,4,2,1,90,0,0
96075,-50,4,2,1,90,0,1
99588,-50,4,2,10,90,0,1
99723,-50,4,2,1,90,0,1
102561,-50,4,2,1,90,0,0
102696,-50,4,2,1,70,0,0
103912,-50,4,2,10,70,0,0
104048,-50,4,2,1,70,0,0
110669,-50,4,2,2,70,0,0
110804,-50,4,2,1,70,0,0
112561,-50,4,2,10,70,0,0
112696,-50,4,2,1,70,0,0
119318,-133.333333333333,4,2,1,70,0,0
119858,-133.333333333333,4,2,1,5,0,0

[Colours]
Combo1 : 154,71,152
Combo2 : 192,163,220
Combo3 : 255,164,223
Combo4 : 241,80,132

[HitObjects]
308,282,16075,6,0,P|371:338|459:299,1,160,12|2,0:0|0:0,0:0:0:0:
387,256,16481,1,0,0:0:0:0:
466,230,16616,2,0,P|403:174|315:213,1,160,8|2,0:0|0:0,0:0:0:0:
226,306,17156,2,0,B|266:178|186:202|224:71,1,240,8|0,0:0|0:0,0:0:0:0:
163,19,17697,1,8,0:0:0:0:
84,19,17832,1,0,0:0:0:0:
29,74,17967,1,2,0:0:0:0:
25,152,18102,1,0,0:0:0:0:
76,211,18237,6,0,L|256:194,1,160,8|2,0:0|0:0,0:0:0:0:
203,269,18643,1,0,0:0:0:0:
170,342,18778,2,0,L|330:327,1,160,8|2,0:0|0:0,0:0:0:0:
482,376,19318,1,8,0:0:0:0:
405,379,19453,1,0,0:0:0:0:
368,312,19588,1,2,0:0:0:0:
413,250,19723,1,0,0:0:0:0:
487,261,19859,2,0,L|471:46,1,160,8|2,0:0|0:0,0:0:0:0:
400,130,20264,1,0,0:0:0:0:
327,162,20399,6,0,P|334:85|401:50,1,160,8|2,0:0|0:0,0:0:0:0:
400,130,20805,1,0,0:0:0:0:
384,208,20940,2,0,L|198:188,1,160,8|2,0:0|0:0,0:0:0:0:
151,226,21345,1,0,0:0:0:0:
77,260,21480,2,0,P|138:306|210:280,1,160,8|2,0:0|0:0,0:0:0:0:
151,226,21885,1,0,0:0:0:0:
225,191,22021,2,0,P|163:144|91:170,1,160,8|2,0:0|0:0,0:0:0:0:
391,341,22562,6,0,P|419:313|468:299,1,80,8|0,0:0|0:0,0:0:0:0:
482,224,22832,2,0,P|454:195|440:146,1,80,2|0,0:0|0:0,0:0:0:0:
365,130,23102,2,0,P|336:157|287:171,1,80,8|0,0:0|0:0,0:0:0:0:
271,246,23372,2,0,P|298:274|312:323,1,80,2|0,0:0|0:0,0:0:0:0:
441,158,23642,6,0,L|454:68,1,80,8|8,0:0|0:0,0:0:0:0:
365,130,23912,2,0,L|310:57,1,80,2|0,0:0|0:0,0:0:0:0:
298,170,24183,2,0,L|208:157,1,80,6|0,0:0|0:0,0:0:0:0:
271,246,24453,2,0,L|198:300,1,80,2|0,0:0|0:0,0:0:0:0:
238,366,24724,6,0,B|180:360|180:360|149:371|149:371|81:364,1,160,12|2,0:0|0:0,0:0:0:0:
121,295,25129,1,0,0:0:0:0:
161,225,25264,2,0,P|82:223|40:293,1,160,8|2,0:0|0:0,0:0:0:0:
270,311,25805,2,0,B|230:183|310:207|272:76,1,240,8|0,0:0|0:0,0:0:0:0:
198,108,26345,1,8,0:0:0:0:
257,155,26480,1,0,0:0:0:0:
329,129,26615,1,2,0:0:0:0:
345,54,26751,1,0,0:0:0:0:
287,4,26886,6,0,P|272:79|329:129,1,160,8|2,0:0|0:0,0:0:0:0:
405,104,27291,1,0,0:0:0:0:
479,72,27427,2,0,L|459:250,1,160,8|2,0:0|0:0,0:0:0:0:
508,384,27967,1,8,0:0:0:0:
468,315,28102,1,0,0:0:0:0:
396,283,28237,1,2,0:0:0:0:
319,297,28372,1,0,0:0:0:0:
253,343,28508,2,0,L|241:172,1,160,8|2,0:0|0:0,0:0:0:0:
165,208,28913,1,0,0:0:0:0:
89,233,29048,6,0,P|101:161|176:129,1,160,8|2,0:0|0:0,0:0:0:0:
165,208,29454,1,0,0:0:0:0:
242,184,29589,2,0,B|328:208|311:153|398:180,1,160,8|2,0:0|0:0,0:0:0:0:
471,34,30129,2,0,P|398:30|350:98,1,160,8|2,0:0|0:0,0:0:0:0:
431,106,30535,1,0,0:0:0:0:
398,180,30670,2,0,L|424:365,1,160,8|2,0:0|0:0,0:0:0:0:
200,261,31210,6,0,P|241:241|285:245,1,80,8|0,0:0|0:0,0:0:0:0:
100,286,31481,2,0,P|96:331|71:367,1,80,2|0,0:0|0:0,0:0:0:0:
128,186,31751,2,0,B|103:100|157:116|130:29,1,160,8|2,0:0|0:0,0:0:0:0:
63,73,32156,1,0,0:0:0:0:
126,121,32291,2,0,L|270:99,1,80,8|0,0:0|0:0,0:0:0:0:
363,134,32696,5,8,0:0:0:0:
339,210,32831,2,0,P|284:145|310:75,1,160,8|8,0:0|0:0,0:0:0:0:
363,134,33237,1,0,0:0:0:0:
419,190,33372,6,0,L|398:355,1,160,12|2,0:0|0:0,0:0:0:0:
318,335,33777,2,0,P|248:298|161:315,1,160,0|0,0:0|0:0,0:0:0:0:
105,358,34183,2,0,L|93:279,1,80,2|0,0:0|0:0,0:0:0:0:
156,228,34453,2,0,P|82:197|14:271,1,160,8|2,0:0|0:0,0:0:0:0:
150,139,34994,2,0,P|219:107|283:150,1,160,0|2,0:0|0:0,0:0:0:0:
212,190,35400,1,0,0:0:0:0:
150,139,35535,6,0,L|138:60,1,80,8|0,0:0|0:0,0:0:0:0:
216,73,35804,2,0,L|287:37,1,80,2|0,0:0|0:0,0:0:0:0:
299,115,36075,2,0,L|355:171,1,80,0|0,0:0|0:0,0:0:0:0:
284,206,36345,2,0,L|247:276,1,80,2|0,0:0|0:0,0:0:0:0:
192,219,36615,6,0,P|116:220|75:285,1,160,8|2,0:0|0:0,0:0:0:0:
155,291,37021,1,0,0:0:0:0:
117,362,37156,2,0,P|193:361|235:297,1,160,0|2,0:0|0:0,0:0:0:0:
301,252,37561,1,0,0:0:0:0:
306,331,37696,6,0,L|465:314,1,160,10|2,0:0|0:0,0:0:0:0:
296,173,38237,2,0,L|137:190,1,160,0|2,0:0|0:0,0:0:0:0:
77,244,38642,1,0,0:0:0:0:
47,169,38777,6,0,P|30:94|83:39,1,160,8|2,0:0|0:0,0:0:0:0:
107,116,39183,2,0,L|79:289,1,160,0|0,0:0|0:0,0:0:0:0:
65,352,39588,2,0,P|148:334|158:336,1,80,2|0,0:0|0:0,0:0:0:0:
197,276,39858,6,0,P|243:338|320:333,1,160,8|2,0:0|0:0,0:0:0:0:
278,264,40264,1,0,0:0:0:0:
358,256,40399,2,0,P|312:194|236:196,1,160,0|2,0:0|0:0,0:0:0:0:
498,49,40940,2,0,B|512:184|438:147|455:280,1,240,8|0,0:0|0:0,0:0:0:0:
456,280,41481,2,0,L|345:272,1,80,0|0,0:0|0:0,0:0:0:0:
301,246,41750,1,2,0:0:0:0:
304,323,41886,1,0,0:0:0:0:
245,372,42021,6,0,L|34:356,1,160,12|2,0:0|0:0,0:0:0:0:
5,360,42426,2,0,P|95:325|106:223,1,160,0|0,0:0|0:0,0:0:0:0:
194,264,42831,2,0,L|183:126,1,80,2|0,0:0|0:0,0:0:0:0:
138,122,43102,2,0,P|213:110|266:166,1,160,8|2,0:0|0:0,0:0:0:0:
109,195,43642,2,0,P|60:135|83:61,1,160,0|2,0:0|0:0,0:0:0:0:
138,122,44048,1,0,0:0:0:0:
187,184,44183,6,0,L|194:264,1,80,8|0,0:0|0:0,0:0:0:0:
272,246,44453,2,0,L|349:264,1,80,2|0,0:0|0:0,0:0:0:0:
356,184,44724,2,0,L|397:115,1,80,0|0,0:0|0:0,0:0:0:0:
324,84,44994,2,0,L|271:23,1,80,2|0,0:0|0:0,0:0:0:0:
218,85,45264,2,0,P|176:149|205:221,1,160,8|2,0:0|0:0,0:0:0:0:
259,158,45670,1,0,0:0:0:0:
300,231,45804,2,0,L|267:396,1,160,0|2,0:0|0:0,0:0:0:0:
259,158,46345,6,0,P|362:175|356:297,1,240,8|0,0:0|0:0,0:0:0:0:
300,231,46885,2,0,L|482:123,1,160,4|2,0:3|0:0,0:0:0:0:
438,230,47291,1,0,0:0:0:0:
437,310,47426,2,0,P|506:269|499:181,1,160,8|2,0:0|0:0,0:0:0:0:
438,149,47832,2,0,P|368:189|375:277,1,160,0|0,0:0|0:0,0:0:0:0:
321,331,48237,2,0,L|244:313,1,80,2|0,0:0|0:0,0:0:0:0:
173,355,48507,6,0,L|163:195,1,160,8|2,0:0|0:0,0:0:0:0:
233,153,48913,2,0,L|243:313,1,160,0|0,0:0|0:0,0:0:0:0:
173,355,49318,2,0,L|96:337,1,80,2|0,0:0|0:0,0:0:0:0:
20,364,49588,1,8,0:0:0:0:
108,140,49994,1,0,0:3:0:0:
166,194,50129,2,0,P|185:120|133:64,1,160,8|2,0:0|0:0,0:0:0:0:
108,140,50535,1,0,0:0:0:0:
166,194,50669,6,0,B|237:164|237:164|318:180,1,160,12|2,0:0|0:0,0:0:0:0:
287,106,51075,2,0,B|368:122|368:122|439:92,1,160,0|0,0:0|0:0,0:0:0:0:
510,54,51480,2,0,L|490:159,1,80,2|0,0:0|0:0,0:0:0:0:
508,211,51750,2,0,P|426:187|354:366,1,320,8|12,0:0|0:0,0:0:0:0:
352,363,52561,1,2,0:0:0:0:
273,354,52697,1,0,0:0:0:0:
191,342,52831,6,0,L|17:360,1,160,8|2,0:0|0:0,0:0:0:0:
1,284,53237,2,0,L|175:266,1,160,0|0,0:0|0:0,0:0:0:0:
126,195,53642,2,0,L|31:204,1,80,2|0,0:0|0:0,0:0:0:0:
0,137,53912,2,0,P|108:39|199:148,1,320,8|12,0:0|0:0,0:0:0:0:
199,147,54723,1,2,0:0:0:0:
278,138,54859,1,0,0:0:0:0:
357,129,54994,6,0,B|327:303,1,160,8|2,0:0|0:0,0:0:0:0:
314,365,55400,2,0,P|383:346|404:262,1,160,0|0,0:0|0:0,0:0:0:0:
330,287,55804,2,0,L|248:310,1,80,2|0,0:0|0:0,0:0:0:0:
194,254,56075,2,0,L|348:210,1,160,8|2,0:0|0:0,0:0:0:0:
422,182,56480,2,0,L|460:193,1,40,0|0,0:0|0:0,0:0:0:0:
422,182,56615,2,0,P|383:108|307:90,1,160,0|2,0:0|0:0,0:0:0:0:
157,184,57156,6,0,L|139:5,1,160,8|2,0:0|0:0,0:0:0:0:
233,155,57696,2,0,L|216:314,1,160,0|2,0:0|0:0,0:0:0:0:
134,192,58237,2,0,L|115:4,1,160,0|8,3:0|3:0,0:0:0:0:
254,145,58777,2,0,L|235:333,1,160,8|0,0:0|0:0,0:0:0:0:
185,364,59183,2,0,L|140:354,1,40,0|0,0:0|0:0,0:0:0:0:
185,364,59318,6,0,P|255:329|333:339,1,160,12|2,0:0|0:0,0:0:0:0:
363,264,59724,2,0,P|433:228|511:238,1,160,0|0,0:0|0:0,0:0:0:0:
492,316,60129,2,0,L|401:329,1,80,2|0,0:0|0:0,0:0:0:0:
333,339,60399,2,0,B|363:174|230:202|268:36,1,320,8|12,0:0|0:0,0:0:0:0:
267,38,61210,1,2,0:0:0:0:
187,30,61345,1,0,0:0:0:0:
107,22,61480,6,0,L|146:194,1,160,8|2,0:0|0:0,0:0:0:0:
66,155,61885,2,0,L|100:311,1,160,0|0,0:0|0:0,0:0:0:0:
23,287,62291,2,0,L|40:365,1,80,2|0,0:0|0:0,0:0:0:0:
100,311,62561,2,0,P|211:208|391:224,1,320,8|12,0:0|0:0,0:0:0:0:
371,213,63372,1,2,0:0:0:0:
362,292,63507,1,0,0:0:0:0:
353,371,63642,6,0,P|273:385|176:340,1,160,8|2,0:0|0:0,0:0:0:0:
166,287,64048,2,0,P|86:301|-11:256,1,160,0|0,0:0|0:0,0:0:0:0:
55,207,64453,2,0,L|133:212,1,80,2|0,0:0|0:0,0:0:0:0:
208,181,64723,2,0,P|231:101|181:45,1,160,8|2,0:0|0:0,0:0:0:0:
155,121,65129,2,0,L|116:110,1,40,0|0,0:0|0:0,0:0:0:0:
155,121,65264,2,0,L|329:96,1,160,0|2,0:0|0:0,0:0:0:0:
436,212,65804,6,0,P|446:288|391:342,1,160,8|2,0:0|0:0,0:0:0:0:
368,262,66209,1,0,0:0:0:0:
345,181,66345,2,0,P|289:234|300:311,1,160,8|2,0:0|0:0,0:0:0:0:
368,262,66750,1,0,0:0:0:0:
436,212,66885,6,0,L|449:93,1,80,8|0,0:0|0:0,0:0:0:0:
370,100,67156,2,0,L|383:-19,1,80,2|0,0:0|0:0,0:0:0:0:
336,260,67426,2,0,L|349:141,1,80,8|0,0:0|0:0,0:0:0:0:
270,148,67696,2,0,L|283:29,1,80,2|0,0:0|0:0,0:0:0:0:
266,156,67967,5,8,3:0:0:0:
253,262,68147,5,8,3:0:0:0:
240,368,68327,5,8,3:0:0:0:
228,384,68687,5,8,3:0:0:0:
210,235,68867,5,8,3:0:0:0:
192,87,69047,5,12,3:0:0:0:
299,345,69453,5,0,0:0:0:0:
228,384,69588,2,0,P|236:289|330:273,1,160,2|0,3:0|3:0,0:0:0:0:
446,251,70129,6,0,L|464:67,1,160,12|2,0:0|0:0,0:0:0:0:
409,31,70535,1,0,0:0:0:0:
342,176,70669,1,8,0:0:0:0:
293,111,70804,2,0,L|284:19,2,80,0|2|0,0:0|0:0|0:0,0:0:0:0:
342,176,71210,6,0,L|324:360,1,160,8|2,0:0|0:0,0:0:0:0:
254,369,71615,1,0,0:0:0:0:
187,224,71749,1,8,0:0:0:0:
145,294,71885,2,0,L|154:386,2,80,0|2|0,0:0|0:0|0:0,0:0:0:0:
187,224,72291,6,0,L|202:64,1,160,8|2,0:0|0:0,0:0:0:0:
139,16,72696,1,0,0:0:0:0:
72,161,72830,1,8,0:0:0:0:
30,91,72967,2,0,L|39:-1,2,80,0|2|0,0:0|0:0|0:0,0:0:0:0:
72,161,73372,6,0,P|108:122|155:121,1,80,8|0,0:0|0:0,0:0:0:0:
145,294,73642,2,0,P|121:325|84:337,1,80,2|0,0:0|0:0,0:0:0:0:
187,224,73912,2,0,B|261:259|272:191|352:235,1,160,8|2,0:0|0:0,0:0:0:0:
341,229,74453,6,0,P|376:143|478:151,1,160,8|2,0:0|0:0,0:0:0:0:
499,83,74858,1,0,0:0:0:0:
503,243,74994,2,0,P|490:324|488:328,1,80,8|0,0:0|0:0,0:0:0:0:
347,375,75264,2,0,P|347:335|358:296,1,80,2|0,0:0|0:0,0:0:0:0:
279,147,75534,6,0,L|267:68,1,80,8|0,0:0|0:0,0:0:0:0:
336,29,75804,2,0,L|347:110,1,80,2|0,0:0|0:0,0:0:0:0:
199,253,76075,2,0,L|208:170,1,80,8|0,0:0|0:0,0:0:0:0:
418,212,76345,2,0,L|407:293,1,80,2|0,0:0|0:0,0:0:0:0:
216,366,76615,6,0,P|194:332|161:310,1,80,8|0,0:0|0:0,0:0:0:0:
148,226,76885,2,0,P|187:232|221:254,1,80,2|0,0:0|0:0,0:0:0:0:
178,150,77156,2,0,P|138:144|100:155,1,80,8|0,0:0|0:0,0:0:0:0:
27,111,77426,2,0,P|57:85|95:74,1,80,2|0,0:0|0:0,0:0:0:0:
283,111,77696,6,0,B|286:193|217:169|220:272,1,160,8|2,0:0|0:0,0:0:0:0:
149,292,78102,1,0,0:0:0:0:
210,332,78237,2,0,P|304:317|363:371,1,160,8|2,0:0|0:0,0:0:0:0:
428,375,78642,1,0,0:0:0:0:
386,264,78777,6,0,P|466:231|472:137,1,160,12|2,0:0|0:0,0:0:0:0:
437,98,79183,1,0,0:0:0:0:
325,212,79318,1,8,0:0:0:0:
264,160,79453,2,0,L|253:73,2,80,0|2|0,0:0|0:0|0:0,0:0:0:0:
203,316,79858,6,0,P|123:283|117:189,1,160,8|2,0:0|0:0,0:0:0:0:
152,150,80264,1,0,0:0:0:0:
264,264,80399,1,8,0:0:0:0:
325,212,80534,2,0,L|336:125,2,80,0|2|0,0:0|0:0|0:0,0:0:0:0:
386,368,80940,6,0,P|466:335|472:241,1,160,8|2,0:0|0:0,0:0:0:0:
437,202,81346,1,0,0:0:0:0:
325,316,81481,1,8,0:0:0:0:
264,264,81615,2,0,L|253:177,2,80,0|2|0,0:0|0:0|0:0,0:0:0:0:
203,316,82021,6,0,P|174:338|111:333,1,80,8|0,0:0|0:0,0:0:0:0:
152,150,82291,2,0,P|181:128|244:133,1,80,2|0,0:0|0:0,0:0:0:0:
264,264,82561,2,0,L|112:210,1,160,8|2,0:0|0:0,0:0:0:0:
113,210,83102,6,0,P|160:272|129:344,1,160,8|2,0:0|0:0,0:0:0:0:
58,373,83507,1,0,0:0:0:0:
4,250,83642,2,0,P|3:207|-3:154,1,80,8|0,0:0|0:0,0:0:0:0:
156,70,83912,2,0,P|152:109|151:149,1,80,2|0,0:0|0:0,0:0:0:0:
254,343,84183,6,0,L|264:264,1,80,8|0,0:0|0:0,0:0:0:0:
343,254,84453,2,0,L|331:353,1,80,2|0,0:0|0:0,0:0:0:0:
201,199,84723,2,0,L|238:106,1,80,8|0,0:0|0:0,0:0:0:0:
434,302,84994,2,0,L|396:394,1,80,2|0,0:0|0:0,0:0:0:0:
358,207,85264,6,0,P|319:172|308:132,1,80,8|0,0:0|0:0,0:0:0:0:
231,125,85534,2,0,P|230:164|248:200,1,80,2|0,0:0|0:0,0:0:0:0:
152,151,85804,2,0,P|153:100|176:65,1,80,8|0,0:0|0:0,0:0:0:0:
132,2,86075,2,0,P|100:26|85:63,1,80,2|0,0:0|0:0,0:0:0:0:
25,178,86345,6,0,P|103:172|169:214,1,160,8|2,0:0|0:0,0:0:0:0:
248,200,86750,1,0,0:0:0:0:
260,120,86885,2,0,P|310:157|423:147,1,160,8|2,0:0|0:0,0:0:0:0:
463,101,87291,1,0,0:0:0:0:
440,219,87426,6,0,L|461:382,1,160,12|2,0:0|0:0,0:0:0:0:
387,344,87831,1,0,0:0:0:0:
512,185,87967,1,8,0:0:0:0:
466,119,88102,2,0,L|476:39,2,80,0|2|0,0:0|0:0|0:0,0:0:0:0:
292,178,88507,6,0,L|271:15,1,160,8|2,0:0|0:0,0:0:0:0:
345,53,88912,1,0,0:0:0:0:
220,212,89048,1,8,0:0:0:0:
266,278,89183,2,0,L|255:357,2,80,0|2|0,0:0|0:0|0:0,0:0:0:0:
102,180,89588,6,0,L|123:343,1,160,8|2,0:0|0:0,0:0:0:0:
49,305,89993,1,0,0:0:0:0:
174,146,90129,1,8,0:0:0:0:
128,80,90264,2,0,L|139:1,2,80,0|2|0,0:0|0:0|0:0,0:0:0:0:
56,114,90669,6,0,P|18:97|0:58,1,80,8|0,0:0|0:0,0:0:0:0:
174,146,90940,2,0,P|211:162|230:201,1,80,2|0,0:0|0:0,0:0:0:0:
125,338,91210,2,0,L|102:180,1,160,8|2,0:0|0:0,0:0:0:0:
101,179,91750,6,0,P|175:121|144:30,1,160,8|2,0:0|0:0,0:0:0:0:
119,1,92156,1,0,0:0:0:0:
20,200,92291,2,0,P|29:238|42:320,1,80,8|0,0:0|0:0,0:0:0:0:
192,384,92561,2,0,P|199:344|208:305,1,80,2|0,0:0|0:0,0:0:0:0:
158,169,92831,6,0,L|145:86,1,80,8|0,0:0|0:0,0:0:0:0:
211,44,93102,2,0,L|223:126,1,80,2|0,0:0|0:0,0:0:0:0:
92,315,93372,2,0,L|101:234,1,80,8|0,0:0|0:0,0:0:0:0:
303,159,93642,2,0,L|293:238,1,80,2|0,0:0|0:0,0:0:0:0:
347,382,93912,6,0,P|383:368|409:338,1,80,8|0,0:0|0:0,0:0:0:0:
435,187,94183,2,0,P|398:201|372:231,1,80,2|0,0:0|0:0,0:0:0:0:
486,328,94453,2,0,P|471:291|441:265,1,80,8|0,0:0|0:0,0:0:0:0:
294,239,94723,2,0,P|307:275|337:301,1,80,2|0,0:0|0:0,0:0:0:0:
477,118,94994,6,0,B|402:97|394:156|320:124,1,160,8|2,0:0|0:0,0:0:0:0:
249,90,95399,1,0,0:0:0:0:
185,138,95534,2,0,L|200:297,1,160,0|2,0:0|0:0,0:0:0:0:
45,254,96075,6,0,L|29:89,1,160,4|2,3:0|3:0,0:0:0:0:
83,35,96480,1,4,3:0:0:0:
131,270,96615,1,4,3:0:0:0:
185,138,96750,2,0,L|193:218,2,80,0|4|0,0:0|3:0|0:0,0:0:0:0:
467,254,97156,6,0,L|483:89,1,160,4|2,3:0|3:0,0:0:0:0:
429,35,97561,1,0,0:0:0:0:
381,270,97696,1,4,3:0:0:0:
327,138,97831,2,0,L|319:218,2,80,0|4|0,0:0|3:0|0:0,0:0:0:0:
325,333,98237,6,0,P|251:352|199:296,1,160,4|2,3:0|3:0,0:0:0:0:
192,217,98642,1,0,0:0:0:0:
392,349,98777,1,4,3:0:0:0:
301,262,98912,2,0,L|381:270,2,80,0|4|0,0:0|3:0|0:0,0:0:0:0:
247,347,99318,6,0,B|189:374|141:333|141:333|94:294|23:323,1,240,4|8,3:0|0:0,0:0:0:0:
200,283,99858,2,0,P|282:276|326:338,1,160,4|2,3:0|0:0,0:0:0:0:
247,347,100264,1,8,0:0:0:0:
296,192,100399,6,0,L|316:-26,1,160,4|2,3:0|0:0,0:0:0:0:
384,0,100804,1,0,3:0:0:0:
448,221,100940,1,4,3:0:0:0:
420,71,101075,2,0,L|412:150,2,80,8|6|8,0:0|3:0|0:0,0:0:0:0:
492,288,101480,5,12,0:3:0:0:
422,324,101615,1,8,0:0:0:0:
344,316,101750,1,10,0:3:0:0:
282,268,101885,1,4,3:0:0:0:
256,192,102021,1,12,0:3:0:0:
231,117,102156,1,8,0:0:0:0:
169,69,102291,1,14,0:3:0:0:
91,61,102426,1,8,0:0:0:0:
21,98,102561,6,0,L|38:278,1,160,12|2,0:0|0:0,0:0:0:0:
104,214,102967,1,0,0:0:0:0:
169,167,103102,2,0,L|184:326,1,160,8|2,0:0|0:0,0:0:0:0:
340,359,103642,2,0,P|431:369|485:228,1,240,8|0,0:0|0:0,0:0:0:0:
502,171,104183,1,8,0:0:0:0:
426,196,104318,1,0,0:0:0:0:
438,117,104453,1,2,0:0:0:0:
362,142,104588,1,0,0:0:0:0:
374,63,104723,6,0,P|468:38|520:100,1,160,8|2,0:0|0:0,0:0:0:0:
438,117,105129,1,0,0:0:0:0:
502,171,105264,2,0,P|408:196|356:134,1,160,8|2,0:0|0:0,0:0:0:0:
243,57,105804,1,8,0:0:0:0:
254,136,105940,1,0,0:0:0:0:
178,109,106075,1,2,0:0:0:0:
189,188,106211,1,0,0:0:0:0:
201,266,106345,2,0,P|112:243|48:264,1,160,8|2,0:0|0:0,0:0:0:0:
9,332,106750,1,0,0:0:0:0:
154,346,106885,6,0,B|218:336|218:336|250:351|250:351|326:338,1,160,8|2,0:0|0:0,0:0:0:0:
384,369,107291,1,0,0:0:0:0:
448,321,107426,2,0,P|505:270|494:194,1,160,8|2,0:0|0:0,0:0:0:0:
428,241,107831,1,0,0:0:0:0:
361,287,107967,2,0,L|374:101,1,160,8|2,0:0|0:0,0:0:0:0:
424,67,108372,1,0,0:0:0:0:
290,248,108507,2,0,L|302:61,1,160,8|2,0:0|0:0,0:0:0:0:
352,27,108912,1,0,0:0:0:0:
424,67,109048,6,0,L|513:55,1,80,8|0,0:0|0:0,0:0:0:0:
352,27,109318,2,0,L|263:15,1,80,2|0,0:0|0:0,0:0:0:0:
397,144,109588,2,0,L|486:132,1,80,8|0,0:0|0:0,0:0:0:0:
325,104,109858,2,0,L|236:92,1,80,2|0,0:0|0:0,0:0:0:0:
90,61,110129,6,0,P|74:104|79:139,1,80,8|0,0:0|0:0,0:0:0:0:
177,264,110399,2,0,P|192:220|187:185,1,80,2|0,0:0|0:0,0:0:0:0:
26,354,110669,2,0,L|133:338,1,80,6|0,0:0|0:0,0:0:0:0:
261,352,110940,2,0,L|182:364,1,80,2|0,0:0|0:0,0:0:0:0:
336,379,111210,6,0,P|378:290|472:281,1,160,12|2,0:0|0:0,0:0:0:0:
492,324,111615,1,0,0:0:0:0:
504,245,111750,2,0,L|511:83,1,160,8|2,0:0|0:0,0:0:0:0:
366,15,112291,2,0,P|273:23|238:166,1,240,8|0,0:0|0:0,0:0:0:0:
263,220,112831,1,8,0:0:0:0:
183,210,112967,1,0,0:0:0:0:
206,286,113102,1,2,0:0:0:0:
126,276,113237,1,0,0:0:0:0:
148,352,113372,6,0,P|76:337|48:264,1,160,8|2,0:0|0:0,0:0:0:0:
126,276,113777,1,0,0:0:0:0:
204,288,113912,2,0,P|178:215|104:199,1,160,8|2,0:0|0:0,0:0:0:0:
30,57,114453,1,8,0:0:0:0:
107,38,114588,1,0,0:0:0:0:
84,114,114723,1,2,0:0:0:0:
161,95,114858,1,0,0:0:0:0:
238,76,114994,2,0,L|234:262,1,160,8|2,0:0|0:0,0:0:0:0:
311,216,115399,1,0,0:0:0:0:
387,193,115534,6,0,P|461:200|495:291,1,160,8|2,0:0|0:0,0:0:0:0:
417,268,115940,1,0,0:0:0:0:
447,343,116075,2,0,L|274:331,1,160,8|2,0:0|0:0,0:0:0:0:
212,361,116480,1,0,0:0:0:0:
140,325,116615,2,0,L|117:136,1,160,8|2,0:0|0:0,0:0:0:0:
53,122,117021,1,0,0:0:0:0:
5,186,117156,2,0,L|28:375,1,160,8|2,0:0|0:0,0:0:0:0:
297,145,117696,6,0,P|345:63|339:44,1,80,8|0,0:0|0:0,0:0:0:0:
195,179,117967,2,0,P|99:178|87:193,1,80,2|0,0:0|0:0,0:0:0:0:
275,251,118237,2,0,P|337:359|361:363,1,160,8|2,0:0|0:0,0:0:0:0:
420,311,118642,1,0,0:0:0:0:
480,258,118777,1,8,0:0:0:0:
224,120,119183,1,4,3:0:0:0:
195,179,119318,6,0,L|214:304,1,120.000004577637,6|0,0:0|0:0,0:0:0:0:
