osu file format v14

[General]
AudioFilename: audio.mp3
AudioLeadIn: 0
PreviewTime: 69318
Countdown: 0
SampleSet: Soft
StackLeniency: 0.4
Mode: 0
LetterboxInBreaks: 0
EpilepsyWarning: 1
WidescreenStoryboard: 1

[Editor]
Bookmarks: 16075,33372,50670,70129,96075
DistanceSpacing: 1.15
BeatDivisor: 4
GridSize: 8
TimelineZoom: 2

[Metadata]
Title:Sayonara Heaven
TitleUnicode:サヨナラ・ヘヴン
Artist:Nekomata Master
ArtistUnicode:猫叉Master
Creator:Enon
Version:Beom's Black Another
Source:pop'n music 11
Tags:goodbye Beomsan jieusieu
BeatmapID:1109797
BeatmapSetID:516995

[Difficulty]
HPDrainRate:6
CircleSize:5
OverallDifficulty:8
ApproachRate:9.3
SliderMultiplier:1.6
SliderTickRate:2

[Events]
//Background and Video events
0,0,"BG.png",0,0
//Break Periods
//Storyboard Layer 0 (Background)
//Storyboard Layer 1 (Fail)
//Storyboard Layer 2 (Pass)
//Storyboard Layer 3 (Foreground)
Sprite,Foreground,Centre,"sb\beomsan.png",320,240 F,0,0,,0 F,0,5264,6345,0,1 M,0,5264,9588,89,377,99,377 P,0,5264,9588,A F,0,8507,9588,1,0
//Storyboard Sound Samples

[TimingPoints]
940,540.540540540541,4,2,1,70,1,0
16075,-55.5555555555556,4,2,1,70,0,0
24183,-55.5555555555556,4,2,2,70,0,0
24318,-55.5555555555556,4,2,1,70,0,0
32696,-55.5555555555556,4,2,3,70,0,0
32967,-55.5555555555556,4,2,3,70,0,0
33372,-64.5161290322581,4,2,1,45,0,0
37696,-64.5161290322581,4,3,4,70,0,0
37967,-64.5161290322581,4,2,1,45,0,0
39048,-64.5161290322581,4,2,10,45,0,0
39183,-64.5161290322581,4,2,1,45,0,0
47696,-64.5161290322581,4,2,10,45,0,0
47831,-64.5161290322581,4,2,1,45,0,0
50129,-64.5161290322581,4,2,3,60,0,0
50264,-64.5161290322581,4,2,1,45,0,0
50669,-64.5161290322581,4,2,1,65,0,0
52291,-64.5161290322581,4,2,6,65,0,0
52426,-64.5161290322581,4,2,1,65,0,0
54453,-64.5161290322581,4,2,6,65,0,0
54588,-64.5161290322581,4,2,1,65,0,0
55264,-64.5161290322581,4,2,10,65,0,0
55399,-64.5161290322581,4,2,10,5,0,0
55534,-64.5161290322581,4,2,1,65,0,0
60940,-64.5161290322581,4,2,6,65,0,0
61075,-64.5161290322581,4,2,1,65,0,0
63102,-64.5161290322581,4,2,6,65,0,0
63237,-64.5161290322581,4,2,1,65,0,0
67967,-83.3333333333333,4,2,1,65,0,0
69048,-83.3333333333333,4,2,1,80,0,0
69183,-83.3333333333333,4,2,1,65,0,0
70129,-55.5555555555556,4,2,1,90,0,1
86885,-50,4,2,1,90,0,1
87358,-55.5555555555556,4,2,1,90,0,0
87426,-50,4,2,1,90,0,1
87696,-55.5555555555556,4,2,1,90,0,1
96007,-55.5555555555556,4,2,1,90,0,0
96075,-55.5555555555556,4,2,1,90,0,1
102494,-55.5555555555556,4,2,1,90,0,0
102561,-55.5555555555556,4,2,1,90,0,1
102696,-55.5555555555556,4,2,1,70,0,1
110669,-55.5555555555556,4,2,2,70,0,1
110804,-55.5555555555556,4,2,1,70,0,1
118777,-55.5555555555556,4,2,1,70,0,0
119318,-76.9230769230769,4,2,1,70,0,0
119588,-55.5555555555556,4,2,1,5,0,0

[Colours]
Combo1 : 154,71,152
Combo2 : 192,163,220
Combo3 : 255,164,223
Combo4 : 241,80,132

[HitObjects]
256,192,13912,12,0,15264,0:0:0:0:
262,289,15399,5,0,0:0:0:0:
179,137,15534,2,0,L|162:219,1,80,0|0,0:0|0:0,0:0:0:0:
339,99,16075,6,0,B|391:83|391:83|434:85|434:85|479:72,1,143.999995605469,12|2,0:0|0:0,0:0:0:0:
426,15,16480,1,0,0:0:0:0:
494,137,16615,2,0,B|442:153|442:153|399:151|399:151|354:164,1,143.999995605469,8|2,0:0|0:0,0:0:0:0:
407,222,17021,1,0,0:0:0:0:
335,233,17156,6,0,L|331:308,1,71.9999978027344,8|0,0:0|0:0,0:0:0:0:
407,222,17426,1,2,0:0:0:0:
354,163,17561,1,0,0:0:0:0:
278,181,17696,2,0,P|209:193|158:142,1,143.999995605469,8|2,0:0|0:0,0:0:0:0:
153,125,18237,6,0,B|214:87|230:137|292:103,1,143.999995605469,8|2,0:0|0:0,0:0:0:0:
249,40,18642,1,0,0:0:0:0:
356,68,18777,2,0,P|359:137|304:179,1,143.999995605469,8|2,0:0|0:0,0:0:0:0:
291,103,19183,1,0,0:0:0:0:
356,68,19318,6,0,P|392:69|425:86,2,71.9999978027344,8|0|2,0:0|0:0|0:0,0:0:0:0:
439,157,19723,1,0,0:0:0:0:
457,150,19791,1,0,0:0:0:0:
476,143,19858,1,8,0:0:0:0:
375,136,19994,1,0,0:0:0:0:
438,226,20129,2,0,L|431:300,1,71.9999978027344,2|0,0:0|0:0,0:0:0:0:
269,350,20399,6,0,B|234:308|234:308|244:214,1,143.999995605469,8|2,0:0|0:0,0:0:0:0:
304,270,20804,1,0,0:0:0:0:
169,293,20940,2,0,L|179:215,1,71.9999978027344,8|0,0:0|0:0,0:0:0:0:
190,365,21210,2,0,L|112:355,1,71.9999978027344,2|0,0:0|0:0,0:0:0:0:
25,272,21480,6,0,L|103:282,2,71.9999978027344,8|0|2,0:0|0:0|0:0,0:0:0:0:
43,347,21885,1,0,0:0:0:0:
34,195,22021,2,0,P|71:135|139:132,1,143.999995605469,8|2,0:0|0:0,0:0:0:0:
213,189,22426,1,0,0:0:0:0:
199,200,22494,1,0,0:0:0:0:
186,212,22561,5,8,0:0:0:0:
108,200,22696,1,0,0:0:0:0:
205,118,22831,2,0,P|240:123|269:144,1,71.9999978027344,2|0,0:0|0:0,0:0:0:0:
189,286,23102,2,0,B|335:271,1,143.999995605469,8|2,0:0|0:0,0:0:0:0:
299,207,23507,1,0,0:0:0:0:
189,286,23642,6,0,P|175:318|172:355,2,71.9999978027344,8|8|2,0:0|0:0|0:0,0:0:0:0:
299,207,24048,1,0,0:0:0:0:
316,204,24115,1,0,0:0:0:0:
334,201,24183,1,6,0:0:0:0:
298,135,24318,1,0,0:0:0:0:
273,277,24453,1,2,0:0:0:0:
408,227,24588,1,0,0:0:0:0:
341,69,24723,6,0,P|269:60|223:111,1,143.999995605469,12|2,0:0|0:0,0:0:0:0:
298,135,25129,1,0,0:0:0:0:
197,207,25264,2,0,B|145:197|145:197|108:204|108:204|52:192,1,143.999995605469,8|2,0:0|0:0,0:0:0:0:
107,133,25669,1,0,0:0:0:0:
197,207,25804,6,0,P|209:240|210:280,2,71.9999978027344,8|0|2,0:0|0:0|0:0,0:0:0:0:
107,133,26210,1,0,0:0:0:0:
186,48,26345,2,0,B|238:38|238:38|275:45|275:45|331:33,1,143.999995605469,8|2,0:0|0:0,0:0:0:0:
348,26,26885,6,0,P|379:87|343:147,1,143.999995605469,8|2,0:0|0:0,0:0:0:0:
309,85,27291,1,0,0:0:0:0:
269,183,27426,2,0,L|417:175,1,143.999995605469,8|2,0:0|0:0,0:0:0:0:
309,85,27831,1,0,0:0:0:0:
192,160,27967,6,0,B|175:222|211:240|190:303,1,143.999995605469,8|2,0:0|0:0,0:0:0:0:
119,340,28372,1,0,0:0:0:0:
101,335,28440,1,0,0:0:0:0:
84,331,28507,1,8,0:0:0:0:
123,262,28642,1,0,0:0:0:0:
79,196,28777,2,0,P|81:157|91:125,1,71.9999978027344,2|0,0:0|0:0,0:0:0:0:
194,39,29048,6,0,P|157:34|123:18,2,71.9999978027344,8|0|2,0:0|0:0|0:0,0:0:0:0:
272,26,29453,1,0,0:0:0:0:
245,100,29588,2,0,P|245:165|309:203,1,143.999995605469,8|2,0:0|0:0,0:0:0:0:
306,133,29994,1,0,0:0:0:0:
288,270,30129,6,0,B|307:276|331:269|331:269|347:262|372:261|391:266|391:266|379:247|356:247,1,143.999995605469,8|2,0:0|0:0,0:0:0:0:
362,332,30534,1,0,0:0:0:0:
451,349,30669,2,0,P|492:316|440:331,1,143.999995605469,8|2,0:0|0:0,0:0:0:0:
451,231,31075,1,0,0:0:0:0:
444,214,31142,1,0,0:0:0:0:
438,197,31210,5,8,0:0:0:0:
511,190,31345,1,0,0:0:0:0:
369,169,31480,2,0,P|389:142|423:126,1,71.9999978027344,2|0,0:0|0:0,0:0:0:0:
377,238,31750,2,0,B|342:228|316:245|316:245|312:225|312:225|288:240|253:230,1,143.999995605469,8|2,0:0|0:0,0:0:0:0:
276,302,32156,1,0,0:0:0:0:
278,319,32223,1,0,0:0:0:0:
280,337,32291,5,8,0:0:0:0:
279,166,32426,2,0,L|285:90,1,71.9999978027344
201,290,32696,1,8,0:0:0:0:
183,55,32831,6,0,L|188:126,1,71.9999978027344,8|0,0:0|0:0,0:0:0:0:
384,164,33102,1,8,0:0:0:0:
168,209,33237,1,0,0:0:0:0:
402,42,33372,6,0,L|384:165,1,124.000000946045,12|2,0:0|0:0,0:0:0:0:
440,208,33777,2,0,P|483:218|447:181,1,124.000000946045,0|0,0:0|0:0,0:0:0:0:
374,234,34183,2,0,L|312:230,1,62.0000004730225,2|0,0:0|0:0,0:0:0:0:
278,292,34453,2,0,L|406:300,1,124.000000946045,8|2,0:0|0:0,0:0:0:0:
466,329,34858,2,0,P|474:342|481:360,2,31.0000002365112,0|0|0,0:0|0:0|0:0,0:0:0:0:
384,164,35264,1,2,0:0:0:0:
201,95,35534,6,0,P|175:76|158:48,1,62.0000004730225,8|0,0:0|0:0,0:0:0:0:
309,95,35804,2,0,P|335:76|352:48,1,62.0000004730225,2|0,0:0|0:0,0:0:0:0:
203,175,36075,2,0,P|171:179|139:172,1,62.0000004730225,0|0,0:0|0:0,0:0:0:0:
307,175,36345,2,0,P|338:179|370:172,1,62.0000004730225,2|0,0:0|0:0,0:0:0:0:
256,240,36615,2,0,L|256:368,1,124.000000946045,8|2,0:0|0:0,0:0:0:0:
325,314,37021,2,0,L|325:282,1,31.0000002365112,0|0,0:0|0:0,0:0:0:0:
325,253,37156,2,0,B|371:252|371:252|396:266|396:266|446:266,1,124.000000946045,0|2,0:0|0:0,0:0:0:0:
96,365,37696,6,0,P|65:313|85:257,1,124.000000946045,10|2,0:0|0:0,0:0:0:0:
138,202,38102,1,0,0:0:0:0:
189,145,38237,2,0,P|208:81|175:35,1,124.000000946045,0|2,0:0|0:0,0:0:0:0:
138,202,38777,2,0,B|223:251|237:168|319:223,1,186.000001419067,8|0,0:0|0:0,0:0:0:0:
254,383,39318,2,0,P|285:332|263:276,1,124.000000946045,0|2,0:0|0:0,0:0:0:0:
197,218,39723,1,0,0:0:0:0:
315,128,39858,6,0,P|372:148|419:113,1,124.000000946045,8|2,0:0|0:0,0:0:0:0:
280,49,40264,1,0,0:0:0:0:
219,110,40399,2,0,P|162:90|115:125,1,124.000000946045,8|2,0:0|0:0,0:0:0:0:
66,314,40940,2,0,L|188:292,1,124.000000946045,8|2,0:0|0:0,0:0:0:0:
108,223,41345,1,0,0:0:0:0:
105,376,41480,2,0,L|168:365,1,62.0000004730225,0|0,0:0|0:0,0:0:0:0:
243,248,41750,2,0,P|220:228|189:220,1,62.0000004730225,2|0,0:0|0:0,0:0:0:0:
349,351,42021,6,0,L|352:226,1,124.000000946045,12|2,0:0|0:0,0:0:0:0:
414,194,42426,2,0,P|458:191|416:221,1,124.000000946045,0|0,0:0|0:0,0:0:0:0:
354,157,42832,2,0,L|292:150,1,62.0000004730225,2|0,0:0|0:0,0:0:0:0:
269,82,43102,2,0,L|396:96,1,124.000000946045,8|2,0:0|0:0,0:0:0:0:
461,79,43507,2,0,P|471:67|481:51,2,31.0000002365112
351,227,43913,1,2,0:0:0:0:
201,95,44183,6,0,P|175:76|158:48,1,62.0000004730225,8|0,0:0|0:0,0:0:0:0:
309,95,44453,2,0,P|335:76|352:48,1,62.0000004730225,2|0,0:0|0:0,0:0:0:0:
203,175,44724,2,0,P|171:179|139:172,1,62.0000004730225,0|0,0:0|0:0,0:0:0:0:
307,175,44994,2,0,P|338:179|370:172,1,62.0000004730225,2|0,0:0|0:0,0:0:0:0:
256,240,45264,2,0,L|256:368,1,124.000000946045,8|2,0:0|0:0,0:0:0:0:
187,314,45670,2,0,L|187:282,1,31.0000002365112,0|0,0:0|0:0,0:0:0:0:
187,253,45804,2,0,B|141:252|141:252|116:266|116:266|66:266,1,124.000000946045,0|2,0:0|0:0,0:0:0:0:
315,203,46345,6,0,P|376:201|413:249,1,124.000000946045,8|2,0:0|0:0,0:0:0:0:
347,262,46750,1,0,0:0:0:0:
280,141,46885,2,0,L|292:14,1,124.000000946045,4|2,0:3|0:0,0:0:0:0:
358,88,47291,1,0,0:0:0:0:
230,218,47426,2,0,B|205:229|184:222|184:222|168:214|136:214|112:224|112:224|129:195|173:198,1,186.000001419067,8|0,0:0|0:0,0:0:0:0:
150,284,47967,2,0,P|91:291|47:250,1,124.000000946045,0|2,0:0|0:0,0:0:0:0:
66,155,48372,1,0,0:0:0:0:
248,153,48507,6,0,L|268:293,1,124.000000946045,8|2,0:0|0:0,0:0:0:0:
326,200,48912,1,0,0:0:0:0:
317,103,49048,2,0,P|264:68|207:77,1,124.000000946045,0|2,0:0|0:0,0:0:0:0:
162,153,49453,1,0,0:0:0:0:
122,75,49588,2,0,L|132:43,2,31.0000002365112,8|0|0,0:0|0:0|0:0,0:0:0:0:
88,142,49858,2,0,L|71:203,1,62.0000004730225,0|0,0:0|0:3,0:0:0:0:
54,276,50129,2,0,B|103:270|103:270|125:284|125:284|172:276,1,124.000000946045,8|2,0:0|0:0,0:0:0:0:
188,271,50467,1,0,0:0:0:0:
203,266,50534,2,0,L|235:258,1,31.0000002365112,0|0,0:0|0:0,0:0:0:0:
287,200,50669,6,0,L|324:318,1,124.000000946045,12|2,0:0|0:0,0:0:0:0:
348,168,51075,2,0,P|303:132|240:147,1,124.000000946045,0|0,0:0|0:0,0:0:0:0:
371,235,51480,2,0,L|432:215,1,62.0000004730225,2|0,0:0|0:0,0:0:0:0:
500,193,51750,1,8,0:0:0:0:
245,278,52021,1,2,0:0:0:0:
336,27,52291,1,12,0:0:0:0:
172,120,52561,2,0,P|145:112|117:90,1,62.0000004730225,2|0,0:0|0:0,0:0:0:0:
74,33,52831,6,0,L|76:159,1,124.000000946045,8|2,0:0|0:0,0:0:0:0:
42,223,53237,2,0,B|93:249|109:203|163:232,1,124.000000946045
125,295,53642,2,0,P|92:303|63:303,1,62.0000004730225,2|0,0:0|0:0,0:0:0:0:
9,353,53912,1,8,0:0:0:0:
150,125,54183,1,2,0:0:0:0:
308,341,54453,1,12,0:0:0:0:
397,175,54723,2,0,P|429:174|457:182,1,62.0000004730225,2|0,0:0|0:0,0:0:0:0:
365,244,54994,6,0,B|374:216|361:191|361:191|371:153|371:153|351:123|349:90|373:58,1,186.000001419067,8|0,0:0|0:0,0:0:0:0:
425,106,55534,2,0,P|369:136|316:114,1,124.000000946045,8|2,0:0|0:0,0:0:0:0:
110,251,56075,6,0,P|148:204|207:208,1,124.000000946045,8|2,0:0|0:0,0:0:0:0:
261,258,56480,1,0,0:0:0:0:
265,271,56548,1,0,0:0:0:0:
270,286,56615,1,8,0:0:0:0:
219,197,56750,1,0,0:0:0:0:
117,262,56885,2,0,L|56:263,1,62.0000004730225,2|0,0:0|0:0,0:0:0:0:
63,109,57156,6,0,B|86:95|93:72|93:72|125:50|164:69,1,124.000000946045,8|2,0:0|0:0,0:0:0:0:
256,136,57561,1,0,0:0:0:0:
348,69,57696,2,0,B|387:50|419:72|419:72|426:95|449:109,1,124.000000946045,8|2,0:0|0:0,0:0:0:0:
482,51,58102,1,0,0:0:0:0:
385,143,58237,2,0,P|406:167|436:181,1,62.0000004730225,0|0,3:0|0:0,0:0:0:0:
256,136,58507,1,8,3:0:0:0:
165,343,58777,2,0,L|152:217,1,124.000000946045,8|0,0:0|0:0,0:0:0:0:
151,204,59115,1,0,0:0:0:0:
150,188,59183,2,0,L|147:152,1,31.0000002365112,0|0,0:0|0:0,0:0:0:0:
99,100,59318,6,0,P|157:83|208:114,1,124.000000946045,12|2,0:0|0:0,0:0:0:0:
76,171,59723,2,0,P|32:129|33:69,1,124.000000946045,0|0,0:0|0:0,0:0:0:0:
147,157,60129,2,0,L|154:226,1,62.0000004730225,2|0,0:0|0:0,0:0:0:0:
161,292,60399,1,8,0:0:0:0:
243,37,60669,1,2,0:0:0:0:
490,144,60940,1,12,0:0:0:0:
306,182,61210,2,0,L|330:241,1,62.0000004730225,2|0,0:0|0:0,0:0:0:0:
360,125,61480,6,0,P|302:102|249:126,1,124.000000946045,8|2,0:0|0:0,0:0:0:0:
275,296,61885,2,0,P|333:319|386:295,1,124.000000946045
234,213,62291,2,0,L|188:264,1,62.0000004730225,2|0,0:0|0:0,0:0:0:0:
110,358,62561,1,8,0:0:0:0:
334,212,62831,1,2,0:0:0:0:
92,98,63102,1,12,0:0:0:0:
272,42,63372,2,0,L|294:103,1,62.0000004730225,2|0,0:0|0:0,0:0:0:0:
430,176,63642,6,0,P|462:140|412:154,1,124.000000946045,8|2,0:0|0:0,0:0:0:0:
390,251,64048,2,0,B|395:296|395:296|408:322|408:322|412:371,1,124.000000946045,0|0,0:0|0:0,0:0:0:0:
322,278,64453,2,0,P|319:243|330:211,1,62.0000004730225,2|0,0:0|0:0,0:0:0:0:
344,346,64723,2,0,B|290:367|281:321|222:351,1,124.000000946045,8|2,0:0|0:0,0:0:0:0:
203,247,65129,1,0,0:0:0:0:
218,248,65196,1,0,0:0:0:0:
233,250,65264,1,0,0:0:0:0:
160,312,65399,1,0,0:0:0:0:
157,188,65534,2,0,L|167:123,1,62.0000004730225,2|0,0:0|0:0,0:0:0:0:
219,61,65804,5,8,0:0:0:0:
256,192,65849,12,8,67426,0:0:0:0:
235,276,67967,5,8,3:0:0:0:
226,110,68147,5,8,3:0:0:0:
330,239,68327,5,8,3:0:0:0:
330,239,68687,5,8,3:0:0:0:
170,196,68867,5,8,3:0:0:0:
325,137,69048,5,12,3:0:0:0:
235,276,69453,5,0,0:0:0:0:
166,320,69588,2,0,P|122:337|73:331,1,95.9999970703126,2|0,3:0|3:0,0:0:0:0:
59,87,70129,6,4,B|117:64|141:107|199:80,1,143.999995605469,12|2,0:0|0:0,0:0:0:0:
96,149,70534,1,0,0:0:0:0:
160,21,70669,1,8,0:0:0:0:
203,154,70804,1,0,0:0:0:0:
208,173,70872,1,0,0:0:0:0:
214,192,70940,2,0,P|237:223|266:238,1,71.9999978027344,2|0,0:0|0:0,0:0:0:0:
303,300,71210,6,0,B|245:323|221:280|163:307,1,143.999995605469,8|2,0:0|0:0,0:0:0:0:
266,238,71615,1,0,0:0:0:0:
202,366,71750,1,8,0:0:0:0:
159,233,71885,1,0,0:0:0:0:
154,214,71953,1,0,0:0:0:0:
148,195,72021,2,0,P|125:164|96:149,1,71.9999978027344,2|0,0:0|0:0,0:0:0:0:
97,73,72291,6,0,P|148:22|212:37,1,143.999995605469,8|2,0:0|0:0,0:0:0:0:
166,91,72696,1,0,0:0:0:0:
97,73,72831,1,8,0:0:0:0:
212,37,72967,1,0,0:0:0:0:
231,40,73034,1,0,0:0:0:0:
251,43,73102,2,0,P|280:65|298:99,1,71.9999978027344,2|0,0:0|0:0,0:0:0:0:
221,229,73372,5,8,0:0:0:0:
305,114,73507,1,0,0:0:0:0:
305,257,73642,1,2,0:0:0:0:
221,141,73777,1,0,0:0:0:0:
356,184,73912,2,0,B|376:192|395:187|395:187|414:181|438:181|456:186|456:186|441:167|420:167,1,143.999995605469,8|2,0:0|0:0,0:0:0:0:
419,166,74453,6,0,P|424:232|491:248,1,143.999995605469,8|2,0:0|0:0,0:0:0:0:
452,98,74858,1,0,0:0:0:0:
342,149,74994,1,8,0:0:0:0:
269,53,75129,1,0,0:0:0:0:
288,55,75196,1,0,0:0:0:0:
308,57,75264,1,2,0:0:0:0:
198,48,75399,1,0,0:0:0:0:
250,198,75534,6,0,P|264:166|264:130,1,71.9999978027344,8|0,0:0|0:0,0:0:0:0:
126,28,75804,2,0,P|125:63|140:96,1,71.9999978027344,2|0,0:0|0:0,0:0:0:0:
242,214,76075,2,0,B|181:239|161:198|101:223,1,143.999995605469,8|2,0:0|0:0,0:0:0:0:
210,336,76615,6,0,B|271:361|291:320|351:345,1,143.999995605469,8|2,0:0|0:0,0:0:0:0:
417,373,77021,1,0,0:0:0:0:
407,301,77156,2,0,P|435:237|503:237,1,143.999995605469,8|2,0:0|0:0,0:0:0:0:
512,224,77696,6,0,L|491:151,1,71.9999978027344,8|0,0:0|0:0,0:0:0:0:
399,87,77967,2,0,L|420:160,1,71.9999978027344,2|0,0:0|0:0,0:0:0:0:
361,200,78237,2,0,P|317:249|251:222,1,143.999995605469,8|2,0:0|0:0,0:0:0:0:
58,125,78777,6,0,P|112:79|178:95,1,143.999995605469,12|2,0:0|0:0,0:0:0:0:
179,16,79183,1,0,0:0:0:0:
127,149,79318,1,8,0:0:0:0:
250,117,79453,1,0,0:0:0:0:
267,106,79521,1,0,0:0:0:0:
284,96,79588,2,0,P|303:65|309:29,1,71.9999978027344,2|0,0:0|0:0,0:0:0:0:
204,183,79858,6,0,B|186:255|228:254|205:325,1,143.999995605469,8|2,0:0|0:0,0:0:0:0:
269,218,80264,1,0,0:0:0:0:
142,284,80399,1,8,0:0:0:0:
277,318,80534,1,0,0:0:0:0:
296,322,80602,1,0,0:0:0:0:
316,326,80669,2,0,P|351:316|378:293,1,71.9999978027344,2|0,0:0|0:0,0:0:0:0:
512,206,80940,6,0,P|463:158|394:175,1,143.999995605469,8|2,0:0|0:0,0:0:0:0:
444,227,81345,1,0,0:0:0:0:
512,206,81480,1,8,0:0:0:0:
395,173,81615,1,0,0:0:0:0:
375,175,81683,1,0,0:0:0:0:
355,177,81750,2,0,P|322:183|292:211,1,71.9999978027344,2|0,0:0|0:0,0:0:0:0:
364,343,82021,5,8,0:0:0:0:
280,228,82156,1,0,0:0:0:0:
280,371,82291,1,2,0:0:0:0:
364,255,82426,1,0,0:0:0:0:
229,298,82561,2,0,B|209:306|190:301|190:301|171:295|147:295|129:300|129:300|144:281|165:281,1,143.999995605469,8|2,0:0|0:0,0:0:0:0:
165,280,83102,6,0,P|160:346|93:362,1,143.999995605469,8|2,0:0|0:0,0:0:0:0:
43,214,83507,1,0,0:0:0:0:
19,308,83642,1,8,0:0:0:0:
124,201,83777,1,0,0:0:0:0:
121,183,83845,1,0,0:0:0:0:
119,165,83912,1,2,0:0:0:0:
94,274,84048,1,0,0:0:0:0:
54,136,84183,6,0,P|76:108|116:92,1,71.9999978027344,8|0,0:0|0:0,0:0:0:0:
234,161,84453,2,0,P|201:147|179:119,1,71.9999978027344,2|0,0:0|0:0,0:0:0:0:
296,15,84723,2,0,B|320:162|320:161,1,143.999995605469,8|2,0:0|0:0,0:0:0:0:
145,296,85264,6,0,B|206:321|226:280|286:305,1,143.999995605469,8|2,0:0|0:0,0:0:0:0:
245,366,85669,1,0,0:0:0:0:
187,234,85804,2,0,P|182:163|238:130,1,143.999995605469,8|2,0:0|0:0,0:0:0:0:
252,117,86345,6,0,L|177:122,1,71.9999978027344,8|0,0:0|0:0,0:0:0:0:
241,196,86615,2,0,L|316:191,1,71.9999978027344,2|0,0:0|0:0,0:0:0:0:
83,53,86885,6,0,B|72:110|72:110|78:148|78:148|64:213,1,160,8|2,0:0|0:0,0:0:0:0:
429,331,87426,6,0,B|440:274|440:274|434:236|434:236|448:171,1,160,12|2,0:0|0:0,0:0:0:0:
371,272,87831,1,0,0:0:0:0:
502,240,87967,1,8,0:0:0:0:
377,151,88102,1,0,0:0:0:0:
362,140,88169,1,0,0:0:0:0:
347,130,88237,1,2,0:0:0:0:
500,113,88372,1,0,0:0:0:0:
333,121,88507,6,0,P|330:54|395:36,1,143.999995605469,8|2,0:0|0:0,0:0:0:0:
248,65,88912,1,0,0:0:0:0:
425,100,89048,1,8,0:0:0:0:
257,140,89183,1,0,0:0:0:0:
239,138,89250,1,0,0:0:0:0:
221,136,89318,1,2,0:0:0:0:
392,160,89453,1,0,0:0:0:0:
306,293,89588,6,0,P|236:286|196:341,1,143.999995605469,8|2,0:0|0:0,0:0:0:0:
225,213,89994,1,0,0:0:0:0:
265,349,90129,1,8,0:0:0:0:
155,260,90264,1,0,0:0:0:0:
143,273,90331,1,0,0:0:0:0:
132,288,90399,1,2,0:0:0:0:
157,175,90534,1,0,0:0:0:0:
130,100,90669,6,0,L|142:26,1,71.9999978027344,8|0,0:0|0:0,0:0:0:0:
370,28,90940,2,0,L|382:100,1,71.9999978027344,2|0,0:0|0:0,0:0:0:0:
299,238,91210,2,0,P|369:221|421:266,1,143.999995605469,8|2,0:0|0:0,0:0:0:0:
425,282,91750,6,0,B|380:316|380:316|346:319|346:319|303:350,1,143.999995605469,8|2,0:0|0:0,0:0:0:0:
452,357,92156,1,0,0:0:0:0:
468,217,92291,1,8,0:0:0:0:
329,241,92426,1,0,0:0:0:0:
312,234,92494,1,0,0:0:0:0:
295,228,92561,1,2,0:0:0:0:
483,212,92696,1,0,0:0:0:0:
398,116,92831,6,0,P|385:80|387:46,1,71.9999978027344,8|0,0:0|0:0,0:0:0:0:
398,225,93102,2,0,P|399:260|386:294,1,71.9999978027344,2|0,0:0|0:0,0:0:0:0:
233,297,93372,2,0,P|163:298|135:236,1,143.999995605469,8|2,0:0|0:0,0:0:0:0:
210,66,93912,6,0,P|280:65|308:127,1,143.999995605469,8|2,0:0|0:0,0:0:0:0:
289,220,94318,1,0,0:0:0:0:
127,163,94453,2,0,L|138:19,1,143.999995605469,8|2,0:0|0:0,0:0:0:0:
361,219,94994,6,0,P|351:256|330:284,1,71.9999978027344,8|0,0:0|0:0,0:0:0:0:
321,154,95264,2,0,P|358:144|392:148,1,71.9999978027344,2|0,0:0|0:0,0:0:0:0:
289,220,95534,2,0,P|252:177|275:98,1,143.999995605469,8|2,0:0|0:0,0:0:0:0:
405,332,96075,5,4,3:0:0:0:
400,343,96345,1,2,3:0:0:0:
252,301,96480,1,4,3:0:0:0:
352,229,96615,1,4,3:0:0:0:
200,202,96750,1,0,0:0:0:0:
182,196,96818,1,0,0:0:0:0:
165,191,96885,1,4,3:0:0:0:
278,146,97021,1,0,0:0:0:0:
250,314,97156,5,4,3:0:0:0:
249,326,97426,1,2,3:0:0:0:
361,219,97561,1,0,0:0:0:0:
471,275,97696,1,4,3:0:0:0:
456,150,97831,1,0,0:0:0:0:
459,132,97899,1,0,0:0:0:0:
463,114,97967,1,4,3:0:0:0:
352,229,98102,1,0,0:0:0:0:
287,41,98237,5,4,3:0:0:0:
278,52,98507,1,2,3:0:0:0:
125,28,98642,1,0,0:0:0:0:
99,148,98777,1,4,3:0:0:0:
252,172,98912,1,0,0:0:0:0:
251,189,98980,1,0,0:0:0:0:
249,207,99048,1,4,3:0:0:0:
102,133,99183,1,0,0:0:0:0:
22,152,99318,5,4,3:0:0:0:
45,72,99453,1,0,0:0:0:0:
163,178,99588,1,2,0:0:0:0:
106,117,99723,1,8,0:0:0:0:
186,98,99858,1,4,3:0:0:0:
256,139,99994,1,0,0:0:0:0:
313,83,100129,1,2,0:0:0:0:
282,11,100264,1,8,0:0:0:0:
203,21,100399,5,4,3:0:0:0:
507,209,100669,1,0,0:0:0:0:
306,249,100804,1,2,3:0:0:0:
414,189,100940,1,4,3:0:0:0:
449,310,101075,1,8,0:0:0:0:
451,327,101142,1,0,0:0:0:0:
453,345,101210,1,6,3:0:0:0:
391,254,101345,1,8,0:0:0:0:
327,149,101480,5,12,0:3:0:0:
405,101,101615,1,8,0:0:0:0:
322,226,101750,1,10,0:3:0:0:
400,178,101885,1,4,3:0:0:0:
313,302,102021,5,12,0:3:0:0:
391,254,102156,1,8,0:0:0:0:
308,379,102291,1,14,0:3:0:0:
386,331,102426,1,8,0:0:0:0:
233,268,102561,6,0,B|163:243|162:297|93:266,1,143.999995605469,12|2,0:0|0:0,0:0:0:0:
133,207,102967,1,0,0:0:0:0:
86,154,103102,2,0,P|82:83|139:49,1,143.999995605469,8|2,0:0|0:0,0:0:0:0:
33,28,103507,1,0,0:0:0:0:
157,52,103642,6,0,L|235:69,1,71.9999978027344,8|0,0:0|0:0,0:0:0:0:
334,128,103912,2,0,L|256:145,1,71.9999978027344,2|0,0:0|0:0,0:0:0:0:
228,215,104183,2,0,B|229:269|229:269|238:305|238:305|236:358,1,143.999995605469,8|2,0:0|0:0,0:0:0:0:
425,337,104723,6,0,P|450:271|413:211,1,143.999995605469,8|2,0:0|0:0,0:0:0:0:
352,180,105129,1,0,0:0:0:0:
286,157,105264,2,0,P|250:97|275:32,1,143.999995605469,8|2,0:0|0:0,0:0:0:0:
325,90,105669,1,0,0:0:0:0:
298,227,105804,6,0,L|216:215,1,71.9999978027344,8|0,0:0|0:0,0:0:0:0:
142,121,106075,2,0,L|224:109,1,71.9999978027344,2|0,0:0|0:0,0:0:0:0:
238,294,106345,2,0,B|184:285|184:285|162:257|162:257|103:249,1,143.999995605469,8|2,0:0|0:0,0:0:0:0:
120,321,106750,1,0,0:0:0:0:
122,338,106818,1,0,0:0:0:0:
124,356,106885,5,8,0:0:0:0:
99,180,107021,1,0,0:0:0:0:
142,121,107156,2,0,L|224:109,1,71.9999978027344,2|0,0:0|0:0,0:0:0:0:
286,157,107426,2,0,P|250:97|275:32,1,143.999995605469,8|2,0:0|0:0,0:0:0:0:
325,90,107831,1,0,0:0:0:0:
360,155,107967,6,0,B|346:302,1,143.999995605469,8|2,0:0|0:0,0:0:0:0:
281,238,108372,1,0,0:0:0:0:
325,90,108507,2,0,P|359:81|397:91,1,71.9999978027344,8|0,0:0|0:0,0:0:0:0:
466,244,108777,2,0,P|432:253|394:243,1,71.9999978027344,2|0,0:0|0:0,0:0:0:0:
386,238,108980,1,0,0:0:0:0:
378,229,109048,5,8,0:0:0:0:
428,183,109183,1,0,0:0:0:0:
346,298,109318,2,0,L|276:324,1,71.9999978027344,2|0,0:0|0:0,0:0:0:0:
146,289,109588,2,0,L|283:236,1,143.999995605469,8|2,0:0|0:0,0:0:0:0:
302,168,109994,1,0,0:0:0:0:
307,95,110129,6,0,P|298:59|274:30,2,71.9999978027344,8|0|2,0:0|0:0|0:0,0:0:0:0:
364,134,110534,1,0,0:0:0:0:
380,127,110602,1,0,0:0:0:0:
397,121,110669,1,6,0:0:0:0:
238,92,110804,1,0,0:0:0:0:
153,232,110940,2,0,L|144:309,1,71.9999978027344,2|0,0:0|0:0,0:0:0:0:
352,334,111210,6,0,P|368:264|322:214,1,143.999995605469,12|2,0:0|0:0,0:0:0:0:
298,284,111615,1,0,0:0:0:0:
345,349,111750,2,0,B|395:338|395:338|435:342|435:342|486:327,1,143.999995605469,8|2,0:0|0:0,0:0:0:0:
440,264,112156,1,0,0:0:0:0:
464,192,112291,6,0,P|467:152|454:120,1,71.9999978027344,8|0,0:0|0:0,0:0:0:0:
350,31,112561,2,0,L|331:105,1,71.9999978027344,2|0,0:0|0:0,0:0:0:0:
222,177,112831,2,0,P|154:189|116:131,1,143.999995605469,8|2,0:0|0:0,0:0:0:0:
331,201,113372,6,0,B|358:268|324:279|353:342,1,143.999995605469,8|2,0:0|0:0,0:0:0:0:
409,291,113777,1,0,0:0:0:0:
273,251,113912,2,0,P|267:289|271:322,1,71.9999978027344,8|0,0:0|0:0,0:0:0:0:
409,291,114183,2,0,P|412:255|407:219,1,71.9999978027344,2|0,0:0|0:0,0:0:0:0:
403,208,114385,1,0,0:0:0:0:
397,197,114453,5,8,0:0:0:0:
487,242,114588,1,0,0:0:0:0:
365,135,114723,2,0,P|396:115|413:81,1,71.9999978027344,2|0,0:0|0:0,0:0:0:0:
271,53,114994,2,0,L|250:195,1,143.999995605469,8|2,0:0|0:0,0:0:0:0:
159,214,115399,1,0,0:0:0:0:
143,204,115467,1,0,0:0:0:0:
127,195,115534,5,8,0:0:0:0:
179,140,115669,1,0,0:0:0:0:
222,267,115804,2,0,L|168:314,1,71.9999978027344,2|0,0:0|0:0,0:0:0:0:
249,195,116075,2,0,P|316:177|366:224,1,143.999995605469,8|2,0:0|0:0,0:0:0:0:
299,246,116480,1,0,0:0:0:0:
247,111,116615,6,0,B|301:101|301:101|336:109|336:109|389:98,1,143.999995605469,8|2,0:0|0:0,0:0:0:0:
348,36,117021,1,0,0:0:0:0:
275,33,117156,2,0,L|205:50,1,71.9999978027344,8|0,0:0|0:0,0:0:0:0:
348,36,117426,1,2,0:0:0:0:
429,160,117561,1,0,0:0:0:0:
446,154,117629,1,0,0:0:0:0:
463,149,117696,5,8,0:0:0:0:
388,98,117831,1,0,0:0:0:0:
383,218,117967,2,0,L|404:290,1,71.9999978027344,2|0,0:0|0:0,0:0:0:0:
345,345,118237,2,0,L|306:204,1,143.999995605469,8|2,0:0|0:0,0:0:0:0:
239,242,118642,6,0,L|201:251,2,35.9999989013672,0|0|8,0:0|0:0|0:0,0:0:0:0:
244,170,118912,2,0,L|247:94,1,71.9999978027344
240,315,119183,1,4,3:0:0:0:
119,169,119318,6,0,P|104:121|132:79,1,103.999995239258,6|0,0:0|0:0,0:0:0:0:
