osu file format v14

[General]
AudioFilename: audio.mp3
AudioLeadIn: 0
PreviewTime: 57998
Countdown: 0
SampleSet: Soft
StackLeniency: 0.7
Mode: 0
LetterboxInBreaks: 0
WidescreenStoryboard: 1

[Editor]
Bookmarks: 30998,76427,92498
DistanceSpacing: 1.2
BeatDivisor: 2
GridSize: 8
TimelineZoom: 1

[Metadata]
Title:Raindrops#1 [Aqua]
TitleUnicode:Raindrops#1 「Aqua」
Artist:Nekomata Master
ArtistUnicode:猫叉Master
Creator:Livstvichka
Version:Easy
Source:
Tags:Hard Nekomata Master Aqua
BeatmapID:1280790
BeatmapSetID:594535

[Difficulty]
HPDrainRate:3
CircleSize:3
OverallDifficulty:3
ApproachRate:3
SliderMultiplier:1
SliderTickRate:1

[Events]
//Background and Video events
0,0,"birch_branches_leaves_ear_rings_rain_55540_3840x21601.jpg",0,0
//Break Periods
//Storyboard Layer 0 (Background)
//Storyboard Layer 1 (Fail)
//Storyboard Layer 2 (Pass)
//Storyboard Layer 3 (Foreground)
//Storyboard Sound Samples

[TimingPoints]
3570,428.571428571429,4,2,1,5,1,0
3570,-133.333333333333,4,2,1,5,0,0
10427,-133.333333333333,4,2,1,10,0,0
17284,-133.333333333333,4,2,1,15,0,0
24141,-133.333333333333,4,2,1,15,0,0
24998,-133.333333333333,4,2,1,15,0,0
27570,-133.333333333333,4,2,1,20,0,0
30998,-111.111111111111,4,2,1,25,0,1
41284,-153.846153846154,4,2,1,25,0,1
42998,-153.846153846154,4,2,1,25,0,1
43855,-111.111111111111,4,2,1,25,0,1
54998,-111.111111111111,4,2,1,25,0,1
55855,-111.111111111111,4,2,1,25,0,1
56712,-111.111111111111,4,2,1,25,0,1
57570,-111.111111111111,4,2,1,25,0,1
57998,-133.333333333333,4,2,1,25,0,0
86712,-153.846153846154,4,2,1,25,0,0
88855,-153.846153846154,4,2,1,20,0,0
89712,-153.846153846154,4,2,1,15,0,0
91427,-153.846153846154,4,2,1,10,0,0
92498,-153.846153846154,4,2,1,5,0,0

[Colours]
Combo1 : 107,52,143
Combo2 : 216,253,2
Combo3 : 184,218,80
Combo4 : 128,128,192
SliderBorder : 128,128,192
SliderTrackOverride : 84,58,137

[HitObjects]
72,283,3570,6,0,P|136:256|216:272,1,150.000005722046,10|2,0:0|0:0,0:0:0:0:
288,320,4855,1,0,0:0:0:0:
376,288,5284,2,0,P|440:216|424:144,1,150.000005722046,2|2,0:0|0:0,0:0:0:0:
352,200,6570,1,0,0:0:0:0:
368,112,6998,6,0,P|296:128|264:208,1,150.000005722046,2|2,0:0|0:0,0:0:0:0:
288,280,8284,1,2,0:0:0:0:
208,328,8712,2,0,P|136:360|56:312,1,150.000005722046,2|2,0:0|0:0,0:0:0:0:
48,248,9998,1,0,0:0:0:0:
136,272,10427,6,0,P|155:235|152:184,1,75.0000028610231,10|2,0:0|0:0,0:0:0:0:
104,128,11284,2,0,P|96:80|128:32,1,75.0000028610231
184,96,12141,2,0,L|368:104,1,150.000005722046
400,168,13427,1,0,0:0:0:0:
458,239,13855,6,0,P|368:256|312:200,1,150.000005722046,2|2,0:0|0:0,0:0:0:0:
160,152,15570,2,0,P|250:168|306:112,1,150.000005722046,2|2,0:0|0:0,0:0:0:0:
408,0,17284,6,0,L|400:160,1,150.000005722046,10|2,0:0|0:0,0:0:0:0:
376,240,18570,1,0,0:0:0:0:
344,328,18998,2,0,P|288:272|296:192,1,150.000005722046,2|0,0:0|0:0,0:0:0:0:
320,120,20284,1,0,0:0:0:0:
232,136,20712,6,0,L|72:168,1,150.000005722046,2|2,0:0|0:0,0:0:0:0:
24,232,21998,1,0,0:0:0:0:
112,248,22427,2,0,P|176:256|224:336,1,150.000005722046,2|0,0:0|0:0,0:0:0:0:
136,336,23712,1,0,0:0:0:0:
48,312,24141,6,0,P|24:272|24:232,1,75.0000028610231,10|2,0:0|0:0,0:0:0:0:
96,192,24998,2,0,P|112:144|104:104,1,75.0000028610231,2|0,0:0|0:0,0:0:0:0:
72,40,25855,2,0,L|256:32,1,150.000005722046,2|2,0:0|0:0,0:0:0:0:
304,64,27141,1,0,0:0:0:0:
384,104,27570,6,0,P|424:176|384:256,2,150.000005722046,2|2|10,0:0|0:0|0:0,0:0:0:0:
296,120,29712,1,10,0:0:0:0:
208,136,30141,1,10,0:0:0:0:
256,344,30998,6,0,P|216:320|144:328,1,89.9999972534181,10|2,0:0|0:0,0:0:0:0:
64,336,31855,1,2,0:0:0:0:
56,232,32284,1,2,0:0:0:0:
48,128,32712,2,0,L|37:18,1,90.9999958343508,2|2,0:0|0:0,0:0:0:0:
144,56,33570,2,0,P|208:16|336:56,1,179.999994506836,10|10,0:0|0:0,0:0:0:0:
152,184,35284,1,2,0:0:0:0:
144,288,35712,1,2,0:0:0:0:
240,240,36141,6,0,P|257:195|251:149,1,90.9999958343508,2|2,0:0|0:0,0:0:0:0:
200,64,36998,2,0,L|394:68,1,181.999991668702,10|10,0:0|0:0,0:0:0:0:
448,272,38712,1,2,0:0:0:0:
232,248,39570,1,2,0:0:0:0:
184,152,39998,1,2,0:0:0:0:
296,152,40427,6,0,P|344:224|328:312,1,179.999994506836,10|10,0:0|0:0,0:0:0:0:
176,304,42141,1,10,0:0:0:0:
184,152,42998,1,10,0:0:0:0:
32,176,43855,1,10,0:0:0:0:
120,232,44284,1,2,0:0:0:0:
208,288,44712,6,0,P|288:272|312:158,1,179.999994506836,2|2,0:0|0:0,0:0:0:0:
288,88,45998,1,2,0:0:0:0:
200,24,46427,2,0,L|96:32,1,89.9999972534181,2|2,0:0|0:0,0:0:0:0:
32,104,47284,2,0,P|5:151|80:264,1,179.999994506836,10|10,0:0|0:0,0:0:0:0:
256,336,48998,1,2,0:0:0:0:
208,240,49427,1,2,0:0:0:0:
312,248,49855,6,0,L|501:241,1,181.999991668702,10|10,0:0|0:0,0:0:0:0:
376,64,51570,2,0,P|332:27|193:50,1,181.999991668702,10|2,0:0|0:0,0:0:0:0:
160,128,52855,1,2,0:0:0:0:
88,208,53284,2,0,P|160:240|248:200,1,179.999994506836,2|2,0:0|0:0,0:0:0:0:
256,96,54570,1,2,0:0:0:0:
336,160,54998,6,0,P|360:88|272:-8,1,179.999994506836,10|10,0:0|0:0,0:0:0:0:
247,200,56712,2,0,P|271:272|183:368,1,179.999994506836,10|10,0:0|0:0,0:0:0:0:
168,264,57998,1,2,0:0:0:0:
168,264,58427,6,0,P|144:200|184:120,1,150.000005722046,10|2,0:0|0:0,0:0:0:0:
256,88,59712,1,2,0:0:0:0:
344,56,60141,2,0,L|448:64,1,75.0000028610231
480,128,60998,1,0,0:0:0:0:
464,216,61427,2,0,P|416:232|368:216,1,75.0000028610231,10|2,0:0|0:0,0:0:0:0:
320,176,62284,1,2,0:0:0:0:
248,232,62712,6,0,P|232:136|288:88,1,150.000005722046,10|2,0:0|0:0,0:0:0:0:
344,64,63998,1,2,0:0:0:0:
432,80,64427,2,0,L|440:160,1,75.0000028610231,10|2,0:0|0:0,0:0:0:0:
400,232,65284,6,0,L|224:224,1,150.000005722046,10|2,0:0|0:0,0:0:0:0:
176,280,66570,1,2,0:0:0:0:
96,320,66998,2,0,P|88:264|104:224,1,75.0000028610231,10|2,0:0|0:0,0:0:0:0:
64,160,67855,2,0,P|131:162|160:184,1,75.0000028610231,10|2,0:0|0:0,0:0:0:0:
216,208,68712,6,0,P|304:216|360:152,1,150.000005722046,2|10,0:0|0:0,0:0:0:0:
272,136,69998,1,2,0:0:0:0:
224,64,70427,2,0,P|192:96|184:144,1,75.0000028610231,10|2,0:0|0:0,0:0:0:0:
144,208,71284,1,10,0:0:0:0:
200,280,71712,1,2,0:0:0:0:
240,200,72141,6,0,L|416:208,1,150.000005722046,10|10,0:0|0:0,0:0:0:0:
456,272,73427,1,2,0:0:0:0:
368,288,73855,2,0,L|184:280,1,150.000005722046,2|10,0:0|0:0,0:0:0:0:
136,312,75141,1,2,0:0:0:0:
56,352,75570,6,0,P|48:304|64:264,1,75.0000028610231,10|2,0:0|0:0,0:0:0:0:
104,200,76427,1,2,0:0:0:0:
160,128,76855,1,2,0:0:0:0:
216,56,77284,2,0,P|288:32|376:64,1,150.000005722046,10|10,0:0|0:0,0:0:0:0:
400,128,78570,1,2,0:0:0:0:
440,208,78998,6,0,L|424:384,1,150.000005722046,10|2,0:0|0:0,0:0:0:0:
248,336,80712,1,10,0:0:0:0:
272,160,81570,2,0,P|317:185|336:224,1,75.0000028610231,10|2,0:0|0:0,0:0:0:0:
248,248,82427,6,0,L|80:240,1,150.000005722046,2|10,0:0|0:0,0:0:0:0:
56,160,83712,1,2,0:0:0:0:
128,104,84141,2,0,L|304:112,1,150.000005722046,10|10,0:0|0:0,0:0:0:0:
368,120,85427,2,0,P|376:160|355:218,1,75.0000028610231,10|10,0:0|0:0,0:0:0:0:
240,280,86712,5,10,0:0:0:0:
120,176,87570,1,2,0:0:0:0:
232,72,88427,1,2,0:0:0:0:
152,80,88855,2,0,P|168:24|191:2,1,64.9999970245363,10|10,0:0|0:0,0:0:0:0:
328,40,90141,5,2,0:0:0:0:
328,192,90998,1,2,0:0:0:0:
480,192,91855,1,2,0:0:0:0:
408,280,92498,2,0,P|360:296|304:280,2,97.4999955368044,2|2|10,0:0|0:0|0:0,0:0:0:0:
