osu file format v14

[General]
AudioFilename: audio.mp3
AudioLeadIn: 0
PreviewTime: 66546
Countdown: 0
SampleSet: Normal
StackLeniency: 0.7
Mode: 0
LetterboxInBreaks: 0
WidescreenStoryboard: 1

[Editor]
Bookmarks: 2697,16908,29540,42171,54803,67434,81645,95855,108487,114408
DistanceSpacing: 0.8
BeatDivisor: 4
GridSize: 4
TimelineZoom: 2.6

[Metadata]
Title:Nekozamurai no Gyakushu
TitleUnicode:猫侍の逆襲
Artist:Nekomata Master
ArtistUnicode:猫叉Master
Creator:moph
Version:Normal
Source:GITADORA
Tags:naoyuki sato follow slowly neko samurai jubeat saucer pop'n music kwk alheak
BeatmapID:1179939
BeatmapSetID:518743

[Difficulty]
HPDrainRate:3
CircleSize:3
OverallDifficulty:3
ApproachRate:4.5
SliderMultiplier:1.2
SliderTickRate:1

[Events]
//Background and Video events
0,0,"bg.jpg",0,0
//Break Periods
//Storyboard Layer 0 (Background)
//Storyboard Layer 1 (Fail)
//Storyboard Layer 2 (Pass)
//Storyboard Layer 3 (Foreground)
//Storyboard Sound Samples

[TimingPoints]
1119,394.736842105263,4,1,1,50,1,0
2697,-100,4,1,1,60,0,0
16908,-100,4,1,1,70,0,0
67434,-100,4,1,1,80,0,1
81250,-100,4,1,1,80,0,0
81645,-100,4,1,1,80,0,1
95855,-100,4,1,1,70,0,0
113717,-100,4,1,1,20,0,0
114408,-100,4,1,1,5,0,0

[Colours]
Combo1 : 169,117,189
Combo2 : 184,80,80
Combo3 : 83,114,187
Combo4 : 218,131,78

[HitObjects]
79,249,1119,6,0,L|159:249,1,60,8|8,0:3|0:0,0:0:0:0:
219,305,1711,1,8,0:0:0:0:
219,305,1908,2,0,P|235:249|215:189,1,120,0|8,3:0|0:3,0:0:0:0:
167,109,2697,6,0,B|107:121|107:121|23:101,2,120,4|0|0,0:0|0:0|0:0,0:0:0:0:
264,86,3882,1,0,0:0:0:0:
356,60,4276,2,0,B|412:48|412:48|492:64,1,120
462,155,5066,1,8,0:3:0:0:
365,155,5461,1,2,0:0:0:0:
416,235,5855,6,0,P|439:306|425:351,1,120,4|0,0:0|0:0,0:0:0:0:
342,300,6645,2,0,B|286:288|286:288|194:308,1,120
132,328,7434,1,4,0:0:0:0:
148,232,7829,1,4,0:0:0:0:
60,268,8224,2,0,L|-8:244,2,60,6|2|6,0:0|0:0|0:0,0:0:0:0:
68,172,9013,6,0,P|48:112|68:52,1,120,6|0,0:0|0:0,0:0:0:0:
160,56,9803,2,0,L|288:80,1,120,0|0,0:0|0:0,0:0:0:0:
372,80,10592,2,0,L|489:57,2,120,2|0|2,0:3|0:0|0:3,0:0:0:0:
328,164,11776,1,2,0:3:0:0:
412,212,12171,6,0,P|432:272|408:336,1,120,6|2,0:0|0:0,0:0:0:0:
336,272,12961,2,0,B|278:258|278:258|218:270,1,120,2|2,0:0|0:0,0:0:0:0:
139,324,13750,2,0,P|124:267|143:211,2,120,2|2|2,0:0|0:0|0:0,0:0:0:0:
218,270,14934,1,2,0:0:0:0:
228,176,15329,6,0,L|208:48,1,120,6|2,0:0|0:0,0:0:0:0:
300,24,16118,2,0,L|320:152,1,120,12|8,0:0|0:0,0:0:0:0:
408,176,16908,6,0,P|428:244|392:320,1,120,4|2,0:0|0:0,0:0:0:0:
380,324,17500,1,8,0:0:0:0:
380,324,17697,2,0,B|320:308|320:308|248:328,1,120,8|2,0:3|0:0,0:0:0:0:
172,352,18487,2,0,P|115:371|56:352,1,120,8|2,0:3|0:0,0:0:0:0:
28,316,19079,1,8,0:0:0:0:
28,316,19276,2,0,L|88:192,1,120,2|2,0:0|0:0,0:0:0:0:
32,125,20066,6,0,P|85:112|156:147,1,120,6|2,0:0|0:0,0:0:0:0:
216,72,20855,2,0,P|260:88|344:56,2,120,8|2|8,0:3|0:0|0:3,0:0:0:0:
144,135,22040,1,2,0:0:0:0:
172,226,22434,2,0,P|136:231|95:216,2,60,2|8|2,0:0|0:0|0:0,0:0:0:0:
212,208,23026,1,8,0:0:0:0:
212,208,23224,6,0,L|328:272,1,120,6|2,0:0|0:0,0:0:0:0:
380,340,24013,2,0,L|437:234,1,120,8|2,0:3|0:0,0:0:0:0:
504,164,24803,2,0,L|388:100,1,120,8|2,0:3|0:0,0:0:0:0:
336,32,25592,2,0,L|278:137,1,120,2|2,0:0|0:0,0:0:0:0:
244,172,26184,1,8,0:3:0:0:
244,172,26382,6,0,P|180:156|108:180,1,120,4|2,0:0|0:0,0:0:0:0:
48,224,27171,2,0,P|32:165|53:106,2,120,8|2|4,0:3|0:0|0:0,0:0:0:0:
85,312,28355,1,2,0:0:0:0:
181,310,28750,2,0,L|182:235,2,60,2|8|8,0:3|0:3|0:3,0:0:0:0:
213,345,29342,1,8,0:0:0:0:
213,345,29540,6,0,L|347:345,1,120,6|2,0:0|0:0,0:0:0:0:
425,317,30329,2,0,P|431:347|425:380,2,60,2|8|2,0:0|0:0|0:0,0:0:0:0:
400,276,30921,1,8,0:0:0:0:
400,276,31118,2,0,L|440:122,1,120,2|2,0:0|0:0,0:0:0:0:
348,108,31908,2,0,L|308:262,1,120,2|2,0:0|0:0,0:0:0:0:
295,269,32500,1,8,0:0:0:0:
295,269,32697,6,0,P|227:265|177:292,1,120,6|2,0:0|0:0,0:0:0:0:
116,358,33487,2,0,P|56:376|-7:350,1,120,2|2,0:0|0:0,0:0:0:0:
60,280,34276,1,2,0:0:0:0:
60,183,34671,1,2,0:0:0:0:
2,105,35066,2,0,P|62:87|125:113,1,120,2|2,0:0|0:0,0:0:0:0:
158,136,35658,1,8,0:0:0:0:
158,136,35855,6,0,P|218:154|281:128,1,120,2|2,0:0|0:0,0:0:0:0:
363,111,36645,2,0,L|364:50,2,60,2|8|2,0:0|0:0|0:0,0:0:0:0:
401,150,37237,1,8,0:0:0:0:
401,150,37434,2,0,B|387:213|387:213|407:286,1,120,2|2,0:0|0:0,0:0:0:0:
326,326,38224,2,0,L|292:201,1,120,2|2,0:0|0:0,0:0:0:0:
210,256,39013,6,0,P|186:260|149:254,2,60,2|0|2,0:0|0:0|0:0,0:0:0:0:
183,162,39803,1,2,0:0:0:0:
267,116,40197,1,2,0:0:0:0:
184,67,40592,2,0,P|128:28|68:29,1,120,2|2,0:0|0:0,0:0:0:0:
104,119,41382,2,0,B|81:159|101:221|119:190|135:254|94:332,1,180,8|0,0:3|0:0,0:0:0:0:
94,338,42171,6,0,L|-10:337,2,90,6|8|2,0:0|0:0|0:0,0:0:0:0:
136,364,42961,1,8,0:0:0:0:
216,312,43355,2,0,L|320:313,2,90,2|8|2,0:0|0:0|0:0,0:0:0:0:
174,286,44145,1,8,0:0:0:0:
248,224,44540,2,0,B|228:168|228:168|248:100,1,120,8|2,0:0|0:0,0:0:0:0:
292,28,45329,6,0,P|248:16|188:40,2,90,2|0|2,0:3|0:0|0:3,0:0:0:0:
332,56,46118,1,10,0:0:0:0:
404,120,46513,2,0,P|448:108|508:132,2,90,2|8|2,0:0|0:0|0:0,0:0:0:0:
364,148,47302,1,8,0:0:0:0:
448,196,47697,2,0,B|428:256|428:256|445:310,1,120,2|2,0:3|0:3,0:0:0:0:
348,296,48487,6,0,L|376:388,2,90,2|8|8,0:0|0:0|0:0,0:0:0:0:
312,264,49276,1,2,0:0:0:0:
236,323,49671,6,0,L|202:228,2,90,6|2|2,0:0|0:0|0:0,0:0:0:0:
272,356,50460,1,8,0:0:0:0:
312,264,50855,2,0,L|264:128,1,120,8|8,0:0|0:0,0:0:0:0:
224,68,51645,6,0,B|288:56|288:56|320:68,2,90,2|0|2,0:0|0:0|0:0,0:0:0:0:
180,52,52434,1,8,0:0:0:0:
128,132,52829,2,0,B|64:144|64:144|32:132,2,90,2|0|2,0:0|0:0|0:0,0:0:0:0:
172,148,53618,1,8,0:3:0:0:
124,232,54013,2,0,P|104:296|128:356,1,120,0|8,0:0|0:3,0:0:0:0:
199,291,54803,6,0,L|326:326,1,120,12|12,0:3|0:3,0:0:0:0:
395,374,55592,2,0,L|430:247,1,120,6|12,0:3|0:3,0:0:0:0:
471,173,56382,2,0,L|344:138,1,120,12|6,0:3|0:3,0:0:0:0:
275,90,57171,2,0,L|240:217,1,120,12|10,0:3|0:3,0:0:0:0:
153,169,57961,6,0,P|94:150|19:184,1,120,10|10,0:3|0:3,0:0:0:0:
9,257,58750,1,10,0:3:0:0:
33,349,59145,2,0,P|92:368|167:334,1,120,10|10,0:3|0:3,0:0:0:0:
177,261,59934,1,2,0:0:0:0:
233,338,60329,2,0,B|292:347|348:322|348:322|367:345|413:357,1,180,4|8,0:0|0:3,0:0:0:0:
448,356,61118,6,0,P|477:347|501:327,1,60,4|6,0:0|0:0,0:0:0:0:
426,265,61711,1,8,0:0:0:0:
426,265,61908,2,0,L|436:114,1,120,6|2,0:0|0:0,0:0:0:0:
462,53,62697,2,0,P|428:47|398:51,1,60,6|8,0:0|0:0,0:0:0:0:
368,83,63092,2,0,B|311:96|311:96|236:76,1,120,2|0,0:0|0:0,0:0:0:0:
155,69,63882,1,8,0:0:0:0:
72,118,64276,6,0,P|61:87|71:23,2,90,6|8|2,0:0|0:0|0:0,0:0:0:0:
106,151,65066,1,8,0:0:0:0:
58,234,65461,6,0,P|71:263|62:329,2,90,6|8|2,0:0|0:0|0:0,0:0:0:0:
24,201,66251,1,8,0:0:0:0:
106,151,66645,2,0,L|233:150,1,120,6|6,0:0|0:0,0:0:0:0:
317,179,67434,6,0,P|299:238|326:308,1,120,6|2,0:0|0:0,0:0:0:0:
336,335,68026,1,8,0:0:0:0:
336,335,68224,2,0,L|273:334,2,60,2|8|2,0:0|0:0|0:0,0:0:0:0:
432,336,69013,2,0,L|500:338,2,60,2|0|2,0:0|0:0|0:0,0:0:0:0:
440,288,69605,1,8,0:0:0:0:
441,288,69803,2,0,P|456:230|438:174,1,120,2|2,0:0|0:0,0:0:0:0:
449,78,70592,6,0,L|332:52,1,120,6|2,0:0|0:0,0:0:0:0:
283,52,71184,1,8,0:0:0:0:
283,52,71382,2,0,L|166:78,1,120,2|2,0:0|0:0,0:0:0:0:
87,133,72171,2,0,P|71:75|89:19,2,120,2|2|2,0:0|0:0|0:0,0:0:0:0:
110,226,73355,2,0,L|80:287,1,60,10|8,0:3|0:3,0:0:0:0:
60,322,73750,6,0,P|120:309|190:326,1,120,6|2,0:0|0:0,0:0:0:0:
264,279,74540,2,0,L|266:203,2,60,2|8|2,0:0|0:0|0:0,0:0:0:0:
296,314,75132,1,8,0:0:0:0:
296,314,75329,2,0,P|354:326|412:316,1,120,2|2,0:0|0:0,0:0:0:0:
487,256,76118,2,0,L|492:134,1,120,2|2,0:0|0:0,0:0:0:0:
479,89,76711,1,8,0:0:0:0:
479,89,76908,6,0,P|420:76|362:86,1,120,6|2,0:0|0:0,0:0:0:0:
292,152,77697,2,0,L|295:217,2,60,2|8|2,0:0|0:0|0:0,0:0:0:0:
264,112,78290,1,8,0:0:0:0:
264,112,78487,2,0,L|136:92,1,120,2|2,0:0|0:0,0:0:0:0:
90,172,79276,2,0,L|217:191,1,120,2|2,0:0|0:0,0:0:0:0:
158,273,80066,6,0,L|34:255,2,120,2|2|2,0:0|0:0|0:0,0:0:0:0:
205,282,81053,1,8,0:0:0:0:
205,282,81250,2,0,L|191:341,1,60,8|8,0:3|0:3,0:0:0:0:
236,357,81645,6,0,L|359:374,1,120,6|2,0:0|0:0,0:0:0:0:
392,343,82237,1,8,0:0:0:0:
392,343,82434,2,0,L|458:352,2,60,2|8|2,0:0|0:0|0:0,0:0:0:0:
425,252,83224,2,0,L|491:261,2,60,2|0|2,0:0|0:0|0:0,0:0:0:0:
402,209,83816,1,8,0:0:0:0:
402,209,84013,2,0,B|421:150|421:150|396:77,1,120,2|2,0:0|0:0,0:0:0:0:
316,51,84803,6,0,P|261:70|191:45,1,120,6|2,0:0|0:0,0:0:0:0:
160,30,85395,1,8,0:0:0:0:
160,30,85592,2,0,L|158:169,1,120,2|2,0:0|0:0,0:0:0:0:
157,246,86382,2,0,B|99:263|99:263|22:236,2,120,2|2|2,0:0|0:0|0:0,0:0:0:0:
208,326,87566,1,8,0:3:0:0:
264,250,87961,6,0,B|322:233|322:233|399:260,1,120,6|2,0:0|0:0,0:0:0:0:
456,307,88750,2,0,P|472:254|445:183,1,120,2|2,0:0|0:0,0:0:0:0:
421,103,89540,2,0,L|490:102,2,60,6|4|6,0:0|0:0|0:0,0:0:0:0:
376,85,90132,1,12,0:0:0:0:
376,85,90329,2,0,B|315:67|315:67|247:90,1,120,6|10,0:0|0:3,0:0:0:0:
169,113,91118,6,0,L|47:96,1,120,6|2,0:0|0:0,0:0:0:0:
26,189,91908,2,0,L|148:206,1,120,2|2,0:0|0:0,0:0:0:0:
149,301,92697,1,2,0:0:0:0:
230,250,93092,1,2,0:0:0:0:
237,345,93487,1,2,0:0:0:0:
318,294,93882,1,2,0:0:0:0:
395,349,94276,6,0,P|411:296|386:227,1,120,2|2,0:0|0:0,0:0:0:0:
372,141,95066,2,0,L|438:142,2,60,8|8|8,0:3|0:3|0:0,0:0:0:0:
337,107,95658,1,8,0:3:0:0:
337,107,95855,6,0,P|269:94|212:123,1,120,6|2,0:0|0:0,0:0:0:0:
178,28,96645,2,0,P|133:80|129:144,1,120,8|2,0:3|0:0,0:0:0:0:
31,127,97434,2,0,P|53:191|107:226,1,120,8|2,0:3|0:0,0:0:0:0:
182,257,98224,2,0,L|201:190,2,60,2|8|2,0:0|0:0|0:0,0:0:0:0:
172,304,98816,1,8,0:0:0:0:
172,304,99013,6,0,P|239:316|296:287,1,120,6|2,0:0|0:0,0:0:0:0:
331,383,99803,2,0,P|375:330|379:266,1,120,8|2,0:3|0:0,0:0:0:0:
478,284,100592,2,0,P|455:219|401:184,1,120,8|2,0:3|0:0,0:0:0:0:
327,154,101382,2,0,L|308:221,2,60,2|8|8,0:0|0:0|0:3,0:0:0:0:
337,107,101974,1,8,0:0:0:0:
337,107,102171,6,0,P|395:96|443:49,2,120,6|2|8,0:0|0:0|0:3,0:0:0:0:
251,63,103355,1,2,0:0:0:0:
155,68,103750,2,0,L|25:72,1,120,8|2,0:3|0:0,0:0:0:0:
64,163,104540,2,0,L|141:161,2,60,2|8|2,0:0|0:0|0:0,0:0:0:0:
38,204,105132,1,8,0:0:0:0:
38,204,105329,6,0,P|16:260|45:330,1,120,6|2,0:0|0:0,0:0:0:0:
107,373,106118,2,0,L|251:342,1,120,8|2,0:3|0:0,0:0:0:0:
279,268,106908,1,8,0:3:0:0:
316,356,107303,1,2,0:0:0:0:
374,279,107697,2,0,L|436:266,2,60,8|2|8,0:3|0:3|0:3,0:0:0:0:
370,182,108487,6,0,L|476:162,2,90,12|8|8,0:0|0:0|0:0,0:0:0:0:
332,152,109276,1,8,0:0:0:0:
383,71,109671,2,0,L|489:51,2,90,8|8|8,0:0|0:0|0:0,0:0:0:0:
345,41,110460,1,8,0:0:0:0:
257,81,110855,2,0,P|205:96|136:72,1,120,6|8,0:0|0:3,0:0:0:0:
54,114,111645,6,0,P|44:65|69:11,2,90,8|8|8,0:0|0:0|0:0,0:0:0:0:
72,157,112434,1,8,0:0:0:0:
114,242,112829,2,0,P|65:254|22:239,2,90,8|8|8,0:0|0:0|0:0,0:0:0:0:
157,221,113618,6,0,B|212:184|290:217|250:241|333:271|404:228,1,240,12|0,0:0|0:0,0:0:0:0:
