osu file format v14

[General]
AudioFilename: audio.mp3
AudioLeadIn: 0
PreviewTime: 66546
Countdown: 0
SampleSet: Normal
StackLeniency: 0.2
Mode: 0
LetterboxInBreaks: 0
WidescreenStoryboard: 1

[Editor]
Bookmarks: 1119,2697,16908,29540,42171,54803,67434,81645,95855,108487,114408
DistanceSpacing: 1.4
BeatDivisor: 4
GridSize: 4
TimelineZoom: 2.6

[Metadata]
Title:Nekozamurai no Gyakushu
TitleUnicode:猫侍の逆襲
Artist:Nekomata Master
ArtistUnicode:猫叉Master
Creator:moph
Version:Extreme
Source:GITADORA
Tags:naoyuki sato follow slowly neko samurai jubeat saucer pop'n music kwk alheak
BeatmapID:1426926
BeatmapSetID:518743

[Difficulty]
HPDrainRate:6
CircleSize:4
OverallDifficulty:8.7
ApproachRate:9.5
SliderMultiplier:3
SliderTickRate:2

[Events]
//Background and Video events
0,0,"bg.jpg",0,0
//Break Periods
//Storyboard Layer 0 (Background)
//Storyboard Layer 1 (Fail)
//Storyboard Layer 2 (Pass)
//Storyboard Layer 3 (Foreground)
//Storyboard Sound Samples

[TimingPoints]
1119,394.736842105263,4,1,1,50,1,0
1119,-133.333333333333,4,1,1,50,0,0
2697,-200,4,1,1,60,0,0
5461,-133.333333333333,4,1,1,60,0,0
5855,-200,4,1,1,60,0,0
7434,-133.333333333333,4,1,1,60,0,0
8618,-80,4,1,1,60,0,0
9013,-200,4,1,1,60,0,0
15329,-153.846153846154,4,1,1,60,0,0
16118,-133.333333333333,4,1,1,60,0,0
16908,-100,4,1,1,70,0,0
22434,-83.3333333333333,4,1,1,70,0,0
23224,-100,4,1,1,70,0,0
42763,-50,4,1,1,70,0,0
42961,-133.333333333333,4,1,1,70,0,0
43355,-100,4,1,1,70,0,0
43947,-50,4,1,1,70,0,0
44145,-100,4,1,1,70,0,0
47105,-50,4,1,1,70,0,0
47303,-100,4,1,1,70,0,0
61316,-80,4,1,1,70,0,0
63487,-100,4,1,1,70,0,0
64868,-50,4,1,1,70,0,0
65461,-100,4,1,1,70,0,0
66053,-50,4,1,1,70,0,0
66645,-133.333333333333,4,1,1,70,0,0
67434,-100,4,1,1,80,0,1
68224,-83.3333333333333,4,1,1,80,0,1
68618,-71.4285714285714,4,1,1,80,0,1
69013,-62.5,4,1,1,80,0,1
69408,-55.5555555555556,4,1,1,80,0,1
69803,-71.4285714285714,4,1,1,80,0,1
70000,-83.3333333333333,4,1,1,80,0,1
74934,-100,4,1,1,80,0,1
75329,-71.4285714285714,4,1,1,80,0,1
75724,-62.5,4,1,1,80,0,1
76118,-55.5555555555556,4,1,1,80,0,1
76908,-83.3333333333333,4,1,1,80,0,1
80855,-71.4285714285714,4,1,1,80,0,1
81250,-100,4,1,1,80,0,0
81645,-83.3333333333333,4,1,1,80,0,1
82829,-71.4285714285714,4,1,1,80,0,1
83224,-62.5,4,1,1,80,0,1
83618,-50,4,1,1,80,0,1
84013,-71.4285714285714,4,1,1,80,0,1
84211,-83.3333333333333,4,1,1,80,0,1
89540,-71.4285714285714,4,1,1,80,0,1
89934,-57.1428571428571,4,1,1,80,0,1
90329,-50,4,1,1,80,0,1
90724,-83.3333333333333,4,1,1,80,0,1
95855,-100,4,1,1,70,0,0
101382,-80,4,1,1,70,0,0
102171,-100,4,1,1,70,0,0
112829,-76.9230769230769,4,1,1,70,0,0
113618,-71.4285714285714,4,1,1,70,0,0
113717,-71.4285714285714,4,1,1,20,0,0
114408,-71.4285714285714,4,1,1,5,0,0

[Colours]
Combo1 : 169,117,189
Combo2 : 184,80,80
Combo3 : 83,114,187
Combo4 : 218,131,78

[HitObjects]
364,152,1119,6,0,L|344:232,1,56.2500021457673,8|0,0:3|0:3,0:0:0:0:
324,296,1316,1,8,0:0:0:0:
324,296,1711,6,0,L|304:376,1,56.2500021457673,8|0,0:0|0:0,0:0:0:0:
444,136,1908,2,0,P|364:152|304:76,1,168.750006437302,0|0,3:0|0:0,0:0:0:0:
389,70,2303,1,8,0:3:0:0:
324,296,2500,1,4,0:3:0:0:
114,196,2697,5,4,0:0:0:0:
196,236,2895,1,0,0:0:0:0:
155,316,3092,1,0,0:0:0:0:
73,277,3290,1,0,0:0:0:0:
189,143,3487,5,0,0:0:0:0:
246,313,3684,1,0,0:0:0:0:
75,371,3882,1,0,0:0:0:0:
21,199,4079,1,0,0:0:0:0:
246,313,4276,6,0,B|284:320|284:320|324:314,1,75,0|0,0:0|0:0,0:0:0:0:
478,253,4671,2,0,B|440:260|440:260|400:254,1,75,0|0,0:0|0:0,0:0:0:0:
384,21,5066,6,0,P|398:58|393:108,1,75,8|0,0:3|0:0,0:0:0:0:
396,101,5329,1,0,0:0:0:0:
393,110,5395,1,0,0:0:0:0:
389,119,5461,2,0,L|456:119,1,56.2500021457673,2|0,0:0|0:0,0:0:0:0:
289,76,5658,2,0,L|222:76,1,56.2500021457673,2|0,0:0|0:0,0:0:0:0:
162,153,5855,5,4,0:0:0:0:
80,193,6053,1,0,0:0:0:0:
121,273,6250,1,0,0:0:0:0:
203,234,6448,1,0,0:0:0:0:
88,101,6645,5,0,0:0:0:0:
32,273,6842,1,0,0:0:0:0:
196,325,7040,1,0,0:0:0:0:
256,157,7237,5,10,0:3:0:0:
266,131,7336,1,2,0:3:0:0:
277,104,7434,2,0,L|297:168,1,56.2500021457673,4|0,0:0|0:0,0:0:0:0:
155,205,7632,5,10,0:3:0:0:
127,209,7731,1,10,0:3:0:0:
98,213,7829,2,0,L|143:163,1,56.2500021457673,4|0,0:0|0:0,0:0:0:0:
241,270,8026,5,8,0:0:0:0:
258,292,8125,1,2,0:3:0:0:
276,315,8224,2,0,L|210:300,1,56.2500021457673,6|0,0:0|0:0,0:0:0:0:
496,258,8421,2,0,L|442:246,1,56.2500021457673,6|0,0:0|0:0,0:0:0:0:
354,108,8618,6,0,B|387:156|366:216|350:195|334:253|365:299,1,187.5,6|0,0:0|0:0,0:0:0:0:
370,310,8915,1,0,0:0:0:0:
385,327,9013,5,6,0:0:0:0:
442,251,9211,1,0,0:0:0:0:
373,196,9408,1,0,0:0:0:0:
314,263,9606,1,0,0:0:0:0:
475,337,9803,5,0,0:0:0:0:
460,166,10000,1,0,0:0:0:0:
287,181,10198,1,0,0:0:0:0:
303,352,10395,1,0,0:0:0:0:
115,293,10592,6,0,L|211:285,1,75,2|0,0:3|0:0,0:0:0:0:
195,280,10855,1,0,0:0:0:0:
202,273,10921,1,0,0:0:0:0:
209,266,10987,2,0,L|258:263,1,37.5,0|0,0:0|0:0,0:0:0:0:
64,354,11184,2,0,L|15:357,1,37.5,0|0,0:0|0:0,0:0:0:0:
16,192,11382,5,2,0:3:0:0:
5,153,11480,1,0,0:0:0:0:
11,113,11579,1,0,0:0:0:0:
37,80,11678,1,0,0:0:0:0:
72,60,11776,2,0,L|143:107,1,75,2|0,0:3|0:0,0:0:0:0:
152,113,12072,1,0,0:0:0:0:
248,29,12171,6,0,B|226:81|226:81|247:134,1,112.5,6|0,0:0|0:0,0:0:0:0:
195,196,12566,2,0,B|247:218|247:218|300:197,1,112.5,2|0,0:0|0:0,0:0:0:0:
355,143,12961,2,0,L|439:144,1,75,2|0,0:0|0:0,0:0:0:0:
436,150,13224,1,0,0:0:0:0:
443,156,13290,1,0,0:0:0:0:
449,163,13355,2,0,L|492:150,1,37.5,2|0,0:0|0:0,0:0:0:0:
485,277,13553,2,0,L|449:266,1,37.5,2|0,0:0|0:0,0:0:0:0:
363,271,13750,6,0,P|373:309|367:345,1,75,2|2,0:0|0:3,0:0:0:0:
358,362,14046,1,0,0:0:0:0:
285,311,14145,2,0,B|195:311,1,75,2|2,0:0|0:3,0:0:0:0:
190,311,14441,1,0,0:0:0:0:
106,370,14540,1,2,0:0:0:0:
106,370,14737,6,0,L|48:353,1,37.5,2|0,0:0|0:0,0:0:0:0:
69,278,14934,2,0,L|127:261,1,37.5,2|0,0:0|0:0,0:0:0:0:
49,89,15132,1,2,0:0:0:0:
34,84,15230,1,0,0:0:0:0:
20,80,15329,6,0,B|2:125|2:125|22:181,1,97.4999955368044,6|2,0:0|0:0,0:0:0:0:
29,189,15625,1,0,0:0:0:0:
120,140,15724,2,0,L|183:141,1,48.7499977684022,2|0,0:0|0:0,0:0:0:0:
234,72,15921,1,0,0:0:0:0:
249,67,16020,1,0,0:0:0:0:
264,62,16118,6,0,L|335:68,1,56.2500021457673,12|0,0:0|0:0,0:0:0:0:
473,7,16316,1,8,0:3:0:0:
507,78,16415,1,8,0:3:0:0:
470,147,16513,2,0,L|405:142,1,56.2500021457673,8|0,0:0|0:0,0:0:0:0:
275,186,16711,2,0,L|340:191,1,56.2500021457673,8|0,0:0|0:0,0:0:0:0:
429,364,16908,6,0,B|401:295|401:295|429:220,1,150,4|0,0:0|0:0,0:0:0:0:
305,306,17204,1,2,0:3:0:0:
305,306,17303,2,0,L|222:299,1,75,2|0,0:0|0:0,0:0:0:0:
20,333,17500,1,8,0:0:0:0:
49,340,17599,1,0,0:0:0:0:
77,347,17697,6,0,B|70:300|70:300|90:256|90:256|83:202,1,150,8|0,0:3|0:0,0:0:0:0:
231,300,17993,1,2,0:3:0:0:
231,300,18092,2,0,L|149:308,1,75,2|0,0:0|0:0,0:0:0:0:
4,121,18290,1,8,0:0:0:0:
26,100,18388,1,0,0:0:0:0:
54,92,18486,6,0,P|120:98|170:163,1,150,8|0,0:3|0:0,0:0:0:0:
302,82,18783,1,2,0:3:0:0:
302,82,18882,2,0,P|262:72|217:90,1,75,2|0,0:0|0:0,0:0:0:0:
313,289,19079,1,8,0:0:0:0:
324,316,19178,1,0,0:0:0:0:
336,342,19276,6,0,B|358:308|358:308|353:266,1,75,2|0,0:0|0:0,0:0:0:0:
266,155,19474,2,0,B|284:191|284:191|323:207,1,75,8|0,0:0|0:0,0:0:0:0:
463,190,19671,2,0,B|422:187|422:187|388:213,1,75,2|0,0:0|0:0,0:0:0:0:
237,343,19868,1,8,0:3:0:0:
207,336,19967,1,8,0:3:0:0:
177,329,20065,6,0,B|114:315|114:315|90:326|90:326|14:313,1,150,6|0,0:0|0:0,0:0:0:0:
154,165,20362,1,2,0:3:0:0:
154,165,20461,2,0,L|142:244,1,75,2|0,0:0|0:0,0:0:0:0:
119,62,20658,1,8,0:0:0:0:
91,51,20757,1,0,0:0:0:0:
63,41,20855,6,0,B|49:101|49:101|63:131|63:131|53:187,1,150,8|0,0:3|0:0,0:0:0:0:
131,313,21151,1,2,0:3:0:0:
131,313,21250,2,0,L|143:234,1,75,2|0,0:0|0:0,0:0:0:0:
321,86,21447,1,8,0:0:0:0:
292,77,21546,1,0,0:0:0:0:
263,68,21645,6,0,B|260:128|260:128|275:158|275:158|243:179|243:179|260:209|260:209|255:274,1,225,8|2,0:3|0:3,0:0:0:0:
415,243,22040,2,0,B|379:233|379:233|336:243,1,75,2|0,0:0|0:0,0:0:0:0:
185,326,22237,1,8,0:0:0:0:
206,347,22336,1,0,0:0:0:0:
240,358,22434,6,0,P|287:354|323:328,1,89.9999972534181,2|0,0:0|0:0,0:0:0:0:
272,184,22632,2,0,P|251:226|256:270,1,89.9999972534181,8|0,0:0|0:0,0:0:0:0:
403,367,22829,1,2,0:0:0:0:
411,331,22928,1,0,0:0:0:0:
407,297,23026,2,0,P|380:258|339:240,1,89.9999972534181,8|0,0:0|0:0,0:0:0:0:
400,20,23224,6,0,B|440:84|440:84|406:157,1,150,6|0,0:0|0:0,0:0:0:0:
237,91,23520,1,2,0:3:0:0:
237,91,23618,2,0,L|319:91,1,75,2|0,0:0|0:0,0:0:0:0:
352,279,23816,1,8,0:0:0:0:
328,298,23915,1,0,0:0:0:0:
306,318,24013,6,0,P|264:258|286:188,1,150,8|0,0:3|0:0,0:0:0:0:
505,267,24309,1,2,0:3:0:0:
505,267,24408,2,0,L|431:268,1,75,2|0,0:0|0:0,0:0:0:0:
443,53,24605,1,8,0:0:0:0:
418,38,24704,1,0,0:0:0:0:
394,23,24803,6,0,B|391:92|391:92|400:110|400:110|396:173,1,150,8|0,0:3|0:0,0:0:0:0:
223,171,25099,1,2,0:3:0:0:
223,171,25197,2,0,L|300:171,1,75,2|0,0:0|0:0,0:0:0:0:
125,329,25395,1,8,0:0:0:0:
102,345,25494,1,0,0:0:0:0:
79,363,25592,6,0,L|101:267,1,75,2|0,0:0|0:0,0:0:0:0:
57,146,25790,2,0,L|129:213,1,75,8|0,0:0|0:0,0:0:0:0:
254,239,25987,2,0,L|159:267,1,75,2|0,0:0|0:0,0:0:0:0:
120,48,26184,1,8,0:3:0:0:
149,40,26283,1,8,0:3:0:0:
178,33,26382,6,0,B|214:106|214:106|175:206,1,150,4|0,0:0|0:0,0:0:0:0:
15,119,26678,1,2,0:3:0:0:
15,119,26776,2,0,L|93:119,1,75,2|0,0:0|0:0,0:0:0:0:
165,341,26974,1,8,0:0:0:0:
136,349,27073,1,0,0:0:0:0:
107,356,27172,6,0,P|71:276|123:192,1,150,8|0,0:3|0:0,0:0:0:0:
289,292,27467,1,2,0:3:0:0:
289,292,27566,2,0,L|195:280,1,75,2|0,0:0|0:0,0:0:0:0:
247,99,27763,1,8,0:0:0:0:
229,123,27862,1,0,0:0:0:0:
210,147,27961,6,0,B|268:119|335:148|297:163|373:196|424:164,1,225,4|2,0:0|0:3,0:0:0:0:
380,18,28355,2,0,B|367:51|367:51|379:95,1,75,2|0,0:0|0:0,0:0:0:0:
489,223,28553,2,0,B|502:256|502:256|490:300,1,75,8|0,0:0|0:0,0:0:0:0:
330,353,28750,5,2,0:3:0:0:
332,367,28849,1,2,0:3:0:0:
334,381,28947,5,8,0:3:0:0:
400,321,29045,1,8,0:3:0:0:
353,242,29144,1,8,0:3:0:0:
264,259,29243,1,8,0:3:0:0:
248,348,29342,2,0,P|213:358|173:351,1,75,8|8,0:0|0:0,0:0:0:0:
5,216,29540,6,0,P|91:203|136:246,1,150,6|0,0:0|0:0,0:0:0:0:
143,269,29836,1,8,0:0:0:0:
46,354,29934,2,0,P|44:309|77:269,1,75,2|0,0:0|0:0,0:0:0:0:
192,160,30132,1,8,0:0:0:0:
164,174,30230,1,0,0:0:0:0:
137,188,30329,2,0,B|133:120|133:120|144:100|144:100|140:22,1,150,2|8,0:0|0:0,0:0:0:0:
140,11,30625,1,0,0:0:0:0:
49,69,30724,2,0,L|10:70,2,37.5,2|0|0,0:0|0:0|0:0,0:0:0:0:
230,80,30921,2,0,P|273:71|307:33,1,75,8|0,0:0|0:0,0:0:0:0:
493,40,31118,6,0,P|398:61|367:135,1,150,2|0,0:0|0:0,0:0:0:0:
364,130,31415,1,8,0:0:0:0:
437,260,31513,2,0,B|447:217|447:217|424:159,1,75,2|0,0:0|0:0,0:0:0:0:
314,305,31711,2,0,B|304:348|304:348|327:406,1,75,8|0,0:0|0:0,0:0:0:0:
279,224,31908,2,0,L|362:224,1,75,2|0,0:0|0:0,0:0:0:0:
470,342,32105,2,0,L|387:342,1,75,8|0,0:0|0:0,0:0:0:0:
222,306,32303,2,0,P|144:287|87:355,1,150,2|8,0:0|0:0,0:0:0:0:
84,357,32599,1,2,0:0:0:0:
14,223,32697,6,0,P|48:213|87:223,1,75,6|0,0:0|0:0,0:0:0:0:
223,165,32895,2,0,P|189:155|150:165,1,75,0|8,0:0|0:0,0:0:0:0:
32,59,33092,2,0,B|93:54|93:54|116:67|116:67|180:61,1,150,2|8,0:0|0:0,0:0:0:0:
208,59,33388,1,0,0:0:0:0:
329,161,33487,2,0,P|291:103|343:30,1,150,2|8,0:0|0:0,0:0:0:0:
485,88,33783,1,0,0:0:0:0:
410,47,33882,2,0,B|405:111|405:111|418:138|418:138|409:206,1,150,2|8,0:0|0:0,0:0:0:0:
408,223,34178,1,0,0:0:0:0:
329,342,34276,6,0,P|321:303|334:259,1,75,2|0,0:0|0:0,0:0:0:0:
497,274,34474,1,0,0:0:0:0:
508,317,34572,1,8,0:0:0:0:
489,358,34671,2,0,L|430:305,1,75,2|0,0:0|0:0,0:0:0:0:
226,304,34868,2,0,L|170:354,1,75,8|0,0:0|0:0,0:0:0:0:
0,216,35066,6,0,P|76:206|114:292,1,150,2|8,0:0|0:0,0:0:0:0:
118,267,35329,1,0,0:0:0:0:
120,276,35395,1,0,0:0:0:0:
122,285,35461,2,0,L|177:234,1,75,2|0,0:0|0:0,0:0:0:0:
132,81,35658,2,0,B|121:119|121:119|139:167,1,75,8|0,0:0|0:0,0:0:0:0:
340,176,35855,6,0,P|257:184|213:120,1,150,6|0,0:0|0:0,0:0:0:0:
213,108,36151,1,8,0:0:0:0:
330,21,36250,2,0,B|340:60|340:60|322:108,1,75,2|0,0:0|0:0,0:0:0:0:
441,171,36447,1,8,0:0:0:0:
427,144,36546,1,0,0:0:0:0:
414,116,36645,2,0,B|498:124,1,75,2|0,0:0|0:0,0:0:0:0:
468,259,36842,2,0,B|384:251,1,75,8|0,0:0|0:0,0:0:0:0:
340,176,37040,2,0,L|300:175,2,37.5,2|0|0,0:0|0:0|0:0,0:0:0:0:
424,340,37237,1,8,0:0:0:0:
405,362,37336,1,0,0:0:0:0:
377,373,37434,6,0,P|302:346|281:266,1,150,2|0,0:0|0:0,0:0:0:0:
284,255,37730,1,8,0:0:0:0:
133,322,37829,2,0,B|175:326|175:326|208:308,1,75,2|0,0:0|0:0,0:0:0:0:
72,223,38026,2,0,B|29:218|29:218|-3:236,1,75,8|0,0:0|0:0,0:0:0:0:
142,164,38224,2,0,L|156:237,1,75,2|0,0:0|0:0,0:0:0:0:
63,377,38421,2,0,L|48:303,1,75,8|0,0:0|0:0,0:0:0:0:
0,117,38618,2,0,P|72:112|111:51,1,150,2|8,0:0|0:0,0:0:0:0:
115,21,38914,1,0,0:0:0:0:
265,96,39013,6,0,P|224:91|180:108,1,75,2|0,0:0|0:0,0:0:0:0:
142,164,39211,2,0,L|149:200,2,37.5,0|0|8,0:0|0:0|0:0,0:0:0:0:
0,260,39408,2,0,P|70:252|119:309,1,150,2|8,0:0|0:0,0:0:0:0:
121,337,39704,1,0,0:0:0:0:
226,212,39803,2,0,B|231:276|231:276|223:297|223:297|224:364,1,150,2|8,0:0|0:0,0:0:0:0:
39,330,40099,1,0,0:0:0:0:
80,256,40197,2,0,P|110:245|153:251,1,75,2|0,0:0|0:0,0:0:0:0:
311,328,40395,1,8,0:0:0:0:
339,337,40493,1,0,0:0:0:0:
367,346,40592,6,0,L|432:306,1,75,2|0,0:0|0:0,0:0:0:0:
407,138,40790,2,0,P|390:173|404:230,1,75,8|0,0:0|0:0,0:0:0:0:
397,355,40987,6,0,L|462:315,1,75,2|0,0:0|0:0,0:0:0:0:
291,175,41184,2,0,P|290:214|326:260,1,75,8|0,0:0|0:0,0:0:0:0:
398,53,41382,5,8,0:3:0:0:
323,59,41480,1,8,0:3:0:0:
249,65,41579,1,8,0:3:0:0:
175,71,41678,1,8,0:3:0:0:
30,136,41776,5,8,0:3:0:0:
105,142,41874,1,8,0:3:0:0:
179,148,41973,1,8,0:3:0:0:
253,154,42072,1,8,0:3:0:0:
202,225,42171,6,0,P|128:247|56:206,1,150,6|0,0:0|0:0,0:0:0:0:
191,31,42467,2,0,P|247:84|247:166,1,150,8|0,0:0|0:0,0:0:0:0:
30,136,42763,6,0,P|47:60|119:19,1,150,2|0,0:0|0:0,0:0:0:0:
191,31,42961,6,0,P|212:31|190:24,3,56.2500021457673,8|0|0|0,0:0|0:0|0:0|0:0,0:0:0:0:
105,21,43355,6,0,P|45:64|30:136,1,150,2|0,0:0|0:0,0:0:0:0:
252,153,43651,2,0,P|245:80|191:31,1,150,8|0,0:0|0:0,0:0:0:0:
65,216,43947,6,0,P|132:247|202:225,1,150,2|0,0:0|0:0,0:0:0:0:
252,153,44145,5,8,0:0:0:0:
168,356,44342,2,0,L|242:357,1,75,2|0,0:0|0:0,0:0:0:0:
389,297,44540,5,8,0:0:0:0:
328,223,44638,2,0,P|305:253|296:305,1,75,2|0,0:0|0:0,0:0:0:0:
327,366,44836,1,8,0:0:0:0:
454,223,44934,2,0,P|477:253|486:305,1,75,2|0,0:0|0:0,0:0:0:0:
455,366,45132,1,10,0:0:0:0:
389,297,45230,1,0,0:0:0:0:
328,223,45329,6,0,L|262:217,2,50,10|2|2,0:0|0:0|0:0,0:0:0:0:
445,217,45526,1,2,0:0:0:0:
454,223,45592,2,0,L|513:216,2,50,10|2|0,0:0|0:0|0:0,0:0:0:0:
404,139,45790,1,2,0:0:0:0:
394,142,45855,1,2,0:0:0:0:
384,146,45921,2,0,L|277:136,1,75,10|0,0:0|0:0,0:0:0:0:
204,122,46118,6,0,P|177:117|204:114,3,75,10|0|0|0,0:0|0:0|0:0|0:0,0:0:0:0:
150,12,46513,6,0,P|90:54|74:126,1,150,2|0,0:0|0:0,0:0:0:0:
310,140,46809,2,0,P|302:67|248:17,1,150,8|0,0:0|0:0,0:0:0:0:
116,208,47105,6,0,P|182:238|252:216,1,150,2|0,0:0|0:0,0:0:0:0:
310,140,47303,5,8,0:0:0:0:
386,89,47401,2,0,L|474:107,1,75,10|0,0:0|0:0,0:0:0:0:
511,181,47599,1,8,0:0:0:0:
424,251,47697,5,2,0:3:0:0:
428,241,47763,1,2,0:3:0:0:
432,231,47829,1,2,0:3:0:0:
436,221,47895,2,0,B|404:207|404:207|359:208,1,75,0|0,0:0|0:0,0:0:0:0:
345,310,48092,5,2,0:3:0:0:
341,320,48158,1,2,0:3:0:0:
337,330,48224,1,2,0:3:0:0:
333,340,48290,2,0,B|365:354|365:354|410:353,1,75,2|0,0:0|0:0,0:0:0:0:
222,318,48487,6,0,L|217:280,5,37.5,2|0|0|0|0|0,0:0|0:0|0:0|0:0|0:0|0:0,0:0:0:0:
153,372,48783,1,8,0:0:0:0:
153,372,48882,2,0,P|107:355|74:305,1,75,2|0,0:0|0:0,0:0:0:0:
3,328,49079,2,0,P|20:282|70:249,1,75,8|0,0:0|0:0,0:0:0:0:
45,176,49276,2,0,P|91:193|124:243,1,75,2|0,0:0|0:0,0:0:0:0:
292,237,49474,2,0,L|291:281,1,37.5,2|2,0:3|0:3,0:0:0:0:
307,250,49572,2,0,L|306:294,1,37.5,2|2,0:3|0:3,0:0:0:0:
321,260,49671,6,0,B|270:259|270:259|227:287|227:287|177:283,1,150,6|0,0:0|0:0,0:0:0:0:
154,282,49967,1,2,0:0:0:0:
318,362,50066,2,0,P|354:367|398:353,1,75,2|0,0:0|0:0,0:0:0:0:
496,280,50263,2,0,P|460:285|416:271,1,75,2|0,0:0|0:0,0:0:0:0:
400,154,50461,5,8,0:0:0:0:
400,66,50593,1,2,0:0:0:0:
476,110,50724,1,2,0:0:0:0:
397,159,50856,5,8,0:0:0:0:
397,60,50988,1,2,0:0:0:0:
482,110,51119,1,2,0:0:0:0:
394,165,51250,5,8,0:0:0:0:
394,55,51382,1,2,0:0:0:0:
489,110,51513,1,2,0:0:0:0:
320,108,51645,6,0,L|262:105,3,50,2|0|0|0,0:0|0:0|0:0|0:0,0:0:0:0:
198,36,51908,1,2,0:3:0:0:
194,45,51974,1,2,0:3:0:0:
189,54,52040,2,0,B|173:99|173:99|189:154,1,100,8|0,0:0|0:0,0:0:0:0:
197,170,52237,2,0,L|194:219,1,50,2|0,0:0|0:0,0:0:0:0:
1,276,52434,5,8,0:0:0:0:
193,219,52566,1,2,0:0:0:0:
47,83,52697,1,2,0:0:0:0:
123,337,52829,6,0,B|183:331|183:331|204:348|204:348|281:339,1,150,2|0,0:0|0:0,0:0:0:0:
342,339,53092,1,0,0:0:0:0:
352,338,53158,1,0,0:0:0:0:
361,336,53224,2,0,L|379:376,3,37.5,0|0|0|0,0:0|0:0|0:0|0:0,0:0:0:0:
407,269,53421,2,0,L|483:262,1,75,2|0,0:0|0:0,0:0:0:0:
502,97,53618,1,8,0:3:0:0:
434,51,53717,1,8,0:3:0:0:
357,82,53816,1,8,0:3:0:0:
354,165,53915,2,0,L|315:169,1,37.5,2|2,0:3|0:3,0:0:0:0:
360,179,54013,6,0,L|278:186,1,75,0|0,0:0|0:0,0:0:0:0:
167,67,54211,2,0,L|245:73,1,75,0|0,0:0|0:0,0:0:0:0:
68,275,54408,1,8,0:3:0:0:
20,207,54507,1,8,0:3:0:0:
73,145,54605,2,0,L|157:153,1,75,2|0,0:0|0:0,0:0:0:0:
216,284,54803,5,12,0:3:0:0:
251,319,54901,1,0,0:0:0:0:
303,323,55000,1,10,0:3:0:0:
347,298,55099,1,8,0:3:0:0:
392,368,55197,5,12,0:3:0:0:
427,333,55295,1,0,0:0:0:0:
431,281,55394,1,10,0:3:0:0:
406,237,55493,1,8,0:3:0:0:
347,298,55592,5,6,0:3:0:0:
347,298,55691,1,2,0:3:0:0:
347,298,55790,1,10,0:3:0:0:
347,298,55888,1,2,0:3:0:0:
476,192,55987,5,12,0:3:0:0:
441,157,56085,1,0,0:0:0:0:
389,153,56184,1,10,0:3:0:0:
345,178,56283,1,8,0:3:0:0:
300,108,56381,5,12,0:3:0:0:
265,143,56480,1,0,0:0:0:0:
261,195,56578,1,10,0:3:0:0:
286,239,56677,1,8,0:3:0:0:
345,178,56776,6,0,L|398:178,2,50,6|0|0,0:3|0:0|0:0,0:0:0:0:
153,263,56974,2,0,P|117:274|68:260,1,75,8|0,0:0|0:0,0:0:0:0:
18,204,57171,5,12,0:3:0:0:
78,152,57269,1,8,0:3:0:0:
156,151,57368,1,10,0:3:0:0:
218,200,57467,1,8,0:3:0:0:
235,277,57565,1,10,0:3:0:0:
200,347,57664,1,8,0:3:0:0:
128,379,57763,1,10,0:3:0:0:
52,358,57861,1,8,0:3:0:0:
104,301,57961,5,10,0:3:0:0:
111,294,58026,1,2,0:3:0:0:
119,288,58092,1,2,0:3:0:0:
126,281,58158,2,0,L|81:252,2,50,2|0|0,0:0|0:0|0:0,0:0:0:0:
135,198,58355,5,10,0:3:0:0:
128,191,58420,1,2,0:3:0:0:
120,185,58486,1,2,0:3:0:0:
113,178,58552,2,0,L|158:149,2,50,2|0|0,0:0|0:0|0:0,0:0:0:0:
89,94,58750,5,10,0:3:0:0:
96,87,58815,1,2,0:3:0:0:
104,81,58881,1,2,0:3:0:0:
111,74,58947,2,0,L|66:45,2,50,2|0|0,0:0|0:3|0:3,0:0:0:0:
198,64,59145,5,10,0:3:0:0:
231,80,59210,1,2,0:3:0:0:
268,87,59276,1,2,0:3:0:0:
305,84,59342,1,2,0:3:0:0:
340,71,59408,1,2,0:3:0:0:
370,48,59473,1,2,0:3:0:0:
393,19,59539,5,10,0:3:0:0:
397,28,59606,1,2,0:3:0:0:
401,37,59672,1,2,0:3:0:0:
406,45,59737,2,0,L|388:122,1,75,2|0,0:0|0:0,0:0:0:0:
390,272,59934,1,2,0:0:0:0:
386,280,60001,1,0,0:0:0:0:
382,289,60067,1,0,0:0:0:0:
377,297,60132,2,0,L|395:374,1,75,2|2,0:0|0:0,0:0:0:0:
469,122,60329,5,8,0:0:0:0:
504,201,60428,2,0,B|496:201|437:204|437:204|419:190|419:190|350:193,1,150,6|0,0:0|0:0,0:0:0:0:
290,332,60724,2,0,P|233:314|209:277,1,75,8|0,0:0|0:0,0:0:0:0:
50,353,60921,1,8,0:3:0:0:
6,282,61020,1,8,0:3:0:0:
56,217,61118,6,0,P|99:220|139:248,1,75,6|0,0:0|0:0,0:0:0:0:
281,170,61316,6,0,B|322:73|215:13|117:74|144:154|144:154|206:173|208:241,1,375,6|8,0:0|0:0,0:0:0:0:
191,295,61809,1,2,0:0:0:0:
406,309,61908,2,0,P|314:245|346:373,1,281.25,6|0,0:0|0:0,0:0:0:0:
191,295,62303,2,0,P|273:261|250:346,1,187.5,2|8,0:0|0:0,0:0:0:0:
207,378,62599,1,2,0:0:0:0:
44,358,62697,6,0,B|28:310|28:310|50:251,1,93.75,6|0,0:0|0:0,0:0:0:0:
162,107,62895,2,0,B|178:155|178:155|156:214,1,93.75,8|0,0:0|0:0,0:0:0:0:
0,158,63092,2,0,L|101:155,1,93.75,2|0,0:0|0:0,0:0:0:0:
245,66,63290,1,8,0:3:0:0:
252,142,63388,1,8,0:3:0:0:
257,220,63487,6,0,B|324:214|324:214|349:232|349:232|431:228,1,150,0|0,0:0|0:0,0:0:0:0:
425,231,63783,1,0,0:0:0:0:
311,370,63882,2,0,P|290:321|300:273,1,75,8|0,0:0|0:0,0:0:0:0:
382,143,64079,2,0,P|380:105|362:72,1,75,2|0,0:0|0:0,0:0:0:0:
179,64,64276,6,0,B|173:30|173:30|95:117,1,150,6|0,0:0|0:0,0:0:0:0:
186,248,64572,2,0,B|217:259|217:259|181:149,1,150,8|0,0:0|0:0,0:0:0:0:
24,159,64868,6,0,B|-1:180|-1:180|112:204,1,150,2|0,0:0|0:0,0:0:0:0:
181,149,65066,5,8,0:0:0:0:
333,64,65263,5,8,0:3:0:0:
333,64,65362,1,8,0:3:0:0:
333,64,65461,2,0,B|338:30|338:30|416:117,1,150,6|0,0:0|0:0,0:0:0:0:
326,248,65757,2,0,B|294:259|294:259|330:149,1,150,8|0,0:0|0:0,0:0:0:0:
488,159,66053,6,0,B|513:180|513:180|399:204,1,150,2|0,0:0|0:0,0:0:0:0:
331,149,66251,5,8,0:0:0:0:
36,320,66447,5,8,0:3:0:0:
36,320,66546,1,8,0:3:0:0:
36,320,66645,2,0,B|70:302|127:322|99:337|154:357|196:336,1,168.750006437302,6|0,0:0|0:0,0:0:0:0:
456,301,67040,2,0,P|395:287|421:360,1,168.750006437302,6|0,0:0|0:0,0:0:0:0:
416,359,67434,6,0,P|349:323|265:368,1,150,6|0,0:0|0:0,0:0:0:0:
264,367,67730,1,8,0:0:0:0:
240,108,67829,2,0,B|274:175|274:175|246:253,1,150,2|8,0:0|0:0,0:0:0:0:
239,273,68124,1,0,0:0:0:0:
82,211,68224,6,0,P|125:204|164:224,1,89.9999972534181,2|0,0:0|0:0,0:0:0:0:
321,259,68421,2,0,P|278:252|239:272,1,89.9999972534181,8|0,0:0|0:0,0:0:0:0:
113,379,68618,6,0,B|95:328|95:328|115:281,1,104.999996795654,2|0,0:0|0:0,0:0:0:0:
321,259,68816,2,0,B|339:208|339:208|319:161,1,104.999996795654,8|0,0:0|0:0,0:0:0:0:
82,211,69013,6,0,B|57:185|57:185|146:201,1,120,2|0,0:0|0:0,0:0:0:0:
355,90,69211,2,0,B|378:72|378:72|289:88,1,120,0|8,0:0|0:0,0:0:0:0:
37,88,69408,6,0,B|136:116|136:116|185:96,1,134.999995880127,2|0,0:0|0:0,0:0:0:0:
447,145,69605,2,0,B|347:173|347:173|299:153,1,134.999995880127,8|0,0:0|0:0,0:0:0:0:
243,31,69803,6,0,B|249:117|249:117|234:149|234:149|241:237,1,209.999993591309,2|8,0:0|0:0,0:0:0:0:
235,247,70066,1,0,0:0:0:0:
229,257,70132,1,0,0:0:0:0:
223,267,70197,2,0,L|316:283,1,89.9999972534181,2|0,0:0|0:0,0:0:0:0:
494,351,70395,1,8,0:0:0:0:
508,271,70493,1,0,0:0:0:0:
448,215,70592,6,0,P|348:251|353:345,1,179.999994506836,6|0,0:0|0:0,0:0:0:0:
348,341,70888,1,8,0:0:0:0:
218,363,70987,2,0,P|173:359|138:331,1,89.9999972534181,2|0,0:0|0:0,0:0:0:0:
9,279,71184,2,0,P|53:275|88:247,1,89.9999972534181,8|0,0:0|0:0,0:0:0:0:
198,133,71382,2,0,B|122:121|122:121|98:138|98:138|16:126,1,179.999994506836,2|8,0:0|0:0,0:0:0:0:
17,118,71645,1,0,0:0:0:0:
8,109,71711,1,0,0:0:0:0:
0,98,71776,2,0,L|19:204,1,89.9999972534181,2|0,0:0|0:0,0:0:0:0:
138,33,71974,2,0,L|119:139,1,89.9999972534181,8|0,0:0|0:0,0:0:0:0:
281,71,72171,6,0,B|287:144|287:144|272:171|272:171|280:276,1,179.999994506836,2|0,0:0|0:0,0:0:0:0:
281,271,72467,1,8,0:0:0:0:
478,269,72566,2,0,P|448:235|405:225,1,89.9999972534181,2|0,0:0|0:0,0:0:0:0:
189,298,72763,1,8,0:0:0:0:
235,364,72862,1,0,0:0:0:0:
315,372,72961,2,0,P|356:363|393:309,1,89.9999972534181,2|0,0:0|0:0,0:0:0:0:
478,269,73158,2,0,P|437:260|400:206,1,89.9999972534181,8|0,0:0|0:0,0:0:0:0:
359,66,73355,5,10,0:3:0:0:
390,139,73453,1,8,0:3:0:0:
329,193,73552,1,8,0:3:0:0:
258,152,73651,1,8,0:3:0:0:
277,72,73750,6,0,B|440:57|440:57|432:80,1,179.999994506836,6|0,0:0|0:0,0:0:0:0:
390,139,74046,1,8,0:0:0:0:
218,14,74145,2,0,P|197:55|205:110,1,89.9999972534181,2|0,0:0|0:0,0:0:0:0:
162,347,74342,1,8,0:0:0:0:
202,276,74441,1,0,0:0:0:0:
164,204,74540,2,0,L|75:213,1,89.9999972534181,2|0,0:0|0:0,0:0:0:0:
245,348,74737,2,0,L|334:339,1,89.9999972534181,8|0,0:0|0:0,0:0:0:0:
284,186,74934,6,0,B|275:223|275:223|290:268,1,75,2|0,0:0|0:0,0:0:0:0:
429,372,75132,2,0,B|438:335|438:335|423:290,1,75,8|0,0:0|0:0,0:0:0:0:
463,209,75329,6,0,P|405:202|344:245,1,104.999996795654,2|0,0:0|0:0,0:0:0:0:
249,89,75526,2,0,P|307:82|368:125,1,104.999996795654,0|8,0:0|0:0,0:0:0:0:
282,301,75724,6,0,B|286:248|286:248|277:238|277:238|286:153,1,120,2|0,0:0|0:0,0:0:0:0:
432,0,75921,2,0,B|428:53|428:53|437:63|437:63|428:148,1,120,8|0,0:0|0:0,0:0:0:0:
156,314,76118,6,0,B|254:283|254:283|295:309,1,134.999995880127,2|0,0:0|0:0,0:0:0:0:
463,209,76316,1,8,0:0:0:0:
492,284,76415,1,0,0:0:0:0:
451,355,76513,2,0,B|375:285|375:285|377:237,1,134.999995880127,2|0,0:0|0:0,0:0:0:0:
340,85,76711,2,0,B|317:185|317:185|274:207,1,134.999995880127,8|0,0:0|0:0,0:0:0:0:
28,318,76908,6,0,P|107:294|192:366,1,179.999994506836,6|0,0:0|0:0,0:0:0:0:
196,369,77204,1,8,0:0:0:0:
444,327,77303,2,0,P|405:339|344:308,1,89.9999972534181,2|0,0:0|0:0,0:0:0:0:
254,149,77500,1,8,0:0:0:0:
328,117,77599,1,0,0:0:0:0:
400,151,77697,2,0,P|411:199|400:238,1,89.9999972534181,2|0,0:0|0:0,0:0:0:0:
280,365,77895,2,0,P|269:317|280:278,1,89.9999972534181,8|0,0:0|0:0,0:0:0:0:
444,327,78092,2,0,B|402:339|402:339|358:324,1,89.9999972534181,2|0,0:0|0:0,0:0:0:0:
238,193,78290,2,0,B|280:181|280:181|324:196,1,89.9999972534181,8|0,0:0|0:0,0:0:0:0:
186,298,78487,6,0,B|143:331|65:298|56:266|56:266|79:265|98:254,1,179.999994506836,2|0,0:0|0:0,0:0:0:0:
141,178,78783,1,8,0:0:0:0:
223,88,78882,6,0,B|273:108|283:192|260:216|260:216|247:197|228:186,1,179.999994506836,2|8,0:0|0:0,0:0:0:0:
141,178,79178,1,0,0:0:0:0:
15,154,79276,6,0,B|7:100|75:49|107:57|107:57|97:77|97:99,1,179.999994506836,2|8,0:0|0:0,0:0:0:0:
141,178,79572,1,0,0:0:0:0:
249,219,79671,6,0,P|291:231|333:214,1,89.9999972534181,2|0,0:0|0:0,0:0:0:0:
459,138,79868,1,8,0:0:0:0:
504,208,79967,1,0,0:0:0:0:
462,281,80066,6,0,P|422:297|378:285,1,89.9999972534181,2|0,0:0|0:0,0:0:0:0:
459,138,80263,2,0,P|493:164|505:208,1,89.9999972534181,0|8,0:0|0:0,0:0:0:0:
332,214,80461,2,0,P|339:171|371:139,1,89.9999972534181,2|0,0:0|0:0,0:0:0:0:
231,25,80658,5,8,0:0:0:0:
276,95,80757,1,0,0:0:0:0:
228,163,80855,2,0,P|180:174|121:152,1,104.999996795654,2|0,0:0|0:0,0:0:0:0:
32,294,81053,2,0,P|80:283|139:305,1,104.999996795654,8|0,0:0|0:0,0:0:0:0:
337,356,81250,5,8,0:3:0:0:
291,286,81349,1,8,0:3:0:0:
332,214,81447,1,8,0:3:0:0:
414,215,81546,1,8,0:3:0:0:
371,285,81645,6,0,B|364:231|364:231|381:173|381:173|362:105,1,179.999994506836,6|0,0:0|0:0,0:0:0:0:
357,81,81941,1,8,0:0:0:0:
128,125,82040,2,0,P|190:182|282:160,1,179.999994506836,2|8,0:0|0:0,0:0:0:0:
290,146,82336,1,0,0:0:0:0:
217,14,82434,6,0,B|200:53|200:53|218:113,1,89.9999972534181,2|0,0:0|0:0,0:0:0:0:
285,258,82632,2,0,B|302:297|302:297|288:342,1,89.9999972534181,8|0,0:0|0:0,0:0:0:0:
111,307,82829,6,0,P|159:283|216:303,1,104.999996795654,2|0,0:0|0:0,0:0:0:0:
462,259,83026,2,0,P|413:235|356:255,1,104.999996795654,8|0,0:0|0:0,0:0:0:0:
95,208,83224,6,0,B|74:180|74:180|207:213,1,120,2|0,0:0|0:0,0:0:0:0:
384,352,83421,2,0,B|405:324|405:324|272:357,1,120,0|8,0:0|0:0,0:0:0:0:
9,303,83618,6,0,P|86:290|140:372,1,150,2|0,0:0|0:0,0:0:0:0:
504,185,83816,2,0,P|427:172|373:254,1,150,8|0,0:0|0:0,0:0:0:0:
227,32,84013,6,0,B|217:123|217:123|235:148|235:148|221:268,1,209.999993591309,2|8,0:0|0:0,0:0:0:0:
218,245,84276,1,0,0:0:0:0:
213,256,84342,1,0,0:0:0:0:
208,267,84408,2,0,B|303:273,1,89.9999972534181,2|0,0:0|0:0,0:0:0:0:
509,95,84605,1,8,0:0:0:0:
453,35,84704,1,0,0:0:0:0:
372,46,84803,6,0,P|324:113|359:200,1,179.999994506836,6|0,0:0|0:0,0:0:0:0:
378,212,85099,1,8,0:0:0:0:
512,328,85197,2,0,P|476:343|412:318,1,89.9999972534181,2|0,0:0|0:0,0:0:0:0:
273,332,85395,2,0,P|311:328|361:284,1,89.9999972534181,8|0,0:0|0:0,0:0:0:0:
161,155,85592,2,0,B|199:237|199:237|166:331,1,179.999994506836,2|8,0:0|0:0,0:0:0:0:
158,316,85855,1,0,0:0:0:0:
146,312,85921,1,0,0:0:0:0:
134,307,85987,2,0,B|91:294|91:294|41:312,1,89.9999972534181,2|0,0:0|0:0,0:0:0:0:
0,206,86184,2,0,B|43:219|43:219|93:201,1,89.9999972534181,8|0,0:0|0:0,0:0:0:0:
272,56,86382,6,0,P|187:46|153:132,1,179.999994506836,2|0,0:0|0:0,0:0:0:0:
161,155,86678,1,8,0:0:0:0:
278,239,86776,2,0,B|292:190|292:190|274:141,1,89.9999972534181,2|0,0:0|0:0,0:0:0:0:
464,90,86974,1,8,0:0:0:0:
500,160,87072,1,0,0:0:0:0:
459,230,87171,2,0,L|366:191,1,89.9999972534181,2|0,0:0|0:0,0:0:0:0:
366,356,87368,2,0,L|458:317,1,89.9999972534181,8|0,0:0|0:0,0:0:0:0:
180,199,87566,5,8,0:3:0:0:
102,175,87665,1,8,0:3:0:0:
39,225,87763,1,8,0:3:0:0:
51,305,87862,1,8,0:3:0:0:
126,334,87961,6,0,B|181:328|204:285|204:285|253:286|281:335,1,179.999994506836,6|0,0:0|0:0,0:0:0:0:
291,357,88257,1,8,0:0:0:0:
394,251,88355,2,0,P|351:229|281:259,1,89.9999972534181,2|0,0:0|0:0,0:0:0:0:
178,173,88553,2,0,P|221:151|291:181,1,89.9999972534181,8|0,0:0|0:0,0:0:0:0:
493,68,88750,2,0,P|391:51|352:125,1,179.999994506836,2|8,0:0|0:0,0:0:0:0:
354,140,89046,1,0,0:0:0:0:
480,244,89145,6,0,B|489:196|489:196|473:148,1,89.9999972534181,2|0,0:0|0:0,0:0:0:0:
295,269,89342,2,0,B|281:308|281:308|290:356,1,89.9999972534181,8|0,0:0|0:0,0:0:0:0:
498,345,89540,6,0,B|515:320|515:320|430:333,1,104.999996795654,6|0,0:0|0:0,0:0:0:0:
146,286,89737,2,0,B|129:261|129:261|214:274,1,104.999996795654,4|8,0:0|0:0,0:0:0:0:
512,237,89934,6,0,B|424:253|424:253|367:223,1,131.250001251698,6|0,0:0|0:0,0:0:0:0:
80,356,90132,2,0,B|168:372|168:372|225:342,1,131.250001251698,12|0,0:0|0:0,0:0:0:0:
298,65,90329,6,0,B|308:103|297:143|297:143|323:180|323:180|277:213|277:213|302:246|302:246|281:285|301:329,1,300,6|8,0:0|0:0,0:0:0:0:
299,350,90625,1,0,0:0:0:0:
442,274,90724,1,10,0:3:0:0:
411,269,90789,1,2,0:3:0:0:
390,289,90855,1,2,0:3:0:0:
392,318,90921,1,10,0:3:0:0:
417,334,90987,1,2,0:3:0:0:
444,326,91052,1,2,0:3:0:0:
457,295,91118,6,0,B|385:292|385:292|355:319|355:319|276:313,1,179.999994506836,6|0,0:0|0:0,0:0:0:0:
256,313,91415,1,8,0:0:0:0:
300,146,91513,2,0,P|315:192|302:241,1,89.9999972534181,2|0,0:0|0:0,0:0:0:0:
47,346,91711,1,8,0:0:0:0:
0,280,91809,1,0,0:0:0:0:
27,203,91908,2,0,B|103:210|103:210|125:191|125:191|218:195,1,179.999994506836,2|8,0:0|0:0,0:0:0:0:
235,194,92204,1,0,0:0:0:0:
179,365,92303,2,0,P|164:319|177:270,1,89.9999972534181,2|0,0:0|0:0,0:0:0:0:
355,240,92500,1,8,0:0:0:0:
417,292,92599,1,0,0:0:0:0:
379,366,92697,6,0,B|330:391|259:344|256:311|256:311|279:314|299:307,1,179.999994506836,2|0,0:0|0:0,0:0:0:0:
355,240,92993,1,8,0:0:0:0:
451,165,93092,6,0,B|496:194|492:278|465:298|465:298|456:276|439:262,1,179.999994506836,2|8,0:0|0:0,0:0:0:0:
355,240,93388,1,0,0:0:0:0:
235,194,93486,6,0,B|237:139|312:101|343:114|343:114|329:133|325:154,1,179.999994506836,2|8,0:0|0:0,0:0:0:0:
355,240,93782,1,0,0:0:0:0:
401,56,93882,6,0,P|362:35|292:43,1,89.9999972534181,2|0,0:0|0:0,0:0:0:0:
141,46,94079,1,8,0:0:0:0:
91,110,94178,1,0,0:0:0:0:
151,171,94276,2,0,B|162:250|162:250|147:280|147:280|156:348,1,179.999994506836,2|0,0:0|0:0,0:0:0:0:
157,371,94572,1,8,0:0:0:0:
311,292,94671,2,0,B|267:280|267:280|210:300,1,89.9999972534181,2|0,0:0|0:0,0:0:0:0:
0,230,94868,2,0,B|44:242|44:242|101:222,1,89.9999972534181,8|0,0:0|0:0,0:0:0:0:
206,102,95066,5,8,0:3:0:0:
236,178,95164,1,8,0:3:0:0:
312,211,95263,1,8,0:3:0:0:
393,192,95362,1,8,0:3:0:0:
437,122,95461,2,0,P|383:109|335:129,1,89.9999972534181,8|0,0:0|0:0,0:0:0:0:
133,330,95658,1,8,0:3:0:0:
201,374,95757,1,8,0:3:0:0:
273,335,95855,6,0,B|303:262|303:262|262:192,1,150,6|0,0:0|0:0,0:0:0:0:
110,221,96151,1,2,0:3:0:0:
110,221,96250,2,0,P|150:230|193:214,1,75,2|0,0:0|0:0,0:0:0:0:
367,99,96447,1,8,0:0:0:0:
388,106,96546,1,0,0:0:0:0:
410,114,96644,6,0,B|411:178|411:178|424:202|424:202|423:287,1,150,8|0,0:3|0:0,0:0:0:0:
265,230,96941,1,2,0:3:0:0:
265,230,97040,2,0,P|305:221|348:237,1,75,2|0,0:0|0:0,0:0:0:0:
185,364,97237,1,8,0:0:0:0:
213,353,97335,1,0,0:0:0:0:
241,345,97434,6,0,B|174:314|174:314|97:347,1,150,8|0,0:3|0:0,0:0:0:0:
0,236,97730,1,2,0:3:0:0:
0,236,97829,2,0,L|74:208,1,75,2|0,0:0|0:0,0:0:0:0:
151,92,98026,1,8,0:0:0:0:
125,105,98125,1,0,0:0:0:0:
100,120,98223,6,0,B|136:138|136:138|177:128,1,75,2|0,0:0|0:0,0:0:0:0:
279,31,98421,2,0,B|245:52|245:52|233:93,1,75,8|0,0:0|0:0,0:0:0:0:
265,230,98618,2,0,B|263:188|263:188|234:157,1,75,2|0,0:0|0:0,0:0:0:0:
74,280,98815,1,8,0:0:0:0:
98,262,98914,1,8,0:3:0:0:
127,256,99013,6,0,P|191:290|196:367,1,150,6|0,0:0|0:0,0:0:0:0:
364,308,99309,1,2,0:3:0:0:
364,308,99408,2,0,B|328:299|328:299|270:315,1,75,2|0,0:0|0:0,0:0:0:0:
330,90,99605,1,8,0:0:0:0:
358,79,99704,1,0,0:0:0:0:
386,69,99802,6,0,B|400:129|400:129|386:159|386:159|396:215,1,150,8|0,0:3|0:0,0:0:0:0:
484,345,100098,1,2,0:3:0:0:
484,345,100197,2,0,P|490:304|475:262,1,75,2|0,0:0|0:0,0:0:0:0:
284,195,100395,1,8,0:0:0:0:
258,178,100493,1,0,0:0:0:0:
228,174,100592,6,0,P|151:227|187:347,1,225,8|2,0:3|0:3,0:0:0:0:
74,344,100987,2,0,B|38:334|38:334|-5:344,1,75,2|0,0:0|0:0,0:0:0:0:
232,265,101184,1,8,0:0:0:0:
258,279,101283,1,0,0:0:0:0:
287,281,101382,6,0,P|325:273|365:221,1,93.75,2|0,0:0|0:0,0:0:0:0:
280,107,101579,2,0,P|267:143|292:204,1,93.75,8|0,0:0|0:0,0:0:0:0:
446,245,101776,1,8,0:3:0:0:
445,215,101875,1,0,0:3:0:0:
432,189,101974,2,0,P|406:160|341:151,1,93.75,8|8,0:0|0:3,0:0:0:0:
160,211,102171,6,0,B|194:139|194:139|152:56,1,150,6|0,0:0|0:0,0:0:0:0:
0,137,102467,1,2,0:3:0:0:
0,137,102566,2,0,L|79:137,1,75,2|0,0:0|0:0,0:0:0:0:
216,318,102763,1,8,0:0:0:0:
189,332,102862,1,0,0:0:0:0:
162,345,102961,6,0,B|128:273|128:273|170:190,1,150,8|0,0:3|0:0,0:0:0:0:
0,219,103256,1,2,0:3:0:0:
0,219,103355,2,0,P|39:210|87:224,1,75,2|0,0:0|0:0,0:0:0:0:
295,227,103552,1,8,0:0:0:0:
320,212,103651,1,0,0:0:0:0:
344,197,103750,6,0,B|347:266|347:266|338:284|338:284|342:347,1,150,8|0,0:3|0:0,0:0:0:0:
502,338,104046,1,2,0:3:0:0:
502,338,104145,2,0,P|463:347|415:333,1,75,2|0,0:0|0:0,0:0:0:0:
390,122,104342,1,8,0:0:0:0:
397,93,104441,1,0,0:0:0:0:
406,65,104539,6,0,L|322:117,1,75,2|0,0:0|0:0,0:0:0:0:
194,116,104737,2,0,L|280:162,1,75,8|0,0:0|0:0,0:0:0:0:
346,273,104934,2,0,L|341:174,1,75,2|0,0:0|0:0,0:0:0:0:
201,33,105132,1,8,0:0:0:0:
232,15,105230,1,8,0:3:0:0:
258,1,105329,6,0,L|260:162,1,150,6|0,0:0|0:0,0:0:0:0:
83,134,105625,1,2,0:3:0:0:
83,134,105723,2,0,B|121:126|121:126|161:135,1,75,2|0,0:0|0:0,0:0:0:0:
96,311,105921,1,8,0:0:0:0:
69,297,106020,1,0,0:0:0:0:
43,281,106119,6,0,B|113:249|113:249|212:297,1,150,8|0,0:3|0:0,0:0:0:0:
319,363,106414,1,2,0:3:0:0:
319,363,106513,2,0,P|308:312|328:269,1,75,2|0,0:0|0:0,0:0:0:0:
281,135,106710,1,8,0:0:0:0:
264,160,106809,1,0,0:0:0:0:
244,183,106908,2,0,B|334:178|334:178|365:208|365:208|477:198,1,225,8|2,0:3|0:3,0:0:0:0:
403,50,107302,2,0,B|390:83|390:83|400:121,1,75,2|0,0:0|0:0,0:0:0:0:
454,287,107500,2,0,B|467:320|467:320|456:358,1,75,8|0,0:0|0:0,0:0:0:0:
244,384,107697,5,8,0:3:0:0:
176,336,107796,1,8,0:3:0:0:
210,260,107895,5,2,0:3:0:0:
218,264,107961,1,2,0:3:0:0:
226,269,108026,1,2,0:3:0:0:
233,272,108092,6,0,B|268:285|268:285|308:269,1,75,8|8,0:3|0:3,0:0:0:0:
292,188,108290,1,8,0:3:0:0:
224,140,108388,1,8,0:3:0:0:
160,196,108487,6,0,P|127:200|62:170,1,75,12|0,0:0|0:0,0:0:0:0:
55,114,108684,1,2,0:0:0:0:
172,8,108783,2,0,P|205:4|270:34,1,75,8|0,0:0|0:0,0:0:0:0:
280,90,108980,1,2,0:0:0:0:
409,19,109079,2,0,P|376:15|311:45,1,75,8|0,0:0|0:0,0:0:0:0:
475,244,109276,2,0,B|501:173|501:173|468:99,1,150,8|0,0:0|0:0,0:0:0:0:
464,112,109540,1,2,0:3:0:0:
458,120,109605,1,2,0:3:0:0:
452,128,109671,6,0,L|367:117,1,75,8|0,0:0|0:0,0:0:0:0:
313,170,109868,1,2,0:0:0:0:
346,366,109967,2,0,L|431:377,1,75,8|0,0:0|0:0,0:0:0:0:
485,324,110164,1,2,0:0:0:0:
290,281,110263,2,0,L|205:292,1,75,8|0,0:0|0:0,0:0:0:0:
36,340,110461,2,0,L|121:351,1,75,8|0,0:0|0:0,0:0:0:0:
162,128,110658,1,8,0:3:0:0:
133,133,110757,1,8,0:3:0:0:
104,136,110855,6,0,B|140:195|120:259|90:223|71:304|118:360,1,225,6|0,0:0|0:0,0:0:0:0:
297,337,111250,1,8,0:3:0:0:
300,259,111348,1,8,0:3:0:0:
228,231,111447,1,8,0:3:0:0:
180,290,111546,1,8,0:3:0:0:
223,355,111645,6,0,L|309:332,1,75,8|0,0:0|0:0,0:0:0:0:
376,366,111842,1,2,0:0:0:0:
457,185,111941,2,0,L|370:207,1,75,8|0,0:0|0:0,0:0:0:0:
303,173,112138,1,2,0:0:0:0:
452,63,112237,2,0,L|379:44,1,75,8|0,0:0|0:0,0:0:0:0:
205,92,112434,6,0,L|169:104,3,37.5,8|0|0|0,0:0|0:0|0:0|0:0,0:0:0:0:
166,117,112632,5,0,0:0:0:0:
162,131,112697,1,2,0:3:0:0:
159,145,112763,1,2,0:3:0:0:
156,159,112829,6,0,B|111:171|111:171|106:177|106:177|38:197,1,97.4999955368044,8|0,0:0|0:0,0:0:0:0:
5,129,113026,1,2,0:0:0:0:
0,316,113125,2,0,B|45:304|45:304|50:298|50:298|118:278,1,97.4999955368044,8|0,0:0|0:0,0:0:0:0:
151,346,113322,1,2,0:0:0:0:
61,200,113421,2,0,B|103:188|103:188|108:182|108:182|153:170,1,97.4999955368044,8|0,0:0|0:0,0:0:0:0:
345,328,113618,6,0,B|322:339|278:332|259:291|271:247|295:211|331:203|367:231|392:278|392:240|481:198|401:147|465:92|465:92|420:102|399:129|399:129|373:104|338:109|338:109|336:75|306:40|306:40|318:120|249:110|251:195|295:239|342:205,1,839.999974365235,12|0,0:0|0:0,0:0:0:0:
