osu file format v14

[General]
AudioFilename: audio.mp3
AudioLeadIn: 0
PreviewTime: 66546
Countdown: 0
SampleSet: Normal
StackLeniency: 0.2
Mode: 0
LetterboxInBreaks: 0
WidescreenStoryboard: 1

[Editor]
Bookmarks: 2697,16908,29540,42171,54803,67434,81645,95855,108487,114408
DistanceSpacing: 0.8
BeatDivisor: 4
GridSize: 32
TimelineZoom: 2.6

[Metadata]
Title:Nekozamurai no Gyakushu
TitleUnicode:猫侍の逆襲
Artist:Nekomata Master
ArtistUnicode:猫叉Master
Creator:moph
Version:Alheak's Expert
Source:GITADORA
Tags:naoyuki sato follow slowly neko samurai jubeat saucer pop'n music kwk alheak
BeatmapID:1466728
BeatmapSetID:518743

[Difficulty]
HPDrainRate:5
CircleSize:3.2
OverallDifficulty:8
ApproachRate:9
SliderMultiplier:2.3
SliderTickRate:1

[Events]
//Background and Video events
0,0,"bg.jpg",0,0
//Break Periods
2,2897,4466
//Storyboard Layer 0 (Background)
//Storyboard Layer 1 (Fail)
//Storyboard Layer 2 (Pass)
//Storyboard Layer 3 (Foreground)
//Storyboard Sound Samples

[TimingPoints]
1119,394.736842105263,4,1,1,50,1,0
1119,-133.333333333333,4,1,1,50,0,0
2697,-133.333333333333,4,1,1,60,0,0
9013,-133.333333333333,4,1,1,60,0,0
12171,-133.333333333333,4,1,1,60,0,0
13947,-133.333333333333,4,1,1,60,0,0
14145,-133.333333333333,4,1,1,60,0,0
14342,-133.333333333333,4,1,1,60,0,0
14540,-133.333333333333,4,1,1,60,0,0
14737,-133.333333333333,4,1,1,60,0,0
14934,-133.333333333333,4,1,1,60,0,0
15132,-133.333333333333,4,1,1,60,0,0
16908,-133.333333333333,4,1,1,70,0,0
42171,-200,4,1,1,70,0,0
42763,-100,4,1,1,70,0,0
43355,-200,4,1,1,70,0,0
43947,-100,4,1,1,70,0,0
46513,-200,4,1,1,70,0,0
47105,-100,4,1,1,70,0,0
51645,-200,4,1,1,70,0,0
53224,-100,4,1,1,70,0,0
64276,-200,4,1,1,70,0,0
64868,-100,4,1,1,70,0,0
65461,-200,4,1,1,70,0,0
66053,-100,4,1,1,70,0,0
66250,-66.6666666666667,4,1,1,70,0,0
66645,-66.6666666666667,4,1,1,70,0,0
66941,-66.6666666666667,4,1,1,70,0,0
67040,-66.6666666666667,4,1,1,70,0,0
67336,-66.6666666666667,4,1,1,70,0,0
67434,-80,4,1,1,80,0,1
81250,-80,4,1,1,80,0,0
81645,-80,4,1,1,80,0,1
95855,-133.333333333333,4,1,1,70,0,0
113717,-133.333333333333,4,1,1,20,0,0
114309,-100,4,1,1,20,0,0
114408,-100,4,1,1,5,0,0

[Colours]
Combo1 : 169,117,189
Combo2 : 184,80,80
Combo3 : 83,114,187
Combo4 : 218,131,78

[HitObjects]
140,182,1119,5,8,0:3:0:0:
306,143,1316,1,8,0:0:0:0:
306,143,1711,1,8,0:0:0:0:
305,148,1809,1,0,0:0:0:0:
304,153,1908,2,0,L|310:194,3,28.7500010967255,0|0|0|0,3:0|0:0|0:0|0:0,0:0:0:0:
256,244,2204,1,0,0:0:0:0:
336,259,2303,1,8,0:3:0:0:
204,306,2500,1,4,0:3:0:0:
229,168,2697,5,4,0:0:0:0:
336,259,5066,5,8,0:3:0:0:
204,306,5461,1,2,0:0:0:0:
229,168,5855,5,4,0:0:0:0:
336,259,7237,1,10,0:3:0:0:
336,259,7303,1,8,0:0:0:0:
336,259,7368,1,8,0:0:0:0:
336,259,7434,5,4,0:0:0:0:
204,306,7632,1,10,0:3:0:0:
229,168,7829,1,4,0:0:0:0:
195,160,7928,1,0,0:0:0:0:
161,152,8026,1,8,0:0:0:0:
127,144,8125,1,2,0:3:0:0:
51,174,8224,1,6,0:0:0:0:
197,79,8421,1,6,0:0:0:0:
281,229,8618,2,0,L|294:326,1,86.2500032901765,6|0,0:0|0:0,0:0:0:0:
288,211,8915,1,0,0:0:0:0:
356,167,9013,5,6,0:0:0:0:
356,167,9211,1,0,0:0:0:0:
206,129,9408,1,0,0:0:0:0:
206,129,9605,1,0,0:0:0:0:
364,148,9803,1,0,0:0:0:0:
364,148,10001,1,0,0:0:0:0:
203,109,10198,1,0,0:0:0:0:
203,109,10395,1,0,0:0:0:0:
372,130,10592,6,0,P|404:102|424:64,1,86.2500032901765,2|0,0:3|0:0,0:0:0:0:
370,136,10855,1,0,0:0:0:0:
367,142,10921,1,0,0:0:0:0:
364,148,10987,1,0,0:0:0:0:
200,89,11184,1,0,0:0:0:0:
250,259,11381,1,2,0:3:0:0:
258,225,11480,1,0,0:0:0:0:
257,190,11579,1,0,0:0:0:0:
245,157,11678,1,0,0:0:0:0:
200,89,11776,2,0,P|182:47|184:0,1,86.2500032901765,2|0,0:3|0:0,0:0:0:0:
245,157,12072,1,0,0:0:0:0:
165,162,12171,6,0,L|59:170,1,86.2500032901765,6|0,0:0|0:0,0:0:0:0:
280,85,12566,2,0,L|326:-10,1,86.2500032901765,2|0,0:0|0:0,0:0:0:0:
289,223,12961,2,0,L|348:310,1,86.2500032901765,2|0,0:0|0:0,0:0:0:0:
284,220,13224,1,0,0:0:0:0:
279,217,13290,1,0,0:0:0:0:
274,214,13355,1,2,0:0:0:0:
146,236,13553,1,2,0:0:0:0:
101,357,13750,5,2,0:0:0:0:
101,357,13947,1,2,0:3:0:0:
56,171,14145,1,2,0:0:0:0:
56,171,14342,1,2,0:3:0:0:
87,372,14540,1,2,0:0:0:0:
87,372,14737,1,2,0:0:0:0:
38,164,14935,1,2,0:0:0:0:
38,164,15132,1,2,0:0:0:0:
257,308,15329,6,0,P|259:265|241:225,1,86.2500032901765,6|2,0:0|0:0,0:0:0:0:
253,37,15724,2,0,P|252:79|270:118,1,86.2500032901765,2|0,0:0|0:0,0:0:0:0:
348,198,16020,1,0,0:0:0:0:
348,198,16118,2,0,L|408:191,1,43.1250016450883,12|0,0:0|0:0,0:0:0:0:
165,148,16316,2,0,L|105:155,1,43.1250016450883,8|8,0:3|0:3,0:0:0:0:
356,215,16513,2,0,B|400:209|400:209|445:175,1,86.2500032901765,8|8,0:0|0:0,0:0:0:0:
157,131,16908,6,0,B|113:137|113:137|68:171,1,86.2500032901765,4|0,0:0|0:0,0:0:0:0:
19,85,17204,1,2,0:3:0:0:
38,92,17303,1,2,0:0:0:0:
275,159,17500,1,8,0:0:0:0:
256,166,17599,1,0,0:0:0:0:
207,232,17697,2,0,P|205:283|235:326,1,86.2500032901765,8|0,0:3|0:0,0:0:0:0:
302,265,17993,1,2,0:3:0:0:
283,260,18092,1,2,0:0:0:0:
87,190,18290,1,8,0:0:0:0:
106,185,18389,1,0,0:0:0:0:
164,127,18487,6,0,P|166:76|136:33,1,86.2500032901765,8|0,0:3|0:0,0:0:0:0:
236,20,18783,1,2,0:3:0:0:
232,40,18882,1,2,0:0:0:0:
274,245,19079,1,8,0:0:0:0:
270,225,19178,1,0,0:0:0:0:
273,139,19276,2,0,B|306:113|306:113|350:107,1,86.2500032901765,2|8,0:0|0:0,0:0:0:0:
466,144,19572,1,0,0:0:0:0:
479,224,19671,2,0,B|445:198|445:198|401:192,1,86.2500032901765,2|8,0:0|0:3,0:0:0:0:
286,229,19967,1,8,0:3:0:0:
273,309,20066,6,0,B|306:283|306:283|350:277,1,86.2500032901765,6|0,0:0|0:0,0:0:0:0:
423,345,20362,1,2,0:3:0:0:
403,340,20461,1,2,0:0:0:0:
190,262,20658,1,8,0:0:0:0:
210,257,20757,1,0,0:0:0:0:
286,229,20855,2,0,L|297:130,1,86.2500032901765,8|0,0:3|0:0,0:0:0:0:
391,110,21151,1,2,0:3:0:0:
371,115,21250,1,2,0:0:0:0:
177,45,21447,1,8,0:0:0:0:
157,40,21546,1,0,0:0:0:0:
81,69,21645,6,0,P|59:107|65:164,1,86.2500032901765,8|0,0:3|0:0,0:0:0:0:
93,240,21941,1,2,0:3:0:0:
98,220,22040,1,2,0:0:0:0:
177,45,22237,1,8,0:0:0:0:
182,65,22336,1,0,0:0:0:0:
235,127,22434,2,0,L|269:132,3,28.7500010967255,2|0|0|8,0:0|0:0|0:0|0:0,0:0:0:0:
384,156,22731,1,0,0:0:0:0:
331,218,22829,2,0,L|297:223,3,28.7500010967255,2|0|0|8,0:0|0:0|0:0|0:0,0:0:0:0:
182,247,23126,1,0,0:0:0:0:
235,309,23224,6,0,L|327:322,1,86.2500032901765,6|0,0:0|0:0,0:0:0:0:
408,270,23520,1,2,0:3:0:0:
389,275,23618,1,2,0:0:0:0:
151,344,23816,1,8,0:0:0:0:
156,325,23914,1,0,0:0:0:0:
182,247,24013,2,0,P|181:204|160:167,1,86.2500032901765,8|0,0:3|0:0,0:0:0:0:
79,119,24309,1,2,0:3:0:0:
97,116,24408,1,2,0:0:0:0:
317,74,24605,1,8,0:0:0:0:
299,71,24704,1,0,0:0:0:0:
221,51,24803,6,0,P|221:93|242:130,1,86.2500032901765,8|0,0:3|0:0,0:0:0:0:
324,179,25098,1,2,0:3:0:0:
306,182,25197,1,2,0:0:0:0:
86,224,25394,1,8,0:0:0:0:
104,227,25493,1,0,0:0:0:0:
169,275,25592,2,0,L|184:359,1,86.2500032901765,2|8,0:0|0:0,0:0:0:0:
179,259,25888,1,0,0:0:0:0:
199,180,25987,2,0,L|214:95,1,86.2500032901765,2|8,0:0|0:3,0:0:0:0:
209,196,26283,1,8,0:3:0:0:
260,259,26382,6,0,P|299:277|352:269,1,86.2500032901765,4|0,0:0|0:0,0:0:0:0:
399,198,26678,1,2,0:3:0:0:
402,218,26776,1,2,0:0:0:0:
249,359,26974,1,8,0:0:0:0:
252,339,27072,1,0,0:0:0:0:
241,258,27171,2,0,L|234:208,3,28.7500010967255,8|0|0|0,0:3|0:0|0:0|0:0,0:0:0:0:
315,192,27467,1,2,0:3:0:0:
326,111,27566,2,0,L|333:61,3,28.7500010967255,2|0|0|8,0:0|0:0|0:0|0:0,0:0:0:0:
252,45,27862,1,0,0:0:0:0:
174,67,27961,6,0,P|154:102|156:153,1,86.2500032901765,4|0,0:0|0:0,0:0:0:0:
373,249,28356,2,0,P|393:214|391:163,1,86.2500032901765,2|8,0:0|0:0,0:0:0:0:
235,159,28651,1,0,0:0:0:0:
186,223,28750,5,2,0:3:0:0:
190,257,28849,1,2,0:3:0:0:
194,290,28947,1,8,0:3:0:0:
198,324,29046,1,8,0:3:0:0:
272,355,29145,5,8,0:3:0:0:
262,274,29243,1,8,0:3:0:0:
188,242,29342,1,8,0:0:0:0:
122,291,29441,1,8,0:0:0:0:
132,371,29540,6,0,P|170:359|199:322,1,86.2500032901765,6|0,0:0|0:0,0:0:0:0:
214,124,29836,1,8,0:0:0:0:
181,199,29934,2,0,L|192:274,1,43.1250016450883,2|0,0:0|0:0,0:0:0:0:
272,355,30132,1,8,0:0:0:0:
289,364,30230,1,0,0:0:0:0:
333,297,30329,2,0,L|408:286,1,43.1250016450883,2|0,0:0|0:0,0:0:0:0:
187,241,30526,2,0,L|112:230,1,43.1250016450883,8|0,0:0|0:0,0:0:0:0:
189,246,30724,1,2,0:0:0:0:
191,251,30790,1,0,0:0:0:0:
193,256,30855,1,0,0:0:0:0:
195,261,30921,1,8,0:0:0:0:
112,159,31118,6,0,P|95:104|106:62,1,86.2500032901765,2|0,0:0|0:0,0:0:0:0:
259,29,31415,1,8,0:0:0:0:
303,98,31513,2,0,L|299:147,1,43.1250016450883,2|0,0:0|0:0,0:0:0:0:
215,223,31711,1,8,0:0:0:0:
198,232,31809,1,0,0:0:0:0:
154,165,31908,2,0,L|79:154,1,43.1250016450883,2|0,0:0|0:0,0:0:0:0:
299,140,32105,2,0,L|374:129,1,43.1250016450883,8|0,0:0|0:0,0:0:0:0:
243,300,32303,2,0,B|235:345|235:345|197:379,1,86.2500032901765,2|8,0:0|0:0,0:0:0:0:
259,287,32599,1,2,0:0:0:0:
329,247,32697,6,0,P|371:245|410:262,1,86.2500032901765,6|0,0:0|0:0,0:0:0:0:
455,353,32993,1,8,0:0:0:0:
451,333,33092,1,2,0:0:0:0:
346,145,33290,1,8,0:0:0:0:
342,165,33389,1,0,0:0:0:0:
267,195,33487,2,0,P|224:196|185:179,1,86.2500032901765,2|8,0:0|0:0,0:0:0:0:
127,111,33783,1,0,0:0:0:0:
146,108,33882,1,2,0:0:0:0:
267,195,34079,1,8,0:0:0:0:
289,274,34178,1,0,0:0:0:0:
231,332,34276,5,2,0:0:0:0:
97,252,34474,1,0,0:0:0:0:
93,232,34572,1,8,0:0:0:0:
79,332,34671,1,2,0:0:0:0:
153,177,34868,1,8,0:0:0:0:
157,157,34966,1,0,0:0:0:0:
171,257,35065,1,2,0:0:0:0:
97,102,35263,2,0,L|88:58,2,28.7500010967255,8|0|0,0:0|0:0|0:0,0:0:0:0:
79,182,35461,1,2,0:0:0:0:
216,76,35658,2,0,P|241:70|272:71,1,43.1250016450883,8|0,0:0|0:0,0:0:0:0:
365,127,35855,6,0,P|375:174|365:210,1,86.2500032901765,6|0,0:0|0:0,0:0:0:0:
181,206,36151,1,8,0:0:0:0:
251,166,36250,2,0,L|294:170,1,43.1250016450883,2|0,0:0|0:0,0:0:0:0:
432,254,36447,1,8,0:0:0:0:
442,271,36546,1,0,0:0:0:0:
384,329,36645,2,0,L|387:371,1,43.1250016450883,2|0,0:0|0:0,0:0:0:0:
246,306,36842,2,0,L|171:295,1,43.1250016450883,8|0,0:0|0:0,0:0:0:0:
248,311,37040,1,2,0:0:0:0:
250,316,37106,1,0,0:0:0:0:
252,321,37171,1,0,0:0:0:0:
254,326,37237,1,8,0:0:0:0:
329,248,37434,6,0,P|339:206|329:165,1,86.2500032901765,2|0,0:0|0:0,0:0:0:0:
243,52,37730,1,8,0:0:0:0:
166,27,37829,2,0,L|109:33,1,43.1250016450883,2|0,0:0|0:0,0:0:0:0:
254,133,38026,1,8,0:0:0:0:
257,153,38125,1,0,0:0:0:0:
318,84,38224,2,0,L|375:90,1,43.1250016450883,2|0,0:0|0:0,0:0:0:0:
451,19,38421,2,0,L|408:23,1,43.1250016450883,8|0,0:0|0:0,0:0:0:0:
243,52,38618,2,0,B|200:44|200:44|166:13,1,86.2500032901765,2|8,0:0|0:0,0:0:0:0:
247,71,38915,1,0,0:0:0:0:
269,149,39013,6,0,L|254:240,1,86.2500032901765,2|0,0:0|0:0,0:0:0:0:
171,287,39309,1,8,0:0:0:0:
190,283,39408,1,2,0:0:0:0:
343,184,39605,1,8,0:0:0:0:
340,203,39704,1,0,0:0:0:0:
321,283,39803,2,0,L|336:374,1,86.2500032901765,2|8,0:0|0:0,0:0:0:0:
432,351,40099,1,0,0:0:0:0:
413,347,40198,1,2,0:0:0:0:
262,228,40395,1,8,0:0:0:0:
248,148,40493,1,0,0:0:0:0:
310,95,40592,6,0,L|365:87,1,43.1250016450883,2|0,0:0|0:0,0:0:0:0:
171,120,40790,1,8,0:0:0:0:
153,112,40888,1,0,0:0:0:0:
195,42,40987,2,0,L|187:-13,1,43.1250016450883,2|0,0:0|0:0,0:0:0:0:
321,175,41184,1,8,0:0:0:0:
339,183,41282,1,0,0:0:0:0:
297,253,41382,5,8,0:3:0:0:
302,286,41480,1,8,0:3:0:0:
220,284,41579,1,8,0:3:0:0:
186,310,41677,1,8,0:3:0:0:
109,280,41776,5,8,0:3:0:0:
35,248,41875,1,8,0:3:0:0:
25,167,41974,1,8,0:3:0:0:
90,115,42072,1,8,0:3:0:0:
167,146,42171,6,0,P|181:169|184:202,1,57.5,6|0,0:0|0:0,0:0:0:0:
302,265,42467,2,0,P|274:265|248:254,1,57.5,8|0,0:0|0:0,0:0:0:0:
130,322,42763,2,0,P|144:297|167:280,1,57.5,2|0,0:0|0:0,0:0:0:0:
90,115,42961,1,8,0:0:0:0:
90,115,43355,6,0,L|79:50,1,57.5,2|0,0:0|0:0,0:0:0:0:
224,119,43651,2,0,L|173:161,1,57.5,8|0,0:0|0:0,0:0:0:0:
161,1,43947,2,0,L|222:23,1,57.5,2|0,0:0|0:0,0:0:0:0:
99,212,44145,1,8,0:0:0:0:
99,212,44540,5,8,0:0:0:0:
96,232,44638,1,2,0:0:0:0:
93,252,44737,1,0,0:0:0:0:
90,272,44836,1,8,0:0:0:0:
13,243,44934,5,2,0:0:0:0:
55,227,45033,1,0,0:0:0:0:
99,212,45132,1,10,0:0:0:0:
141,197,45230,1,0,0:0:0:0:
223,213,45329,6,0,P|247:227|265:249,1,57.5,2|0,0:3|0:0,0:0:0:0:
248,115,45526,1,2,0:0:0:0:
248,115,45625,2,0,P|223:129|195:134,1,57.5,8|0,0:0|0:0,0:0:0:0:
319,185,45822,1,0,0:0:0:0:
319,185,45921,2,0,P|319:156|329:129,1,57.5,2|0,0:3|0:0,0:0:0:0:
193,290,46118,2,0,L|126:297,1,57.5,10|0,0:0|0:0,0:0:0:0:
223,213,46316,1,0,0:0:0:0:
231,194,46415,1,0,0:0:0:0:
275,279,46513,6,0,L|314:333,1,57.5,2|0,0:0|0:0,0:0:0:0:
325,153,46809,2,0,L|332:220,1,57.5,8|0,0:0|0:0,0:0:0:0:
431,68,47105,2,0,L|403:129,1,57.5,2|0,0:0|0:0,0:0:0:0:
224,86,47303,1,8,0:0:0:0:
204,89,47401,1,10,0:0:0:0:
330,210,47599,5,8,0:0:0:0:
317,293,47697,2,0,L|308:345,3,38.3333333333333,2|2|2|0,0:3|0:3|0:3|0:0,0:0:0:0:
217,172,47993,1,0,0:0:0:0:
204,89,48092,2,0,L|195:37,3,38.3333333333333,2|2|2|0,0:3|0:3|0:3|0:0,0:0:0:0:
104,210,48389,1,0,0:0:0:0:
91,293,48487,6,0,L|82:345,3,38.3333333333333,2|0|0|0,0:0|0:0|0:0|0:0,0:0:0:0:
234,254,48783,1,8,0:0:0:0:
234,254,48882,2,0,L|243:306,2,38.3333333333333,2|0|0,0:0|0:0|0:0,0:0:0:0:
152,237,49079,2,0,P|130:219|104:210,1,57.5,8|0,0:0|0:0,0:0:0:0:
217,172,49276,2,0,B|239:118|239:118|227:54,1,115,2|2,0:0|0:3,0:0:0:0:
292,131,49540,1,0,0:0:0:0:
292,131,49605,1,0,0:0:0:0:
292,131,49671,6,0,L|343:137,3,38.3333333333333,6|0|0|0,0:0|0:0|0:0|0:0,0:0:0:0:
217,172,49967,1,2,0:0:0:0:
153,110,50066,2,0,L|114:105,2,38.3333333333333,2|0|0,0:0|0:0|0:0,0:0:0:0:
228,62,50263,2,0,P|251:46|279:39,1,57.5,2|0,0:0|0:0,0:0:0:0:
415,82,50461,6,0,L|502:97,2,76.6666666666667,8|2|2,0:0|0:0|0:0,0:0:0:0:
438,187,50855,5,8,0:0:0:0:
440,207,50954,1,0,0:0:0:0:
442,227,51053,1,0,0:0:0:0:
444,247,51151,1,0,0:0:0:0:
387,309,51250,5,8,0:0:0:0:
341,300,51349,1,0,0:0:0:0:
296,292,51447,1,0,0:0:0:0:
250,284,51546,1,0,0:0:0:0:
192,224,51645,6,0,P|184:206|182:187,2,38.3333333333333,2|0|2,0:0|0:0|0:0,0:0:0:0:
293,180,52040,2,0,P|295:161|302:143,2,38.3333333333333,8|0|0,0:0|0:0|0:0,0:0:0:0:
362,354,52434,1,8,0:0:0:0:
382,246,52566,1,2,0:0:0:0:
278,283,52697,1,2,0:0:0:0:
185,317,52829,6,0,L|121:340,1,57.5,2|0,0:0|0:0,0:0:0:0:
187,312,53092,1,0,0:0:0:0:
189,307,53158,1,0,0:0:0:0:
191,302,53224,6,0,L|243:283,3,38.3333333333333,0|0|0|2,0:0|0:0|0:0|0:0,0:0:0:0:
194,202,53520,1,0,0:0:0:0:
194,202,53618,2,0,L|229:159,3,38.3333333333333,8|0|0|8,0:3|0:0|0:0|0:3,0:0:0:0:
146,113,53915,1,2,0:3:0:0:
146,113,54013,1,0,0:0:0:0:
150,67,54112,1,0,0:0:0:0:
108,49,54210,1,0,0:0:0:0:
78,84,54309,1,0,0:0:0:0:
102,124,54408,5,8,0:3:0:0:
122,130,54507,1,8,0:3:0:0:
218,172,54605,1,2,0:0:0:0:
198,178,54704,1,0,0:0:0:0:
119,222,54803,6,0,P|110:253|110:289,1,57.5,12|0,0:3|0:0,0:0:0:0:
128,273,55000,2,0,P|135:304|153:335,1,57.5,10|8,0:3|0:3,0:0:0:0:
161,312,55197,2,0,P|183:335|214:353,1,57.5,12|0,0:3|0:0,0:0:0:0:
209,329,55395,2,0,P|240:337|276:337,1,57.5,10|8,0:3|0:3,0:0:0:0:
249,189,55592,6,0,P|228:208|212:232,1,57.5,6|2,0:3|0:3,0:0:0:0:
286,155,55790,2,0,P|258:161|232:174,1,57.5,10|2,0:3|0:3,0:0:0:0:
361,299,55987,6,0,P|384:282|403:261,1,57.5,12|0,0:3|0:0,0:0:0:0:
417,274,56184,2,0,P|429:248|436:220,1,57.5,10|8,0:3|0:3,0:0:0:0:
456,225,56382,2,0,P|454:196|446:168,1,57.5,12|0,0:3|0:0,0:0:0:0:
464,164,56579,2,0,P|447:140|427:120,1,57.5,10|8,0:3|0:3,0:0:0:0:
217,47,56776,6,0,P|244:55|268:71,1,57.5,6|0,0:0|0:0,0:0:0:0:
279,55,56974,2,0,P|297:76|311:102,1,57.5,8|0,0:3|0:0,0:0:0:0:
329,250,57171,5,12,0:3:0:0:
299,213,57270,1,8,0:3:0:0:
255,199,57368,1,10,0:3:0:0:
210,211,57467,1,8,0:3:0:0:
196,293,57566,5,10,0:3:0:0:
215,289,57665,1,8,0:3:0:0:
234,286,57763,1,10,0:3:0:0:
253,283,57862,1,8,0:3:0:0:
299,213,57961,6,0,B|320:159|320:159|310:89,1,115,10|2,0:3|0:0,0:0:0:0:
380,27,58257,1,0,0:0:0:0:
373,47,58355,1,10,0:3:0:0:
303,234,58553,1,2,0:0:0:0:
299,213,58651,1,0,0:0:0:0:
237,150,58750,2,0,P|214:140|173:140,3,57.5,10|0|2|0,0:3|0:0|0:0|0:0,0:0:0:0:
138,67,59145,6,0,P|117:81|97:117,2,57.5,10|0|2,0:3|0:0|0:3,0:0:0:0:
44,183,59441,1,0,0:0:0:0:
59,196,59540,2,0,L|117:191,1,57.5,10|0,0:3|0:0,0:0:0:0:
225,288,59737,1,2,0:0:0:0:
228,267,59836,2,0,L|195:221,2,57.5,0|2|0,0:0|0:0|0:0,0:0:0:0:
216,62,60131,1,2,0:0:0:0:
182,138,60230,1,2,0:0:0:0:
265,130,60329,6,0,B|305:124|305:124|337:142|337:142|381:135,1,115,6|0,0:0|0:0,0:0:0:0:
356,34,60625,1,0,0:0:0:0:
353,55,60724,1,8,0:0:0:0:
464,288,60921,1,8,0:3:0:0:
461,267,61020,1,8,0:3:0:0:
394,216,61118,6,0,P|330:235|301:304,1,115,6|6,0:0|0:0,0:0:0:0:
309,378,61415,2,0,P|324:313|279:253,1,115,0|0,0:0|0:0,0:0:0:0:
186,309,61711,2,0,P|211:323|240:327,1,57.5,8|2,0:0|0:0,0:0:0:0:
472,184,61908,2,0,B|456:110|381:90|381:90|403:84|419:89,1,172.5,6|0,0:0|0:0,0:0:0:0:
220,95,62303,6,0,P|268:140|342:131,1,115,2|8,0:0|0:0,0:0:0:0:
320,250,62599,2,0,P|336:196|315:144,1,115,2|0,0:0|0:0,0:0:0:0:
336,17,62895,2,0,P|314:36|301:61,1,57.5,8|0,0:0|0:0,0:0:0:0:
415,241,63092,1,2,0:0:0:0:
248,365,63290,1,8,0:3:0:0:
248,365,63388,1,8,0:3:0:0:
248,365,63487,6,0,B|255:322|255:322|241:282|241:282|267:244|250:200,1,172.5,0|0,0:0|0:0,0:0:0:0:
155,172,63882,2,0,P|229:201|217:280,1,172.5,8|0,0:0|0:0,0:0:0:0:
65,247,64276,6,0,P|93:246|120:256,1,57.5,6|0,0:0|0:0,0:0:0:0:
295,64,64572,2,0,P|281:89|259:107,1,57.5,8|0,0:0|0:0,0:0:0:0:
338,354,64868,2,0,P|323:329|317:301,1,57.5,2|0,0:0|0:0,0:0:0:0:
456,152,65066,1,8,0:0:0:0:
315,116,65263,1,8,0:3:0:0:
315,116,65362,1,8,0:3:0:0:
315,116,65461,6,0,P|300:91|294:63,1,57.5,6|0,0:0|0:0,0:0:0:0:
282,345,65757,2,0,P|310:344|337:353,1,57.5,8|0,0:0|0:0,0:0:0:0:
100,201,66053,2,0,P|86:226|64:244,1,57.5,2|0,0:0|0:0,0:0:0:0:
309,235,66250,6,0,P|363:186|297:157,1,172.5,8|8,0:0|0:3,0:0:0:0:
292,155,66513,1,0,0:0:0:0:
288,153,66579,1,0,0:0:0:0:
284,151,66645,6,0,P|369:151|299:248,1,258.75000987053,6|0,0:0|0:0,0:0:0:0:
202,188,67040,2,0,P|117:188|187:285,1,258.75000987053,6|0,0:0|0:0,0:0:0:0:
327,194,67434,6,0,B|302:126|302:126|313:55,1,143.75,6|0,0:0|0:0,0:0:0:0:
410,170,67730,1,8,0:0:0:0:
389,252,67829,2,0,P|312:277|256:239,1,143.75,2|8,0:0|0:0,0:0:0:0:
145,251,68125,1,0,0:0:0:0:
202,188,68224,2,0,P|204:152|189:119,1,71.875,2|0,0:0|0:0,0:0:0:0:
46,25,68421,1,8,0:0:0:0:
66,31,68520,1,0,0:0:0:0:
150,46,68618,2,0,L|234:31,1,71.875,2|0,0:0|0:0,0:0:0:0:
364,111,68816,1,8,0:0:0:0:
344,117,68915,1,0,0:0:0:0:
260,132,69013,6,0,L|176:117,1,71.875,2|0,0:0|0:0,0:0:0:0:
314,199,69211,2,0,P|325:234|321:276,1,71.875,0|8,0:0|0:0,0:0:0:0:
122,179,69408,2,0,P|147:152|178:136,1,71.875,2|0,0:0|0:0,0:0:0:0:
235,255,69605,1,8,0:0:0:0:
238,277,69704,1,0,0:0:0:0:
202,355,69803,2,0,P|166:347|131:322,1,71.875,2|0,0:0|0:0,0:0:0:0:
314,199,70000,1,8,0:0:0:0:
319,201,70066,1,0,0:0:0:0:
324,203,70132,1,0,0:0:0:0:
329,205,70197,2,0,P|379:144|366:74,1,143.75,2|8,0:0|0:0,0:0:0:0:
157,35,70493,1,0,0:0:0:0:
173,46,70592,5,6,0:0:0:0:
391,78,70790,1,0,0:0:0:0:
371,83,70889,1,8,0:0:0:0:
297,125,70987,2,0,L|202:107,1,71.875,2|0,0:0|0:0,0:0:0:0:
85,171,71184,1,8,0:0:0:0:
105,176,71283,1,0,0:0:0:0:
179,218,71381,2,0,B|249:204|249:204|296:134,1,143.75,2|8,0:0|0:0,0:0:0:0:
276,244,71645,1,0,0:0:0:0:
276,244,71711,1,0,0:0:0:0:
276,244,71776,2,0,P|277:279|292:312,1,71.875,2|0,0:0|0:0,0:0:0:0:
445,165,71974,2,0,P|413:148|377:145,1,71.875,8|0,0:0|0:0,0:0:0:0:
401,362,72171,6,0,P|466:337|491:272,1,143.75,2|0,0:0|0:0,0:0:0:0:
449,144,72467,1,8,0:0:0:0:
445,165,72566,1,2,0:0:0:0:
296,333,72763,1,8,0:0:0:0:
292,312,72862,1,0,0:0:0:0:
238,246,72961,2,0,P|169:234|115:279,1,143.75,2|8,0:0|0:0,0:0:0:0:
321,231,73257,1,0,0:0:0:0:
338,218,73355,5,10,0:3:0:0:
376,140,73454,1,8,0:3:0:0:
314,80,73552,1,8,0:3:0:0:
238,121,73651,1,8,0:3:0:0:
253,205,73750,6,0,B|268:276|268:276|230:351,1,143.75,6|0,0:0|0:0,0:0:0:0:
77,316,74046,1,8,0:0:0:0:
57,231,74145,2,0,P|111:276|180:264,1,143.75,2|8,0:0|0:0,0:0:0:0:
338,218,74441,1,0,0:0:0:0:
350,133,74540,2,0,L|361:62,1,71.875,2|0,0:0|0:0,0:0:0:0:
187,35,74737,1,8,0:0:0:0:
207,30,74836,1,0,0:0:0:0:
264,94,74934,2,0,P|274:126|270:165,1,71.875,2|0,0:0|0:0,0:0:0:0:
119,249,75132,1,8,0:0:0:0:
133,263,75231,1,0,0:0:0:0:
215,236,75329,6,0,P|241:211|256:179,1,71.875,2|0,0:0|0:0,0:0:0:0:
74,133,75526,2,0,L|150:143,1,71.875,0|8,0:0|0:0,0:0:0:0:
409,208,75724,2,0,L|333:218,1,71.875,2|0,0:0|0:0,0:0:0:0:
123,334,75921,2,0,L|133:258,1,71.875,8|0,0:0|0:0,0:0:0:0:
314,27,76118,2,0,L|324:103,1,71.875,2|0,0:0|0:0,0:0:0:0:
359,335,76316,1,8,0:0:0:0:
359,335,76382,1,0,0:0:0:0:
359,335,76448,1,0,0:0:0:0:
359,335,76513,2,0,P|315:338|267:315,1,71.875,2|0,0:0|0:0,0:0:0:0:
62,268,76711,2,0,P|106:271|154:248,1,71.875,8|0,0:0|0:0,0:0:0:0:
192,70,76908,6,0,P|137:77|186:102,1,143.75,6|0,0:0|0:0,0:0:0:0:
255,206,77204,1,8,0:0:0:0:
333,174,77303,2,0,P|387:181|338:206,1,143.75,2|8,0:0|0:0,0:0:0:0:
265,290,77599,1,0,0:0:0:0:
187,258,77697,2,0,P|173:226|177:169,1,71.875,2|0,0:0|0:0,0:0:0:0:
296,46,77895,1,8,0:0:0:0:
276,50,77993,1,0,0:0:0:0:
192,70,78092,2,0,L|114:60,1,71.875,2|0,0:0|0:0,0:0:0:0:
255,206,78290,1,8,0:0:0:0:
275,210,78388,1,0,0:0:0:0:
359,230,78487,6,0,B|432:221|432:221|481:152,1,143.75,2|0,0:0|0:0,0:0:0:0:
383,36,78783,1,8,0:0:0:0:
316,89,78882,2,0,P|311:159|360:210,1,143.75,2|8,0:0|0:0,0:0:0:0:
337,384,79178,1,0,0:0:0:0:
403,330,79277,2,0,P|407:260|359:209,1,143.75,2|8,0:0|0:0,0:0:0:0:
131,210,79572,1,0,0:0:0:0:
141,295,79671,2,0,L|147:349,3,47.9166666666667,2|0|0|8,0:0|0:0|0:0|0:0,0:0:0:0:
271,210,79967,1,0,0:0:0:0:
281,124,80066,6,0,B|292:53|292:53|271:20|229:16,1,143.75,2|0,0:0|0:0,0:0:0:0:
202,160,80362,1,8,0:0:0:0:
271,210,80461,2,0,P|343:183|365:116,1,143.75,2|8,0:0|0:0,0:0:0:0:
504,69,80757,1,0,0:0:0:0:
436,123,80855,2,0,P|400:129|365:124,1,71.875,2|0,0:0|0:0,0:0:0:0:
153,70,81053,1,8,0:0:0:0:
150,50,81151,1,0,0:0:0:0:
221,3,81250,5,8,0:3:0:0:
211,88,81349,1,8,0:3:0:0:
201,173,81447,1,8,0:3:0:0:
191,258,81546,1,8,0:3:0:0:
259,309,81645,6,0,P|272:233|218:175,1,143.75,6|0,0:0|0:0,0:0:0:0:
43,154,81941,1,8,0:0:0:0:
56,238,82040,2,0,B|120:270|120:270|190:257,1,143.75,2|8,0:0|0:0,0:0:0:0:
381,79,82336,1,0,0:0:0:0:
368,163,82435,2,0,B|354:238,1,71.875,2|0,0:0|0:0,0:0:0:0:
229,137,82632,1,8,0:0:0:0:
225,116,82730,1,0,0:0:0:0:
239,31,82829,2,0,P|267:9|317:3,1,71.875,2|0,0:0|0:0,0:0:0:0:
494,90,83026,1,8,0:0:0:0:
488,110,83124,1,0,0:0:0:0:
435,177,83223,6,0,P|399:177|355:151,1,71.875,2|0,0:0|0:0,0:0:0:0:
159,61,83421,2,0,L|73:49,1,71.875,0|8,0:0|0:0,0:0:0:0:
305,87,83618,2,0,L|391:75,1,71.875,2|0,0:0|0:0,0:0:0:0:
136,162,83816,2,0,P|120:194|121:229,1,71.875,8|0,0:0|0:0,0:0:0:0:
280,263,84013,2,0,P|259:233|228:216,1,71.875,2|0,0:0|0:0,0:0:0:0:
149,362,84211,1,8,0:0:0:0:
149,362,84276,1,0,0:0:0:0:
149,362,84342,1,0,0:0:0:0:
149,362,84408,2,0,P|194:329|139:330,1,143.75,2|8,0:0|0:0,0:0:0:0:
39,307,84704,1,0,0:0:0:0:
59,303,84803,5,6,0:0:0:0:
280,263,85000,1,0,0:0:0:0:
260,259,85099,1,8,0:0:0:0:
192,208,85197,2,0,L|182:130,1,71.875,2|0,0:0|0:0,0:0:0:0:
362,60,85395,1,8,0:0:0:0:
358,80,85494,1,0,0:0:0:0:
309,150,85592,2,0,P|242:171|181:136,1,143.75,2|8,0:0|0:0,0:0:0:0:
252,86,85855,1,0,0:0:0:0:
252,86,85921,1,0,0:0:0:0:
252,86,85987,2,0,L|263:5,1,71.875,2|0,0:0|0:0,0:0:0:0:
394,158,86184,2,0,L|458:208,1,71.875,8|0,0:0|0:0,0:0:0:0:
260,244,86382,6,0,B|192:273|192:273|99:257,1,143.75,2|0,0:0|0:0,0:0:0:0:
52,336,86678,1,8,0:0:0:0:
68,330,86776,1,2,0:0:0:0:
346,300,86974,1,8,0:0:0:0:
329,297,87072,1,0,0:0:0:0:
260,244,87171,2,0,P|257:191|328:128,1,143.75,2|8,0:0|0:0,0:0:0:0:
229,7,87467,1,0,0:0:0:0:
226,24,87566,5,8,0:3:0:0:
155,73,87665,1,8,0:3:0:0:
73,53,87763,1,8,0:3:0:0:
150,89,87862,1,8,0:3:0:0:
174,171,87961,6,0,P|177:224|106:287,1,143.75,6|0,0:0|0:0,0:0:0:0:
81,140,88257,1,8,0:0:0:0:
158,176,88355,2,0,B|224:203|224:203|313:187,1,143.75,2|8,0:0|0:0,0:0:0:0:
394,22,88651,1,0,0:0:0:0:
314,48,88750,2,0,L|294:203,1,143.75,2|8,0:0|0:0,0:0:0:0:
456,333,89046,1,0,0:0:0:0:
440,247,89145,6,0,P|425:217|387:186,1,71.875,2|0,0:0|0:0,0:0:0:0:
170,285,89342,2,0,P|202:287|248:269,1,71.875,8|0,0:0|0:0,0:0:0:0:
272,32,89540,2,0,P|253:58|245:107,1,71.875,6|0,0:0|0:0,0:0:0:0:
315,344,89737,6,0,P|333:317|341:268,1,71.875,4|8,0:0|0:0,0:0:0:0:
418,91,89934,2,0,P|385:88|339:106,1,71.875,6|0,0:0|0:0,0:0:0:0:
148,128,90132,2,0,P|162:157|200:188,1,71.875,12|0,0:0|0:0,0:0:0:0:
440,247,90329,6,0,P|474:245|429:218,1,143.75,6|8,0:0|0:0,0:0:0:0:
170,285,90724,1,10,0:3:0:0:
170,285,90790,1,2,0:3:0:0:
170,285,90855,1,2,0:3:0:0:
170,285,90921,1,10,0:3:0:0:
170,285,90987,1,2,0:3:0:0:
170,285,91053,1,2,0:3:0:0:
170,285,91118,6,0,P|232:218|222:157,1,143.75,6|0,0:0|0:0,0:0:0:0:
319,32,91415,1,8,0:0:0:0:
296,116,91514,2,0,P|206:136|159:97,1,143.75,2|8,0:0|0:0,0:0:0:0:
22,200,91810,1,0,0:0:0:0:
41,117,91908,2,0,P|103:85|169:110,1,143.75,2|8,0:0|0:0,0:0:0:0:
230,348,92204,1,0,0:0:0:0:
146,369,92303,2,0,P|84:302|94:241,1,143.75,2|8,0:0|0:0,0:0:0:0:
334,238,92599,1,0,0:0:0:0:
312,321,92697,6,0,B|302:250|302:250|258:189,1,143.75,2|0,0:0|0:0,0:0:0:0:
341,66,92993,1,8,0:0:0:0:
425,44,93092,2,0,B|367:86|367:86|333:160,1,143.75,2|8,0:0|0:0,0:0:0:0:
189,145,93389,1,0,0:0:0:0:
128,84,93487,2,0,B|194:111|194:111|268:103,1,143.75,2|8,0:0|0:0,0:0:0:0:
437,143,93783,1,0,0:0:0:0:
473,222,93882,2,0,P|477:263|464:307,1,71.875,2|0,0:0|0:0,0:0:0:0:
252,383,94079,1,8,0:0:0:0:
272,378,94178,1,0,0:0:0:0:
318,305,94276,6,0,P|313:235|259:191,1,143.75,2|0,0:0|0:0,0:0:0:0:
54,221,94572,1,8,0:0:0:0:
98,294,94671,2,0,B|170:302|170:302|237:275,1,143.75,2|8,0:0|0:0,0:0:0:0:
282,108,94967,1,0,0:0:0:0:
288,91,95066,5,8,0:3:0:0:
249,15,95165,1,8,0:3:0:0:
163,30,95263,1,8,0:3:0:0:
151,115,95362,1,8,0:3:0:0:
229,153,95461,5,8,0:0:0:0:
235,239,95559,1,0,0:0:0:0:
163,287,95658,1,8,0:3:0:0:
85,248,95757,1,8,0:3:0:0:
79,160,95855,6,0,P|120:169|159:202,1,86.2500032901765,6|0,0:0|0:0,0:0:0:0:
246,149,96151,1,2,0:3:0:0:
229,153,96250,1,2,0:0:0:0:
75,331,96447,1,8,0:0:0:0:
92,335,96546,1,0,0:0:0:0:
169,374,96645,2,0,P|208:359|242:321,1,86.2500032901765,8|0,0:3|0:0,0:0:0:0:
278,235,96941,1,2,0:3:0:0:
282,252,97040,1,2,0:0:0:0:
416,361,97237,1,8,0:0:0:0:
420,344,97336,1,0,0:0:0:0:
472,275,97434,6,0,L|459:180,1,86.2500032901765,8|0,0:3|0:0,0:0:0:0:
485,88,97730,1,2,0:3:0:0:
481,105,97829,1,2,0:0:0:0:
298,235,98026,1,8,0:0:0:0:
315,231,98125,1,0,0:0:0:0:
375,167,98224,2,0,P|378:125|358:78,1,86.2500032901765,2|8,0:0|0:0,0:0:0:0:
186,44,98520,1,0,0:0:0:0:
207,127,98618,2,0,L|293:138,1,86.2500032901765,2|8,0:0|0:0,0:0:0:0:
400,249,98915,1,8,0:3:0:0:
378,332,99013,6,0,L|292:342,1,86.2500032901765,6|0,0:0|0:0,0:0:0:0:
190,347,99309,1,2,0:3:0:0:
205,336,99408,1,2,0:0:0:0:
341,171,99605,1,8,0:0:0:0:
326,182,99704,1,0,0:0:0:0:
253,231,99803,2,0,L|167:221,1,86.2500032901765,8|0,0:3|0:0,0:0:0:0:
68,255,100099,1,2,0:3:0:0:
86,252,100198,1,2,0:0:0:0:
221,87,100395,1,8,0:0:0:0:
203,84,100494,1,0,0:0:0:0:
146,20,100592,6,0,P|122:55|119:98,1,86.2500032901765,8|0,0:3|0:0,0:0:0:0:
47,167,100888,1,2,0:3:0:0:
50,149,100987,1,2,0:0:0:0:
203,84,101184,1,8,0:0:0:0:
206,102,101283,1,0,0:0:0:0:
256,173,101382,2,0,L|296:184,3,28.7500010967255,2|0|0|8,0:0|0:0|0:0|0:0,0:0:0:0:
458,200,101678,1,0,0:0:0:0:
408,129,101776,2,0,L|368:118,3,28.7500010967255,8|0|0|8,0:3|0:0|0:0|0:0,0:0:0:0:
301,267,102072,1,8,0:3:0:0:
369,215,102171,6,0,P|375:172|360:132,1,86.2500032901765,6|0,0:0|0:0,0:0:0:0:
308,51,102467,1,2,0:3:0:0:
304,69,102566,1,2,0:0:0:0:
133,200,102763,1,8,0:0:0:0:
151,196,102862,1,0,0:0:0:0:
203,127,102961,2,0,P|217:86|211:44,1,86.2500032901765,8|0,0:3|0:0,0:0:0:0:
124,5,103257,1,2,0:3:0:0:
126,23,103355,1,2,0:0:0:0:
238,207,103553,1,8,0:0:0:0:
236,225,103651,1,0,0:0:0:0:
182,293,103750,6,0,B|143:310|143:310|94:304,1,86.2500032901765,8|0,0:3|0:0,0:0:0:0:
2,342,104046,1,2,0:3:0:0:
20,338,104145,1,2,0:0:0:0:
150,213,104342,1,8,0:0:0:0:
132,209,104441,1,0,0:0:0:0:
74,146,104540,2,0,B|57:107|57:107|63:58,1,86.2500032901765,2|8,0:0|0:0,0:0:0:0:
280,25,104836,1,0,0:0:0:0:
365,13,104934,2,0,L|274:25,1,86.2500032901765,2|8,0:0|0:0,0:0:0:0:
230,105,105230,1,8,0:3:0:0:
145,93,105328,6,0,L|236:105,1,86.2500032901765,6|0,0:0|0:0,0:0:0:0:
317,152,105625,1,2,0:3:0:0:
300,156,105724,1,2,0:0:0:0:
152,323,105921,1,8,0:0:0:0:
156,306,106020,1,0,0:0:0:0:
198,226,106118,2,0,L|193:177,3,28.7500010967255,8|0|0|0,0:3|0:0|0:0|0:0,0:0:0:0:
306,249,106415,1,2,0:3:0:0:
348,329,106513,2,0,L|343:378,3,28.7500010967255,2|0|0|8,0:0|0:0|0:0|0:0,0:0:0:0:
456,306,106810,1,0,0:0:0:0:
498,226,106908,6,0,P|500:177|475:135,1,86.2500032901765,8|0,0:3|0:0,0:0:0:0:
292,167,107303,2,0,P|290:216|315:258,1,86.2500032901765,2|8,0:0|0:0,0:0:0:0:
380,88,107599,1,0,0:0:0:0:
296,70,107697,2,0,L|261:64,6,21.5625008225441,8|0|8|0|2|0|0,0:3|0:0|0:3|0:0|0:3|0:0|0:0,0:0:0:0:
202,20,108092,5,8,0:3:0:0:
265,80,108191,1,8,0:3:0:0:
244,164,108290,1,8,0:3:0:0:
160,187,108388,1,8,0:3:0:0:
98,125,108487,5,12,0:0:0:0:
98,125,108586,2,0,L|103:62,1,43.1250016450883,0|2,0:0|0:0,0:0:0:0:
244,164,108783,1,8,0:0:0:0:
244,164,108882,2,0,L|249:227,1,43.1250016450883,0|2,0:0|0:0,0:0:0:0:
34,216,109079,2,0,P|55:210|77:211,1,43.1250016450883,8|0,0:0|0:0,0:0:0:0:
258,293,109276,2,0,L|265:366,2,57.500002193451,8|0|2,0:0|0:0|0:3,0:0:0:0:
370,246,109671,5,8,0:0:0:0:
370,246,109770,2,0,P|348:246|328:241,1,43.1250016450883,0|2,0:0|0:0,0:0:0:0:
177,259,109967,1,8,0:0:0:0:
177,259,110066,2,0,P|187:240|202:225,1,43.1250016450883,0|2,0:0|0:0,0:0:0:0:
262,85,110263,2,0,P|273:103|278:124,1,43.1250016450883,8|0,0:0|0:0,0:0:0:0:
428,311,110461,2,0,P|388:332|344:329,1,86.2500032901765,8|8,0:0|0:3,0:0:0:0:
477,193,110855,6,0,L|465:106,1,86.2500032901765,6|0,0:0|0:0,0:0:0:0:
305,157,111151,1,0,0:0:0:0:
305,157,111250,2,0,L|362:168,2,43.1250016450883,8|8|8,0:3|0:3|0:3,0:0:0:0:
404,33,111546,1,8,0:3:0:0:
404,33,111645,6,0,P|388:46|375:65,1,43.1250016450883,8|0,0:0|0:0,0:0:0:0:
181,94,111842,1,2,0:0:0:0:
181,94,111941,2,0,P|197:107|210:126,1,43.1250016450883,8|0,0:0|0:0,0:0:0:0:
350,257,112138,1,2,0:0:0:0:
350,257,112237,2,0,P|342:276|340:299,1,43.1250016450883,8|0,0:0|0:0,0:0:0:0:
189,337,112434,2,0,L|159:334,2,21.5625008225441,8|0|0,0:0|0:0|0:0,0:0:0:0:
100,263,112632,1,0,0:0:0:0:
98,257,112697,1,2,0:3:0:0:
96,251,112763,1,2,0:3:0:0:
94,245,112829,6,0,L|150:237,1,43.1250016450883,8|0,0:0|0:0,0:0:0:0:
414,174,113026,1,2,0:0:0:0:
414,174,113125,2,0,L|358:166,1,43.1250016450883,8|0,0:0|0:0,0:0:0:0:
152,58,113322,1,2,0:0:0:0:
152,58,113421,2,0,L|155:88,2,21.5625008225441,8|0|0,0:0|0:0|0:0,0:0:0:0:
207,311,113618,2,0,B|244:264|228:199|228:199|213:137|226:110|244:91|244:91|265:72|290:66|318:84|313:122|285:131|275:117,1,345.000013160706,12|0,0:0|0:0,0:0:0:0:
