osu file format v14

[General]
AudioFilename: audio.mp3
AudioLeadIn: 0
PreviewTime: 66546
Countdown: 0
SampleSet: None
StackLeniency: 0.2
Mode: 0
LetterboxInBreaks: 0
WidescreenStoryboard: 1

[Editor]
Bookmarks: 2697,16908,29540,42171,54803,67434,81645,83816,95855,108487,114408
DistanceSpacing: 1.2
BeatDivisor: 4
GridSize: 32
TimelineZoom: 2.6

[Metadata]
Title:Nekozamurai no Gyakushu
TitleUnicode:猫侍の逆襲
Artist:Nekomata Master
ArtistUnicode:猫叉Master
Creator:moph
Version:Advanced
Source:GITADORA
Tags:naoyuki sato follow slowly neko samurai jubeat saucer pop'n music kwk alheak
BeatmapID:1484279
BeatmapSetID:518743

[Difficulty]
HPDrainRate:4
CircleSize:3.4
OverallDifficulty:5
ApproachRate:6
SliderMultiplier:1.5
SliderTickRate:1

[Events]
//Background and Video events
0,0,"bg.jpg",0,0
//Break Periods
//Storyboard Layer 0 (Background)
//Storyboard Layer 1 (Fail)
//Storyboard Layer 2 (Pass)
//Storyboard Layer 3 (Foreground)
//Storyboard Sound Samples

[TimingPoints]
1119,394.736842105263,4,1,1,50,1,0
2697,-100,4,1,1,60,0,0
16908,-100,4,1,1,70,0,0
67434,-100,4,1,1,80,0,1
81250,-100,4,1,1,80,0,0
81645,-100,4,1,1,80,0,1
95855,-100,4,1,1,70,0,0
113717,-100,4,1,1,20,0,0
114408,-100,4,1,1,5,0,0

[Colours]
Combo1 : 169,117,189
Combo2 : 184,80,80
Combo3 : 83,114,187
Combo4 : 218,131,78

[HitObjects]
41,196,1119,5,8,0:3:0:0:
82,275,1316,2,0,P|150:297|227:267,1,150,8|8,0:0|0:0,0:0:0:0:
267,194,1908,2,0,P|302:232|300:308,1,112.5,0|0,3:0|0:0,0:0:0:0:
292,332,2303,2,0,L|384:331,1,75,8|4,0:3|0:3,0:0:0:0:
444,286,2697,6,0,B|440:225|440:225|449:205|449:205|443:108,1,150,4|0,0:0|0:0,0:0:0:0:
434,48,3290,1,0,0:0:0:0:
355,91,3487,2,0,B|275:98|275:98|215:46,1,150,0|0,0:0|0:0,0:0:0:0:
51,108,4276,2,0,B|131:101|131:101|191:153,1,150,0|0,0:0|0:0,0:0:0:0:
234,220,4868,1,0,0:0:0:0:
151,256,5066,2,0,L|93:209,1,75,8|0,0:3|0:0,0:0:0:0:
27,271,5461,2,0,L|85:318,1,75,2|2,0:0|0:0,0:0:0:0:
169,350,5855,6,0,B|234:310|234:310|306:360,1,150,4|0,0:0|0:0,0:0:0:0:
367,299,6447,1,0,0:0:0:0:
428,365,6645,2,0,P|452:320|406:218,1,150,0|0,0:0|0:0,0:0:0:0:
335,212,7237,1,2,0:3:0:0:
396,146,7434,2,0,L|417:63,1,75,4|8,0:0|0:0,0:0:0:0:
325,52,7829,2,0,L|304:135,1,75,4|8,0:0|0:0,0:0:0:0:
242,187,8224,1,6,0:0:0:0:
226,98,8421,1,2,0:0:0:0:
158,156,8618,2,0,L|137:239,1,75,6|0,0:0|0:0,0:0:0:0:
69,285,9013,6,0,P|35:268|-1:268,2,75,6|0|0,0:0|0:0|0:0,0:0:0:0:
113,363,9605,1,0,0:0:0:0:
185,309,9803,2,0,P|222:306|256:321,1,75,0|0,0:0|0:0,0:0:0:0:
338,355,10197,2,0,P|375:357|409:342,1,75,0|0,0:0|0:0,0:0:0:0:
359,266,10592,2,0,B|332:195|332:195|361:113,1,150,2|0,0:3|0:0,0:0:0:0:
443,148,11184,1,0,0:0:0:0:
427,58,11382,2,0,P|389:34|343:31,1,75,2|0,0:3|0:0,0:0:0:0:
270,33,11776,2,0,P|233:40|202:61,1,75,2|0,0:3|0:0,0:0:0:0:
156,138,12171,6,0,B|96:129|96:129|65:142|65:142|-3:128,1,150,6|2,0:0|0:0,0:0:0:0:
37,309,12961,2,0,L|115:319,1,75,2|0,0:0|0:0,0:0:0:0:
112,228,13355,2,0,L|190:238,1,75,2|2,0:0|0:0,0:0:0:0:
276,240,13750,2,0,B|246:315|246:315|277:385,2,150,2|2|2,0:0|0:0|0:0,0:0:0:0:
353,194,14737,1,0,0:0:0:0:
404,267,14934,2,0,P|439:274|484:266,1,75,2|0,0:0|0:0,0:0:0:0:
443,186,15329,6,0,B|471:122|471:122|441:47,1,150,6|2,0:0|0:0,0:0:0:0:
350,42,15921,1,0,0:0:0:0:
288,107,16118,2,0,L|200:107,2,75,12|8|8,0:0|0:3|0:0,0:0:0:0:
349,173,16711,1,8,0:0:0:0:
271,217,16908,6,0,B|213:232|213:232|142:204,1,112.5,4|2,0:0|0:3,0:0:0:0:
130,192,17303,2,0,L|51:212,1,75,2|8,0:0|0:0,0:0:0:0:
63,300,17697,2,0,B|121:285|121:285|191:312,1,112.5,8|2,0:3|0:3,0:0:0:0:
204,325,18092,2,0,L|283:305,1,75,2|8,0:0|0:0,0:0:0:0:
352,355,18487,2,0,P|365:301|334:235,1,112.5,8|2,0:3|0:3,0:0:0:0:
328,207,18882,2,0,L|420:236,1,75,2|8,0:0|0:0,0:0:0:0:
472,176,19276,2,0,P|478:140|456:84,1,75,2|8,0:0|0:0,0:0:0:0:
402,41,19671,2,0,L|310:70,1,75,2|8,0:0|0:3,0:0:0:0:
249,103,20066,6,0,P|189:103|136:66,1,121.875,6|0,0:0|0:0,0:0:0:0:
127,37,20461,2,0,L|47:63,1,75,2|8,0:0|0:0,0:0:0:0:
25,144,20855,2,0,B|46:202|46:202|27:282,1,112.5,8|2,0:3|0:3,0:0:0:0:
22,295,21250,2,0,L|102:269,1,75,2|8,0:0|0:0,0:0:0:0:
177,303,21645,2,0,P|237:303|290:340,1,121.875,8|0,0:3|0:0,0:0:0:0:
299,369,22040,2,0,L|379:343,1,75,2|8,0:0|0:0,0:0:0:0:
453,380,22434,2,0,P|461:333|447:301,1,75,2|8,0:0|0:0,0:0:0:0:
374,261,22829,2,0,P|366:214|380:182,1,75,2|8,0:0|0:0,0:0:0:0:
423,113,23224,6,0,P|367:98|308:123,1,112.5,6|2,0:0|0:3,0:0:0:0:
289,148,23618,2,0,L|257:75,1,75,2|8,0:0|0:0,0:0:0:0:
179,121,24013,2,0,P|123:136|64:111,1,112.5,8|2,0:3|0:3,0:0:0:0:
44,86,24407,2,0,L|12:159,1,75,2|8,0:0|0:0,0:0:0:0:
77,218,24803,2,0,B|95:271|95:271|71:345,1,112.5,8|2,0:3|0:3,0:0:0:0:
74,369,25197,2,0,L|181:352,1,75,2|8,0:0|0:0,0:0:0:0:
238,356,25592,2,0,L|312:367,2,75,2|8|2,0:0|0:0|0:0,0:0:0:0:
191,278,26184,1,8,0:3:0:0:
276,249,26382,6,0,P|293:192|267:134,1,112.5,4|2,0:0|0:3,0:0:0:0:
242,115,26776,2,0,L|161:136,1,75,2|8,0:0|0:0,0:0:0:0:
95,185,27171,2,0,P|78:128|104:70,1,112.5,8|2,0:3|0:3,0:0:0:0:
132,54,27566,2,0,L|212:32,1,75,2|8,0:0|0:0,0:0:0:0:
294,46,27961,2,0,B|346:60|346:60|422:40,1,112.5,4|2,0:0|0:3,0:0:0:0:
445,33,28355,2,0,L|438:120,1,75,2|8,0:0|0:0,0:0:0:0:
371,166,28750,1,2,0:3:0:0:
455,197,28947,1,8,0:3:0:0:
384,253,29145,2,0,L|377:340,1,75,8|8,0:3|0:0,0:0:0:0:
299,373,29540,6,0,P|241:374|177:327,1,112.5,6|8,0:0|0:0,0:0:0:0:
171,309,29934,2,0,L|92:351,1,75,2|8,0:0|0:0,0:0:0:0:
30,292,30329,2,0,P|23:245|40:202,1,75,2|8,0:0|0:0,0:0:0:0:
114,186,30724,2,0,P|121:139|104:96,1,75,2|8,0:0|0:0,0:0:0:0:
64,37,31118,2,0,P|116:25|188:62,1,112.5,2|8,0:0|0:0,0:0:0:0:
202,76,31513,2,0,L|306:54,1,75,2|8,0:0|0:0,0:0:0:0:
365,61,31908,2,0,L|438:76,2,75,2|8|2,0:0|0:0|0:0,0:0:0:0:
321,140,32500,1,8,0:0:0:0:
408,163,32697,6,0,B|440:227|440:227|401:309,1,150,6|2,0:0|0:0,0:0:0:0:
324,336,33290,1,8,0:0:0:0:
250,285,33487,2,0,P|184:293|140:337,1,112.5,2|0,0:0|0:0,0:0:0:0:
117,353,33882,2,0,L|22:340,1,75,2|8,0:0|0:0,0:0:0:0:
3,261,34276,1,2,0:0:0:0:
67,198,34474,2,0,L|162:211,2,75,0|2|8,0:0|0:0|0:0,0:0:0:0:
16,123,35066,1,2,0:0:0:0:
83,63,35263,1,8,0:0:0:0:
162,106,35461,2,0,L|257:119,1,75,2|8,0:0|0:0,0:0:0:0:
315,73,35855,6,0,P|369:57|442:92,1,112.5,6|8,0:0|0:0,0:0:0:0:
450,104,36250,2,0,L|423:182,1,75,2|8,0:0|0:0,0:0:0:0:
365,242,36645,2,0,B|400:249|400:249|435:266,1,75,2|8,0:0|0:0,0:0:0:0:
407,351,37040,2,0,B|372:344|372:344|337:327,1,75,2|8,0:0|0:0,0:0:0:0:
274,261,37434,2,0,P|212:260|150:301,1,112.5,2|8,0:0|0:0,0:0:0:0:
155,325,37829,2,0,L|73:343,1,75,2|8,0:0|0:0,0:0:0:0:
4,294,38224,1,2,0:0:0:0:
81,247,38421,1,8,0:0:0:0:
7,196,38618,2,0,P|-2:159|10:111,1,75,2|8,0:0|0:0,0:0:0:0:
67,58,39013,6,0,L|-6:24,2,75,2|0|2,0:0|0:0|0:0,0:0:0:0:
143,105,39605,1,8,0:0:0:0:
166,192,39803,2,0,P|216:157|232:96,1,112.5,2|0,0:0|0:0,0:0:0:0:
225,65,40197,2,0,L|304:88,1,75,2|8,0:0|0:0,0:0:0:0:
387,85,40592,2,0,L|459:64,2,75,2|8|2,0:0|0:0|0:0,0:0:0:0:
341,163,41184,1,8,0:0:0:0:
419,211,41382,2,0,P|444:280|417:361,1,150,8|8,0:3|0:3,0:0:0:0:
254,277,42171,6,0,L|127:276,2,112.5,6|8|2,0:0|0:0|0:0,0:0:0:0:
296,356,42961,1,8,0:0:0:0:
399,208,43355,2,0,L|526:209,2,112.5,2|8|2,0:0|0:0|0:0,0:0:0:0:
357,129,44145,1,8,0:0:0:0:
210,35,44540,2,0,P|178:99|190:181,1,150,8|2,0:0|0:0,0:0:0:0:
232,252,45132,1,10,0:0:0:0:
142,250,45329,6,0,L|27:245,2,112.5,2|0|2,0:3|0:0|0:3,0:0:0:0:
185,328,46118,1,10,0:0:0:0:
354,267,46513,2,0,L|469:272,2,112.5,2|8|2,0:0|0:0|0:0,0:0:0:0:
311,189,47302,1,8,0:0:0:0:
392,28,47697,2,0,P|417:94|384:176,1,150,2|2,0:3|0:3,0:0:0:0:
226,96,48487,6,0,L|101:88,2,112.5,2|8|8,0:0|0:0|0:0,0:0:0:0:
284,28,49276,1,2,0:0:0:0:
372,184,49671,2,0,L|497:192,2,112.5,6|2|2,0:0|0:0|0:0,0:0:0:0:
314,252,50460,1,8,0:0:0:0:
153,333,50855,2,0,B|125:264|125:264|162:177,1,150,8|8,0:0|0:0,0:0:0:0:
25,59,51645,6,0,P|7:119|38:185,2,112.5,2|0|2,0:0|0:0|0:0,0:0:0:0:
96,113,52434,1,8,0:0:0:0:
276,119,52829,2,0,P|294:59|263:-7,2,112.5,2|0|2,0:0|0:0|0:0,0:0:0:0:
205,65,53618,1,8,0:3:0:0:
190,154,53816,1,8,0:3:0:0:
264,204,54013,2,0,P|304:202|353:171,1,75,0|0,0:0|0:0,0:0:0:0:
401,125,54408,2,0,P|438:126|472:141,1,75,8|2,0:3|0:0,0:0:0:0:
420,215,54803,6,0,B|393:284|393:284|423:366,1,150,12|12,0:3|0:3,0:0:0:0:
328,356,55395,2,0,P|289:363|240:351,1,75,10|6,0:3|0:3,0:0:0:0:
75,334,55987,2,0,P|153:337|202:288,1,150,12|12,0:3|0:3,0:0:0:0:
185,200,56579,2,0,L|98:200,1,75,10|6,0:3|0:3,0:0:0:0:
38,145,56974,1,8,0:0:0:0:
82,67,57171,2,0,B|149:33|149:33|226:74,1,150,12|10,0:3|0:3,0:0:0:0:
258,147,57763,1,10,0:3:0:0:
332,96,57961,6,0,P|324:55|337:13,2,75,10|2|10,0:3|0:0|0:3,0:0:0:0:
415,130,58553,1,2,0:0:0:0:
499,160,58750,2,0,P|518:208|502:279,1,112.5,10|0,0:3|0:0,0:0:0:0:
487,306,59145,2,0,L|391:278,1,75,10|2,0:3|0:3,0:0:0:0:
353,351,59540,2,0,L|257:323,1,75,10|2,0:3|0:0,0:0:0:0:
243,248,59934,2,0,P|250:206|234:159,2,75,2|2|4,0:0|0:0|0:0,0:0:0:0:
93,349,60724,2,0,P|86:307|102:260,1,75,8|8,0:0|0:3,0:0:0:0:
160,216,61118,5,4,0:0:0:0:
76,181,61316,2,0,B|51:109|51:109|82:40,1,150,6|8,0:0|0:0,0:0:0:0:
166,13,61908,1,6,0:0:0:0:
315,113,62303,2,0,P|377:132|437:101,1,112.5,2|2,0:0|0:0,0:0:0:0:
456,91,62697,2,0,L|476:181,1,75,6|8,0:0|0:0,0:0:0:0:
457,253,63092,2,0,P|377:231|304:262,1,150,2|0,0:0|0:0,0:0:0:0:
286,337,63684,1,0,0:0:0:0:
199,311,63882,2,0,L|111:325,1,75,8|2,0:0|0:0,0:0:0:0:
55,265,64276,6,0,P|35:316|48:370,2,112.5,6|8|2,0:0|0:0|0:0,0:0:0:0:
137,227,65066,1,8,0:0:0:0:
62,177,65263,1,8,0:3:0:0:
143,138,65461,2,0,P|162:86|149:32,2,112.5,6|8|2,0:0|0:0|0:0,0:0:0:0:
62,177,66251,1,8,0:0:0:0:
137,227,66447,1,8,0:3:0:0:
218,188,66645,6,0,B|280:185|280:185|296:200|296:200|378:194,1,150,6|6,0:0|0:0,0:0:0:0:
433,30,67434,6,0,P|413:81|448:156,1,112.5,6|8,0:0|0:0,0:0:0:0:
450,173,67829,2,0,P|461:211|448:261,1,75,2|8,0:0|0:0,0:0:0:0:
470,334,68224,2,0,L|365:332,1,75,2|8,0:0|0:0,0:0:0:0:
322,279,68618,1,2,0:0:0:0:
316,369,68816,1,8,0:0:0:0:
237,325,69013,2,0,L|132:323,1,75,2|0,0:0|0:0,0:0:0:0:
83,360,69407,1,2,0:0:0:0:
89,270,69605,1,8,0:0:0:0:
13,220,69803,2,0,B|6:182|6:182|13:146,1,75,2|8,0:0|0:0,0:0:0:0:
88,97,70197,2,0,B|124:109|124:109|151:133,1,75,2|8,0:0|0:0,0:0:0:0:
170,222,70592,5,6,0:0:0:0:
237,161,70790,2,0,P|272:155|327:170,2,75,0|2|8,0:0|0:0|0:0,0:0:0:0:
271,244,71382,2,0,B|251:298|251:298|273:355,1,112.5,2|0,0:0|0:0,0:0:0:0:
310,369,71776,2,0,L|410:353,1,75,2|8,0:0|0:0,0:0:0:0:
473,367,72171,2,0,B|476:306|476:306|462:284|462:284|467:195,1,150,2|2,0:0|0:0,0:0:0:0:
396,163,72763,1,8,0:0:0:0:
450,90,72961,2,0,P|415:76|358:83,1,75,2|8,0:0|0:0,0:0:0:0:
311,136,73355,2,0,P|273:136|239:122,1,75,10|8,0:3|0:3,0:0:0:0:
172,61,73750,6,0,B|116:75|116:75|52:55,1,112.5,6|8,0:0|0:0,0:0:0:0:
22,40,74145,2,0,L|32:127,1,75,2|8,0:0|0:0,0:0:0:0:
75,192,74540,2,0,P|41:203|-3:194,2,75,2|8|2,0:0|0:0|0:0,0:0:0:0:
161,165,75132,1,8,0:0:0:0:
142,252,75329,2,0,L|121:335,1,75,2|0,0:0|0:0,0:0:0:0:
204,364,75724,2,0,L|225:281,1,75,2|8,0:0|0:0,0:0:0:0:
247,205,76118,1,2,0:0:0:0:
312,267,76316,1,8,0:0:0:0:
373,332,76513,2,0,L|475:332,1,75,2|8,0:0|0:0,0:0:0:0:
473,245,76908,6,0,B|471:186|471:186|487:163|487:163|487:84,1,150,6|2,0:0|0:0,0:0:0:0:
307,118,77697,2,0,P|347:130|393:124,2,75,2|8|2,0:0|0:0|0:0,0:0:0:0:
268,35,78290,1,8,0:0:0:0:
195,88,78487,2,0,P|113:83|68:20,2,150,2|2|2,0:0|0:0|0:0,0:0:0:0:
65,213,79671,2,0,P|55:254|75:307,1,75,2|8,0:0|0:0,0:0:0:0:
89,371,80066,2,0,L|267:348,1,150,2|2,0:0|0:0,0:0:0:0:
295,282,80658,1,8,0:0:0:0:
364,338,80855,2,0,L|438:326,1,75,2|8,0:0|0:0,0:0:0:0:
450,236,81250,2,0,L|375:247,1,75,8|8,0:3|0:3,0:0:0:0:
297,196,81645,6,0,B|279:144|279:144|306:73,1,112.5,6|8,0:0|0:0,0:0:0:0:
317,45,82040,2,0,L|242:56,1,75,2|8,0:0|0:0,0:0:0:0:
185,125,82434,2,0,L|110:114,1,75,2|8,0:0|0:0,0:0:0:0:
48,48,82829,1,2,0:0:0:0:
27,135,83027,1,8,0:0:0:0:
8,222,83224,2,0,L|83:233,1,75,2|0,0:0|0:0,0:0:0:0:
166,212,83619,1,2,0:0:0:0:
145,299,83817,1,8,0:0:0:0:
234,304,84013,2,0,B|266:328|266:328|288:368,1,75,2|8,0:0|0:0,0:0:0:0:
372,364,84408,2,0,B|388:333|388:333|420:309,1,75,2|8,0:0|0:0,0:0:0:0:
508,289,84803,5,6,0:0:0:0:
443,225,85001,2,0,P|437:187|452:137,2,75,0|0|8,0:0|0:0|0:0,0:0:0:0:
354,243,85593,2,0,P|342:186|365:114,1,112.5,2|0,0:0|0:0,0:0:0:0:
369,92,85987,2,0,L|294:80,1,75,2|8,0:0|0:0,0:0:0:0:
233,146,86382,2,0,P|175:156|89:103,1,150,2|2,0:0|0:0,0:0:0:0:
84,25,86974,1,8,0:0:0:0:
10,76,87171,2,0,P|4:113|14:162,1,75,2|8,0:0|0:0,0:0:0:0:
76,210,87566,2,0,P|82:247|72:296,1,75,8|8,0:3|0:3,0:0:0:0:
14,349,87961,6,0,P|64:371|142:348,1,112.5,6|8,0:0|0:0,0:0:0:0:
150,329,88355,2,0,L|234:346,1,75,2|8,0:0|0:0,0:0:0:0:
283,275,88750,2,0,P|333:253|411:276,1,112.5,2|0,0:0|0:0,0:0:0:0:
419,293,89144,2,0,L|503:310,1,75,2|8,0:0|0:0,0:0:0:0:
498,217,89540,5,6,0:0:0:0:
430,157,89737,1,4,0:0:0:0:
496,96,89934,1,6,0:0:0:0:
428,36,90131,1,12,0:0:0:0:
361,97,90329,2,0,P|285:116|191:83,1,150,6|10,0:0|0:3,0:0:0:0:
148,41,90921,1,10,0:3:0:0:
63,72,91118,6,0,B|37:143|37:143|70:236,1,150,6|2,0:0|0:0,0:0:0:0:
146,246,91711,1,8,0:0:0:0:
180,329,91908,2,0,P|142:337|96:322,2,75,2|8|2,0:0|0:0|0:0,0:0:0:0:
238,259,92501,1,8,0:0:0:0:
288,331,92697,2,0,P|354:363|446:336,2,150,2|2|2,0:0|0:0|0:0,0:0:0:0:
371,171,93882,2,0,L|365:268,1,75,2|8,0:0|0:0,0:0:0:0:
456,255,94277,6,0,L|467:84,1,150,2|2,0:0|0:0,0:0:0:0:
393,50,94869,1,8,0:0:0:0:
314,93,95066,2,0,P|276:103|233:95,1,75,8|8,0:3|0:3,0:0:0:0:
173,38,95461,2,0,P|136:33|100:43,1,75,8|8,0:0|0:3,0:0:0:0:
27,95,95855,6,0,B|43:149|43:149|21:226,1,112.5,6|2,0:0|0:3,0:0:0:0:
15,246,96250,2,0,L|42:320,1,75,2|8,0:0|0:0,0:0:0:0:
126,289,96645,2,0,P|178:293|226:353,1,112.5,8|2,0:3|0:3,0:0:0:0:
236,375,97040,2,0,L|339:345,1,75,2|8,0:0|0:0,0:0:0:0:
397,353,97434,2,0,B|381:299|381:299|403:222,1,112.5,8|2,0:3|0:3,0:0:0:0:
414,203,97829,2,0,L|492:211,1,75,2|8,0:0|0:0,0:0:0:0:
495,120,98224,2,0,B|503:83|503:83|488:32,2,75,2|8|2,0:0|0:0|0:0,0:0:0:0:
409,90,98816,1,8,0:0:0:0:
338,34,99013,6,0,P|272:39|225:71,1,112.5,6|2,0:0|0:3,0:0:0:0:
220,105,99408,2,0,L|139:92,1,75,2|8,0:0|0:0,0:0:0:0:
77,34,99802,2,0,B|56:88|56:88|73:141,1,112.5,8|2,0:3|0:3,0:0:0:0:
84,183,100197,2,0,L|6:218,1,75,2|8,0:0|0:0,0:0:0:0:
29,302,100592,2,0,L|139:254,1,112.5,8|2,0:3|0:3,0:0:0:0:
174,240,100987,2,0,P|164:281|193:334,1,75,2|8,0:0|0:0,0:0:0:0:
241,370,101382,2,0,L|303:313,1,75,2|8,0:0|0:0,0:0:0:0:
386,320,101776,2,0,L|441:370,1,75,8|8,0:3|0:0,0:0:0:0:
510,312,102171,6,0,P|527:258|492:184,1,112.5,6|2,0:0|0:3,0:0:0:0:
481,172,102565,2,0,L|516:95,1,75,2|8,0:0|0:0,0:0:0:0:
441,46,102960,2,0,L|393:153,1,112.5,8|2,0:3|0:3,0:0:0:0:
352,135,103355,2,0,B|318:125|318:125|270:138,1,75,2|8,0:0|0:0,0:0:0:0:
313,216,103750,2,0,B|331:269|331:269|307:343,1,112.5,8|2,0:3|0:3,0:0:0:0:
292,362,104145,2,0,L|196:337,1,75,2|8,0:0|0:0,0:0:0:0:
129,339,104540,2,0,L|56:357,2,75,2|8|2,0:0|0:0|0:0,0:0:0:0:
152,252,105131,1,8,0:0:0:0:
62,242,105329,6,0,B|45:186|45:186|63:130,1,112.5,6|2,0:0|0:3,0:0:0:0:
76,92,105723,2,0,L|175:121,1,75,2|8,0:0|0:0,0:0:0:0:
231,78,106118,2,0,P|288:61|346:87,1,112.5,8|2,0:3|0:3,0:0:0:0:
363,114,106513,2,0,L|453:82,1,75,2|8,0:0|0:0,0:0:0:0:
489,160,106908,2,0,B|508:211|508:211|483:288,1,112.5,8|2,0:3|0:3,0:0:0:0:
474,308,107303,2,0,L|384:276,1,75,2|8,0:0|0:0,0:0:0:0:
324,240,107697,1,8,0:3:0:0:
325,329,107894,1,2,0:3:0:0:
244,288,108092,2,0,L|173:313,1,75,8|8,0:3|0:3,0:0:0:0:
103,255,108487,6,0,P|84:310|110:380,2,112.5,12|8|8,0:0|0:0|0:0,0:0:0:0:
19,222,109276,1,8,0:0:0:0:
162,113,109671,2,0,P|181:58|155:-12,2,112.5,8|8|8,0:0|0:0|0:0,0:0:0:0:
246,146,110460,1,8,0:0:0:0:
174,200,110658,1,8,0:3:0:0:
255,238,110855,2,0,B|223:306|223:306|264:400,1,150,6|8,0:0|0:3,0:0:0:0:
421,309,111645,6,0,B|359:294|359:294|307:309,2,112.5,8|8|8,0:0|0:0|0:0,0:0:0:0:
495,258,112434,1,8,0:0:0:0:
376,122,112829,2,0,B|438:137|438:137|490:122,2,112.5,8|8|8,0:0|0:0|0:0,0:0:0:0:
307,179,113618,6,0,B|272:227|169:216|142:178|201:157|126:100|28:135|91:240|138:196,1,300,12|0,0:0|0:0,0:0:0:0:
