osu file format v14

[General]
AudioFilename: audio.mp3
AudioLeadIn: 0
PreviewTime: 66546
Countdown: 0
SampleSet: Normal
StackLeniency: 0.2
Mode: 0
LetterboxInBreaks: 0
WidescreenStoryboard: 1

[Editor]
Bookmarks: 1119,2697,16908,29540,42171,54803,67434,69211,81645,83816,95855,108487,114408
DistanceSpacing: 0.5
BeatDivisor: 6
GridSize: 4
TimelineZoom: 2.6

[Metadata]
Title:Nekozamurai no Gyakushu
TitleUnicode:猫侍の逆襲
Artist:Nekomata Master
ArtistUnicode:猫叉Master
Creator:moph
Version:kwk's Extra
Source:GITADORA
Tags:naoyuki sato follow slowly neko samurai jubeat saucer pop'n music kwk alheak
BeatmapID:1434351
BeatmapSetID:518743

[Difficulty]
HPDrainRate:6
CircleSize:3
OverallDifficulty:8
ApproachRate:9.2
SliderMultiplier:2.8
SliderTickRate:2

[Events]
//Background and Video events
0,0,"bg2.jpg",0,0
//Break Periods
//Storyboard Layer 0 (Background)
//Storyboard Layer 1 (Fail)
//Storyboard Layer 2 (Pass)
//Storyboard Layer 3 (Foreground)
//Storyboard Sound Samples

[TimingPoints]
1119,394.736842105263,4,1,1,50,1,0
1119,-200,4,1,1,50,0,0
2697,-133.333333333333,4,1,1,60,0,0
8224,-100,4,1,1,60,0,0
8618,-80,4,1,1,60,0,0
9013,-133.333333333333,4,1,1,60,0,0
16908,-100,4,1,1,70,0,0
42171,-80,4,1,1,70,0,0
42763,-80,4,1,1,70,0,0
56776,-100,4,1,1,70,0,0
57171,-80,4,1,1,70,0,0
58750,-80,4,1,1,70,0,0
61118,-66.6666666666667,4,1,1,70,0,0
61316,-80,4,1,1,70,0,0
61908,-133.333333333333,4,1,1,70,0,0
62303,-66.6666666666667,4,1,1,70,0,0
63487,-80,4,1,1,70,0,0
66645,-100,4,1,1,70,0,0
67434,-80,4,1,1,80,0,1
75724,-66.6666666666667,4,1,1,80,0,1
77500,-80,4,1,1,80,0,1
81250,-80,4,1,1,80,0,0
81645,-80,4,1,1,80,0,1
89540,-66.6666666666667,4,1,1,80,0,1
89934,-57.1428571428571,4,1,1,80,0,1
90724,-80,4,1,1,80,0,1
95855,-100,4,1,1,70,0,0
108487,-80,4,1,1,70,0,0
112829,-66.6666666666667,4,1,1,70,0,0
113618,-117.647058823529,4,1,1,70,0,0
113717,-117.647058823529,4,1,1,20,0,0
114408,-117.647058823529,4,1,1,5,0,0

[Colours]
Combo1 : 170,156,130
Combo2 : 202,62,62
Combo3 : 214,180,75
Combo4 : 218,131,78

[HitObjects]
118,222,1119,6,0,L|126:174,2,35,8|0|8,0:3|0:3|0:0,0:0:0:0:
54,246,1711,2,0,P|118:226|182:270,1,140,8|0,0:0|0:0,0:0:0:0:
111,319,2204,1,0,0:0:0:0:
111,319,2303,1,8,0:3:0:0:
128,148,2500,1,4,0:3:0:0:
392,192,2697,5,4,0:0:0:0:
288,204,2895,1,0,0:0:0:0:
192,160,3092,1,0,0:0:0:0:
184,56,3290,1,0,0:0:0:0:
184,56,3487,5,0,0:0:0:0:
258,128,3685,1,0,0:0:0:0:
268,232,3882,1,0,0:0:0:0:
208,322,4080,1,0,0:0:0:0:
208,322,4276,5,0,0:0:0:0:
172,192,4474,1,0,0:0:0:0:
356,324,4671,1,0,0:0:0:0:
392,194,4869,1,0,0:0:0:0:
188,56,5066,6,0,P|204:84|284:88,1,105.000004005432,8|0,0:3|0:0,0:0:0:0:
280,88,5329,1,0,0:0:0:0:
288,80,5395,1,0,0:0:0:0:
296,72,5461,2,0,P|340:44|412:52,1,105.000004005432,2|2,0:0|0:0,0:0:0:0:
484,152,5855,5,4,0:0:0:0:
464,256,6053,1,0,0:0:0:0:
360,240,6250,1,0,0:0:0:0:
380,136,6448,1,0,0:0:0:0:
380,136,6645,5,0,0:0:0:0:
360,32,6843,1,0,0:0:0:0:
256,48,7040,1,0,0:0:0:0:
276,152,7238,1,10,0:3:0:0:
272,161,7303,1,0,0:0:0:0:
268,170,7368,1,0,0:0:0:0:
264,179,7434,6,0,P|212:163|192:99,1,105.000004005432,4|10,0:0|0:3,0:0:0:0:
153,10,7829,1,4,0:0:0:0:
137,54,7928,1,0,0:0:0:0:
94,73,8026,1,8,0:0:0:0:
48,61,8125,1,2,0:3:0:0:
122,15,8224,6,0,L|240:8,1,70,6|0,0:0|0:0,0:0:0:0:
268,96,8421,2,0,L|380:88,1,70,6|0,0:0|0:0,0:0:0:0:
498,194,8618,2,0,B|446:202|446:202|402:174|402:174|306:222|342:318,1,262.5,6|0,0:0|0:0,0:0:0:0:
412,376,9013,5,6,0:0:0:0:
337,302,9211,1,0,0:0:0:0:
232,300,9408,1,0,0:0:0:0:
144,356,9606,1,0,0:0:0:0:
144,356,9803,5,0,0:0:0:0:
244,329,10001,1,0,0:0:0:0:
303,242,10198,1,0,0:0:0:0:
294,135,10396,1,0,0:0:0:0:
294,135,10592,5,2,0:3:0:0:
421,214,10790,2,0,L|467:204,3,35.0000013351441
351,336,11185,1,0,0:0:0:0:
199,231,11382,6,0,P|142:261|124:311,1,105.000004005432,2|0,0:3|0:0,0:0:0:0:
132,325,11678,1,0,0:0:0:0:
138,350,11776,2,0,L|261:376,1,105.000004005432,2|0,0:3|0:0,0:0:0:0:
452,284,12072,1,0,0:0:0:0:
452,285,12171,6,0,P|396:297|320:257,1,105.000004005432,6|0,0:0|0:0,0:0:0:0:
220,68,12566,2,0,P|258:110|261:196,1,105.000004005432,2|0,0:0|0:0,0:0:0:0:
296,360,12961,1,2,0:0:0:0:
340,197,13158,1,0,0:0:0:0:
178,151,13355,1,2,0:0:0:0:
133,313,13553,1,2,0:0:0:0:
352,292,13750,6,0,P|296:272|224:308,1,105.000004005432,2|2,0:0|0:3,0:0:0:0:
60,224,14046,1,0,0:0:0:0:
60,224,14145,2,0,P|116:244|188:208,1,105.000004005432,2|2,0:0|0:3,0:0:0:0:
224,56,14441,1,0,0:0:0:0:
224,56,14540,2,0,B|248:140,1,52.5000020027161,2|0,0:0|0:0,0:0:0:0:
308,164,14737,2,0,B|284:248,1,52.5000020027161,2|0,0:0|0:0,0:0:0:0:
192,324,14934,5,2,0:0:0:0:
149,291,15033,1,0,0:0:0:0:
165,239,15132,1,2,0:0:0:0:
219,240,15230,1,0,0:0:0:0:
240,288,15329,6,0,P|318:310|382:254,1,157.500006008148,6|0,0:0|0:0,0:0:0:0:
408,190,15724,1,2,0:0:0:0:
260,56,15921,1,0,0:0:0:0:
240,104,16020,1,0,0:0:0:0:
264,144,16118,6,0,L|324:136,3,52.5000020027161,12|0|8|8,0:0|0:0|0:3|0:3,0:0:0:0:
404,76,16513,2,0,L|396:156,1,52.5000020027161,8|0,0:0|0:0,0:0:0:0:
471,200,16711,2,0,L|464:252,1,52.5000020027161,8|0,0:0|0:0,0:0:0:0:
384,355,16908,6,0,P|316:362|263:318,1,140,4|0,0:0|0:0,0:0:0:0:
276,180,17204,1,2,0:3:0:0:
276,180,17303,2,0,L|260:108,1,70,2|0,0:0|0:0,0:0:0:0:
112,28,17500,2,0,L|136:100,1,70,8|0,0:0|0:0,0:0:0:0:
20,179,17697,6,0,P|84:207|168:163,1,140,8|0,0:3|0:0,0:0:0:0:
280,83,17993,1,2,0:3:0:0:
280,83,18092,2,0,L|400:87,1,70,2|0,0:0|0:0,0:0:0:0:
496,200,18290,2,0,L|408:200,1,70,8|0,0:0|0:0,0:0:0:0:
216,268,18487,6,0,P|288:244|356:276,1,140,8|0,0:3|0:0,0:0:0:0:
452,352,18783,1,2,0:3:0:0:
452,352,18882,2,0,L|468:240,1,70,2|0,0:0|0:0,0:0:0:0:
356,56,19079,2,0,L|346:125,1,70,8|0,0:0|0:0,0:0:0:0:
168,180,19276,5,2,0:0:0:0:
156,184,19375,1,0,0:0:0:0:
144,184,19474,1,8,0:0:0:0:
132,180,19572,1,0,0:0:0:0:
196,136,19671,6,0,P|212:164|208:204,1,70,2|0,0:0|0:0,0:0:0:0:
80,256,19868,1,8,0:3:0:0:
88,112,19967,1,8,0:3:0:0:
244,176,20066,6,0,P|324:188|400:156,1,140,6|0,0:0|0:0,0:0:0:0:
400,144,20362,1,2,0:3:0:0:
440,240,20461,2,0,P|490:176|500:94,1,140,2|8,0:0|0:0,0:0:0:0:
490,88,20757,1,0,0:0:0:0:
373,11,20855,6,0,P|403:85|391:167,1,140,8|0,0:3|0:0,0:0:0:0:
379,170,21151,1,2,0:3:0:0:
248,176,21250,2,0,P|218:238|221:308,1,140,2|8,0:0|0:0,0:0:0:0:
238,334,21546,1,0,0:0:0:0:
464,252,21645,6,0,P|397:230|329:241,1,140,8|0,0:3|0:0,0:0:0:0:
305,260,21941,1,2,0:3:0:0:
86,318,22040,2,0,P|153:296|221:307,1,140,2|8,0:0|0:0,0:0:0:0:
248,324,22336,1,0,0:0:0:0:
396,352,22434,6,0,L|308:344,1,70,2|0,0:0|0:0,0:0:0:0:
148,212,22632,2,0,L|236:204,1,70,8|0,0:0|0:0,0:0:0:0:
440,136,22829,2,0,L|352:128,1,70,2|0,0:0|0:0,0:0:0:0:
224,8,23027,2,0,L|312:0,1,70,8|0,0:0|0:0,0:0:0:0:
496,68,23224,6,0,P|524:148|476:220,1,140,6|0,0:0|0:0,0:0:0:0:
354,201,23520,1,2,0:3:0:0:
354,201,23618,2,0,L|374:117,1,70,2|0,0:0|0:0,0:0:0:0:
225,9,23816,2,0,L|208:77,1,70,8|0,0:0|0:0,0:0:0:0:
40,180,24013,6,0,P|104:168|172:212,1,140,8|0,0:3|0:0,0:0:0:0:
244,308,24309,1,2,0:3:0:0:
244,308,24408,2,0,L|340:288,1,70,2|0,0:0|0:0,0:0:0:0:
512,140,24605,2,0,L|443:154,1,70,8|0,0:0|0:0,0:0:0:0:
392,340,24803,6,0,P|380:228|324:200,1,140,8|0,0:3|0:0,0:0:0:0:
166,204,25099,1,2,0:3:0:0:
166,204,25197,2,0,L|190:124,1,70,2|0,0:0|0:0,0:0:0:0:
412,0,25395,2,0,L|391:67,1,70,8|0,0:0|0:0,0:0:0:0:
365,215,25592,5,2,0:0:0:0:
377,219,25691,1,0,0:0:0:0:
389,219,25790,1,8,0:0:0:0:
401,215,25888,1,0,0:0:0:0:
337,171,25987,6,0,P|321:199|325:239,1,70,2|0,0:0|0:0,0:0:0:0:
453,291,26184,1,8,0:3:0:0:
445,147,26283,1,8,0:3:0:0:
280,216,26382,6,0,P|200:228|124:196,1,140,4|0,0:0|0:0,0:0:0:0:
128,184,26678,1,2,0:3:0:0:
158,36,26776,2,0,P|238:24|314:56,1,140,2|8,0:0|0:0,0:0:0:0:
310,68,27072,1,0,0:0:0:0:
451,48,27171,6,0,P|448:128|404:198,1,140,8|0,0:3|0:0,0:0:0:0:
393,191,27467,1,2,0:3:0:0:
223,194,27566,2,0,P|225:274|269:344,1,140,2|8,0:0|0:0,0:0:0:0:
281,337,27862,1,0,0:0:0:0:
419,220,27961,6,0,P|355:169|273:158,1,140,4|0,0:0|0:0,0:0:0:0:
272,168,28257,1,2,0:3:0:0:
24,113,28355,2,0,P|87:62|169:51,1,140,2|8,0:0|0:0,0:0:0:0:
171,61,28651,1,0,0:0:0:0:
362,22,28750,6,0,L|274:30,1,70,2|2,0:3|0:3,0:0:0:0:
118,150,28948,2,0,L|206:158,1,70,8|0,0:3|0:0,0:0:0:0:
406,234,29145,2,0,L|318:242,1,70,8|8,0:3|0:3,0:0:0:0:
190,366,29343,2,0,L|278:374,1,70,8|8,0:0|0:0,0:0:0:0:
448,372,29540,5,6,0:0:0:0:
468,136,29737,1,0,0:0:0:0:
504,180,29836,1,8,0:0:0:0:
496,236,29934,2,0,P|428:260|352:224,1,140,2|8,0:0|0:0,0:0:0:0:
324,164,30230,1,0,0:0:0:0:
248,128,30329,2,0,P|213:124|180:136,1,70,2|0,0:0|0:0,0:0:0:0:
64,320,30526,2,0,P|98:323|131:311,1,70,8|0,0:0|0:0,0:0:0:0:
244,252,30724,1,2,0:0:0:0:
252,264,30790,1,0,0:0:0:0:
260,276,30855,1,0,0:0:0:0:
268,288,30921,2,0,L|232:376,1,70,8|0,0:0|0:0,0:0:0:0:
88,240,31118,5,2,0:0:0:0:
328,144,31316,1,0,0:0:0:0:
276,168,31415,1,8,0:0:0:0:
224,152,31513,2,0,P|208:100|248:16,1,140,2|8,0:0|0:0,0:0:0:0:
320,4,31809,1,0,0:0:0:0:
404,24,31908,2,0,L|416:124,1,70,2|0,0:0|0:0,0:0:0:0:
504,168,32105,2,0,L|492:268,1,70,8|0,0:0|0:0,0:0:0:0:
328,364,32303,2,0,L|319:294,1,70,2|0,0:0|0:0,0:0:0:0:
148,136,32500,1,8,0:0:0:0:
132,192,32599,1,2,0:0:0:0:
156,244,32697,6,0,L|236:252,1,70,6|0,0:0|0:0,0:0:0:0:
360,164,32895,2,0,L|280:172,1,70,0|8,0:0|0:0,0:0:0:0:
112,272,33092,2,0,L|272:252,1,140,2|8,0:0|0:0,0:0:0:0:
356,312,33388,1,0,0:0:0:0:
356,312,33487,2,0,P|352:263|328:232,1,70,2|0,0:0|0:0,0:0:0:0:
220,48,33684,1,8,0:0:0:0:
196,96,33783,1,0,0:0:0:0:
212,152,33882,2,0,P|256:173|295:167,1,70,2|0,0:0|0:0,0:0:0:0:
428,84,34079,1,8,0:0:0:0:
380,112,34178,1,0,0:0:0:0:
372,168,34276,5,2,0:0:0:0:
344,24,34474,1,0,0:0:0:0:
408,296,34671,1,2,0:0:0:0:
272,80,34868,1,8,0:0:0:0:
484,212,35066,1,2,0:0:0:0:
238,321,35263,1,8,0:0:0:0:
224,328,35329,1,0,0:0:0:0:
212,332,35395,1,0,0:0:0:0:
200,336,35461,2,0,L|196:236,1,70,2|0,0:0|0:0,0:0:0:0:
120,112,35658,2,0,L|122:181,1,70,8|0,0:0|0:0,0:0:0:0:
316,352,35855,5,6,0:0:0:0:
56,324,36053,1,0,0:0:0:0:
40,280,36151,1,8,0:0:0:0:
56,232,36250,2,0,P|128:208|204:232,1,140,2|8,0:0|0:0,0:0:0:0:
268,252,36546,1,0,0:0:0:0:
340,208,36645,2,0,P|360:164|344:100,1,70,2|0,0:0|0:0,0:0:0:0:
184,52,36842,2,0,P|164:96|180:160,1,70,8|0,0:0|0:0,0:0:0:0:
160,312,37040,1,2,0:0:0:0:
172,316,37105,1,0,0:0:0:0:
184,320,37171,1,0,0:0:0:0:
196,324,37237,2,0,L|156:236,1,70,8|0,0:0|0:0,0:0:0:0:
184,52,37434,5,2,0:0:0:0:
444,96,37632,1,0,0:0:0:0:
460,148,37730,1,8,0:0:0:0:
448,204,37829,2,0,P|364:220|300:188,1,140,2|8,0:0|0:0,0:0:0:0:
260,135,38125,1,0,0:0:0:0:
180,156,38224,2,0,L|144:232,1,70,2|0,0:0|0:0,0:0:0:0:
40,68,38421,2,0,L|69:4,1,70,8|0,0:0|0:0,0:0:0:0:
284,12,38618,2,0,B|216:-4|216:-4|144:28,1,140,2|8,0:0|0:0,0:0:0:0:
116,100,38915,1,0,0:0:0:0:
180,156,39013,6,0,L|244:128,1,70,2|0,0:0|0:0,0:0:0:0:
456,132,39211,2,0,L|392:160,1,70,0|8,0:0|0:0,0:0:0:0:
324,336,39408,2,0,P|283:268|324:177,1,140,2|8,0:0|0:0,0:0:0:0:
327,63,39704,1,0,0:0:0:0:
327,63,39803,2,0,P|291:15|255:7,1,70,2|0,0:0|0:0,0:0:0:0:
64,104,40000,1,8,0:0:0:0:
44,156,40099,1,0,0:0:0:0:
28,208,40197,2,0,L|68:304,1,70,2|0,0:0|0:0,0:0:0:0:
152,120,40395,5,8,0:0:0:0:
236,108,40494,1,0,0:0:0:0:
304,156,40592,2,0,P|316:196|296:256,1,70,2|0,0:0|0:0,0:0:0:0:
63,340,40790,2,0,P|51:300|71:240,1,70,8|0,0:0|0:0,0:0:0:0:
136,51,40987,2,0,L|158:149,1,70,2|0,0:0|0:0,0:0:0:0:
168,292,41184,2,0,L|192:224,1,70,8|0,0:0|0:0,0:0:0:0:
264,16,41382,5,8,0:3:0:0:
280,68,41480,1,8,0:3:0:0:
328,96,41579,1,8,0:3:0:0:
384,92,41678,1,8,0:3:0:0:
504,208,41776,5,8,0:3:0:0:
434,164,41874,1,8,0:3:0:0:
350,175,41973,1,8,0:3:0:0:
303,243,42072,1,8,0:3:0:0:
143,207,42171,6,0,B|231:195|231:195|303:243,1,175,6|0,0:0|0:0,0:0:0:0:
280,328,42467,2,0,B|192:340|192:340|120:292,1,175,8|0,0:0|0:0,0:0:0:0:
48,144,42763,2,0,P|60:188|44:252,1,87.5,2|0,0:0|0:0,0:0:0:0:
152,120,42961,5,8,0:0:0:0:
160,104,43059,1,0,0:0:0:0:
168,88,43158,1,0,0:0:0:0:
176,72,43257,1,0,0:0:0:0:
244,132,43355,6,0,P|320:160|420:128,1,175,2|0,0:0|0:0,0:0:0:0:
412,44,43651,2,0,P|336:16|236:48,1,175,8|0,0:0|0:0,0:0:0:0:
144,120,43947,1,2,0:0:0:0:
200,220,44046,1,0,0:0:0:0:
56,352,44145,2,0,L|96:268,1,87.5,8|0,0:0|0:0,0:0:0:0:
424,316,44540,5,8,0:0:0:0:
396,320,44639,1,2,0:0:0:0:
368,324,44738,1,0,0:0:0:0:
344,328,44836,1,8,0:0:0:0:
264,240,44934,5,2,0:0:0:0:
292,244,45033,1,0,0:0:0:0:
320,248,45132,1,10,0:0:0:0:
344,252,45230,1,0,0:0:0:0:
452,220,45329,6,0,P|472:128|444:36,1,175,2|2,0:3|0:0,0:0:0:0:
280,40,45625,2,0,P|376:60|348:20,1,175,0|0,0:0|0:0,0:0:0:0:
452,220,45921,2,0,P|412:200|344:212,1,87.5,2|0,0:3|0:0,0:0:0:0:
192,180,46118,5,10,0:0:0:0:
152,256,46217,1,0,0:0:0:0:
216,316,46316,1,0,0:0:0:0:
292,272,46415,1,0,0:0:0:0:
276,188,46513,6,0,B|260:100|260:100|288:16,1,175,2|0,0:0|0:0,0:0:0:0:
436,32,46809,2,0,B|353:105|353:105|388:-16,1,175,8|0,0:0|0:0,0:0:0:0:
440,160,47105,2,0,L|360:220,1,87.5,2|0,0:0|0:0,0:0:0:0:
216,296,47303,5,8,0:0:0:0:
210,270,47401,1,10,0:0:0:0:
204,244,47500,1,0,0:0:0:0:
199,219,47599,1,8,0:0:0:0:
112,168,47697,6,0,L|116:100,5,58.3333333333333,2|2|2|0|0|0,0:3|0:3|0:3|0:0|0:0|0:0,0:0:0:0:
208,112,48092,2,0,L|217:54,5,58.3333333333333,2|2|2|2|0|0,0:3|0:3|0:3|0:0|0:0|0:0,0:0:0:0:
304,104,48487,6,0,B|332:108|332:108|376:96,5,58.3333333333333,2|0|0|0|0|0,0:0|0:0|0:0|0:0|0:0|0:0,0:0:0:0:
400,24,48882,1,2,0:0:0:0:
412,28,48947,1,0,0:0:0:0:
420,36,49013,1,0,0:0:0:0:
428,44,49079,2,0,P|448:96|396:168,1,87.5,8|0,0:0|0:0,0:0:0:0:
328,188,49276,2,0,P|292:264|340:337,1,175,2|2,0:0|0:3,0:0:0:0:
424,349,49572,1,2,0:3:0:0:
500,305,49671,6,0,L|516:85,1,175,6|0,0:0|0:0,0:0:0:0:
440,32,49967,2,0,B|400:112|400:112|424:204,1,175,2|0,0:0|0:0,0:0:0:0:
340,328,50263,2,0,L|316:220,1,87.5,2|0,0:0|0:0,0:0:0:0:
80,88,50461,5,8,0:0:0:0:
59,203,50592,1,2,0:0:0:0:
147,275,50724,1,2,0:0:0:0:
240,212,50855,5,8,0:0:0:0:
240,184,50954,1,0,0:0:0:0:
240,156,51053,1,0,0:0:0:0:
240,128,51151,1,0,0:0:0:0:
312,40,51250,5,8,0:0:0:0:
316,67,51348,1,0,0:0:0:0:
320,95,51447,1,0,0:0:0:0:
325,122,51546,1,0,0:0:0:0:
396,200,51645,6,0,P|472:172|488:56,1,175,2|0,0:0|0:0,0:0:0:0:
432,32,51941,2,0,P|356:60|340:176,1,175,0|0,0:0|0:0,0:0:0:0:
312,320,52237,2,0,P|316:256|300:200,1,87.5,2|0,0:0|0:0,0:0:0:0:
156,84,52434,5,8,0:0:0:0:
52,140,52566,1,2,0:0:0:0:
108,244,52697,1,2,0:0:0:0:
212,192,52829,6,0,B|292:144|292:144|392:164,1,175,2|0,0:0|0:0,0:0:0:0:
460,172,53125,2,0,L|468:124,4,43.75,0|0|0|0|0,0:0|0:0|0:0|0:0|0:0,0:0:0:0:
395,244,53421,2,0,L|370:155,1,87.5,2|0,0:0|0:0,0:0:0:0:
252,64,53618,2,0,L|268:8,6,43.75,8|0|8|0|8|0|2,0:3|0:0|0:3|0:0|0:3|0:0|0:3,0:0:0:0:
172,120,54013,2,0,L|156:64,6,43.75,0|0|0|0|0|0|0,0:0|0:0|0:0|0:0|0:0|0:0|0:0,0:0:0:0:
164,220,54408,5,8,0:3:0:0:
188,212,54507,1,8,0:3:0:0:
212,204,54605,1,2,0:0:0:0:
236,196,54704,1,0,0:0:0:0:
328,124,54803,5,12,0:3:0:0:
308,104,54901,1,0,0:0:0:0:
292,124,55000,1,10,0:3:0:0:
312,144,55098,1,8,0:3:0:0:
356,240,55197,5,12,0:3:0:0:
336,260,55295,1,0,0:0:0:0:
320,240,55394,1,10,0:3:0:0:
340,220,55492,1,8,0:3:0:0:
432,164,55592,5,6,0:3:0:0:
440,140,55691,1,2,0:3:0:0:
448,116,55790,1,10,0:3:0:0:
456,92,55888,1,2,0:3:0:0:
384,24,55987,5,12,0:3:0:0:
359,29,56086,1,0,0:0:0:0:
334,34,56185,1,10,0:3:0:0:
309,39,56283,1,8,0:3:0:0:
287,137,56382,5,12,0:3:0:0:
303,155,56481,1,0,0:0:0:0:
320,174,56580,1,0,0:0:0:0:
337,193,56678,1,8,0:3:0:0:
344,264,56776,6,0,L|357:220,4,46.6666666666667,6|0|0|8|0,0:3|0:0|0:0|0:0|0:0,0:0:0:0:
208,344,57171,5,12,0:3:0:0:
120,352,57270,1,8,0:3:0:0:
52,296,57368,1,10,0:3:0:0:
52,208,57467,1,8,0:3:0:0:
112,144,57566,2,0,P|157:133|220:136,1,87.5,10|8,0:3|0:3,0:0:0:0:
396,24,57763,2,0,P|350:13|288:16,1,87.5,10|8,0:3|0:3,0:0:0:0:
156,248,57961,6,0,P|268:232|312:96,1,262.5,10|0,0:3|0:0,0:0:0:0:
224,28,58355,1,10,0:3:0:0:
212,28,58421,1,2,0:3:0:0:
200,28,58487,1,2,0:3:0:0:
188,28,58553,2,0,L|104:64,2,58.3333333333333,2|0|0,0:0|0:0|0:0,0:0:0:0:
160,132,58750,2,0,L|80:164,5,58.3333333333333,10|2|2|2|0|0,0:3|0:3|0:3|0:0|0:3|0:3,0:0:0:0:
24,200,59145,5,10,0:3:0:0:
28,212,59210,1,2,0:3:0:0:
32,224,59276,1,2,0:3:0:0:
36,236,59342,2,0,L|56:312,5,58.3333333333333,2|2|2|10|2|2,0:3|0:3|0:3|0:3|0:3|0:3,0:0:0:0:
137,346,59737,2,0,L|137:266,5,58.3333333333333,2|0|0|2|0|0,0:0|0:0|0:0|0:0|0:0|0:0,0:0:0:0:
232,328,60132,5,2,0:0:0:0:
232,328,60230,1,2,0:0:0:0:
232,328,60329,2,0,P|331:335|388:280,1,175,6|0,0:0|0:0,0:0:0:0:
408,192,60625,1,0,0:0:0:0:
508,212,60724,2,0,P|507:168|490:128,1,87.5,8|0,0:0|0:0,0:0:0:0:
376,96,60921,2,0,P|332:96|292:113,1,87.5,8|8,0:3|0:3,0:0:0:0:
144,240,61118,6,0,P|164:180|120:100,1,105.000004005432,6|0,0:0|0:0,0:0:0:0:
64,180,61316,2,0,B|120:212|120:212|204:176|204:176|240:224|304:220,1,262.5,6|0,0:0|0:0,0:0:0:0:
336,36,61711,5,8,0:0:0:0:
292,112,61809,1,2,0:0:0:0:
380,112,61908,2,0,P|405:115|432:132,3,52.5000020027161,6|0|0|0,0:0|0:0|0:0|0:0,0:0:0:0:
380,216,62303,6,0,P|420:228|512:96,1,210.000008010865,2|8,0:0|0:0,0:0:0:0:
296,176,62599,2,0,B|264:320|264:320|336:264,1,210.000008010865,2|0,0:0|0:0,0:0:0:0:
428,128,62895,2,0,L|352:32,1,105.000004005432,8|0,0:0|0:0,0:0:0:0:
136,32,63093,5,2,0:0:0:0:
220,120,63224,1,0,0:0:0:0:
255,4,63355,1,0,0:0:0:0:
144,169,63487,6,0,P|262:200|315:135,1,175,0|0,0:0|0:0,0:0:0:0:
311,146,63783,1,0,0:0:0:0:
220,120,63882,2,0,B|220:184|254:229|288:248|288:248|334:217|310:141,1,262.5,8|0,0:0|0:0,0:0:0:0:
284,36,64276,6,0,P|196:16|120:76,1,175,6|0,0:0|0:0,0:0:0:0:
163,266,64572,2,0,P|224:199|210:103,1,175,8|0,0:0|0:0,0:0:0:0:
47,125,64868,2,0,P|80:152|122:165,1,87.5,2|0,0:0|0:0,0:0:0:0:
372,20,65066,1,8,0:0:0:0:
229,128,65263,5,8,0:3:0:0:
229,128,65362,1,8,0:3:0:0:
229,128,65461,2,0,P|317:108|393:168,1,175,6|0,0:0|0:0,0:0:0:0:
354,359,65757,2,0,P|292:292|306:196,1,175,8|0,0:0|0:0,0:0:0:0:
467,219,66053,2,0,P|433:246|391:258,1,87.5,2|0,0:0|0:0,0:0:0:0:
229,128,66251,1,8,0:0:0:0:
96,308,66447,5,8,0:3:0:0:
96,308,66546,1,8,0:3:0:0:
96,308,66645,1,6,0:0:0:0:
350,141,67040,1,6,0:0:0:0:
4,260,67434,6,0,P|100:212|160:236,1,175,6|0,0:0|0:0,0:0:0:0:
252,276,67730,1,8,0:0:0:0:
348,228,67829,2,0,P|356:176|328:96,1,87.5,2|0,0:0|0:0,0:0:0:0:
144,0,68026,1,8,0:0:0:0:
120,84,68125,1,0,0:0:0:0:
180,148,68224,6,0,L|284:148,1,87.5,2|0,0:0|0:0,0:0:0:0:
464,48,68421,2,0,P|432:94|429:139,1,87.5,8|0,0:0|0:0,0:0:0:0:
384,304,68618,2,0,P|371:245|334:220,1,87.5,2|0,0:0|0:0,0:0:0:0:
152,252,68816,1,8,0:0:0:0:
128,336,68915,1,0,0:0:0:0:
212,320,69013,6,0,L|320:288,1,87.5,2|0,0:0|0:0,0:0:0:0:
100,180,69211,2,0,L|-8:148,1,87.5,0|8,0:0|0:0,0:0:0:0:
228,68,69408,2,0,L|336:36,1,87.5,2|0,0:0|0:0,0:0:0:0:
476,108,69605,1,8,0:0:0:0:
464,220,69704,1,0,0:0:0:0:
452,332,69803,6,0,P|332:328|284:276,1,175,2|8,0:0|0:0,0:0:0:0:
200,252,70099,1,0,0:0:0:0:
116,312,70197,2,0,B|100:228|100:228|160:144,1,175,2|8,0:0|0:0,0:0:0:0:
256,168,70493,1,0,0:0:0:0:
336,100,70592,2,0,P|340:36|304:-20,1,87.5,6|0,0:0|0:0,0:0:0:0:
104,11,70790,5,0,0:0:0:0:
88,95,70888,1,8,0:0:0:0:
152,155,70987,2,0,L|252:168,1,87.5,2|0,0:0|0:0,0:0:0:0:
420,264,71184,2,0,L|333:275,1,87.5,8|0,0:0|0:0,0:0:0:0:
112,300,71382,6,0,P|216:292|248:392,1,175,2|8,0:0|0:0,0:0:0:0:
60,368,71678,1,0,0:0:0:0:
24,220,71776,2,0,L|48:112,1,87.5,2|0,0:0|0:0,0:0:0:0:
228,0,71974,2,0,L|200:116,1,87.5,8|0,0:0|0:0,0:0:0:0:
276,220,72171,2,0,P|348:240|396:208,1,87.5,2|0,0:0|0:0,0:0:0:0:
372,56,72368,5,0,0:0:0:0:
336,136,72467,1,8,0:0:0:0:
424,128,72566,2,0,L|560:96,1,87.5,2|0,0:0|0:0,0:0:0:0:
500,304,72763,1,8,0:0:0:0:
404,364,72862,1,0,0:0:0:0:
296,324,72961,6,0,P|192:312|120:340,1,175,2|8,0:0|0:0,0:0:0:0:
36,288,73257,1,0,0:0:0:0:
64,188,73355,2,0,P|156:180|108:28,1,262.5,10|8,0:3|0:3,0:0:0:0:
104,112,73750,6,0,P|248:108|304:72,1,175,6|0,0:0|0:0,0:0:0:0:
344,20,74046,1,8,0:0:0:0:
448,36,74145,2,0,P|472:68|456:180,1,87.5,2|0,0:0|0:0,0:0:0:0:
372,316,74342,1,8,0:0:0:0:
306,256,74441,1,0,0:0:0:0:
390,228,74540,6,0,L|491:197,1,87.5,2|0,0:0|0:0,0:0:0:0:
284,340,74737,2,0,B|199:316,1,87.5,8|0,0:0|0:0,0:0:0:0:
12,240,74934,2,0,L|113:209,1,87.5,2|0,0:0|0:0,0:0:0:0:
256,64,75132,2,0,L|154:33,1,87.5,8|0,0:0|0:0,0:0:0:0:
95,214,75329,6,0,P|152:232|200:224,1,87.5,2|0,0:0|0:0,0:0:0:0:
356,128,75526,2,0,P|374:71|366:23,1,87.5,0|8,0:0|0:0,0:0:0:0:
164,336,75724,6,0,P|216:332|272:260,1,105.000004005432,2|0,0:0|0:0,0:0:0:0:
372,152,75921,2,0,P|380:76|356:20,1,105.000004005432,8|0,0:0|0:0,0:0:0:0:
176,128,76118,6,0,P|168:204|192:260,1,105.000004005432,2|0,0:0|0:0,0:0:0:0:
264,336,76316,1,8,0:0:0:0:
272,324,76382,1,0,0:0:0:0:
280,312,76447,1,0,0:0:0:0:
288,300,76513,2,0,L|276:188,1,105.000004005432,2|0,0:0|0:0,0:0:0:0:
79,85,76711,2,0,L|181:130,1,105.000004005432,8|0,0:0|0:0,0:0:0:0:
373,52,76908,6,0,P|317:64|281:204,1,210.000008010865,6|0,0:0|0:0,0:0:0:0:
132,276,77204,1,8,0:0:0:0:
32,178,77303,2,0,L|84:74,1,105.000004005432,2|0,0:0|0:0,0:0:0:0:
200,13,77500,1,8,0:0:0:0:
254,82,77599,1,0,0:0:0:0:
166,90,77697,6,0,L|76:83,1,87.5,2|0,0:0|0:0,0:0:0:0:
276,195,77895,2,0,L|366:188,1,87.5,8|0,0:0|0:0,0:0:0:0:
132,276,78092,2,0,L|42:269,1,87.5,2|0,0:0|0:0,0:0:0:0:
242,381,78290,2,0,L|332:374,1,87.5,8|0,0:0|0:0,0:0:0:0:
476,152,78487,6,0,P|441:230|466:312,1,175,2|0,0:0|0:0,0:0:0:0:
470,317,78783,1,8,0:0:0:0:
470,317,78882,2,0,P|406:233|320:217,1,175,2|8,0:0|0:0,0:0:0:0:
400,124,79178,1,0,0:0:0:0:
400,124,79276,2,0,P|308:108|239:162,1,175,2|8,0:0|0:0,0:0:0:0:
240,272,79572,1,0,0:0:0:0:
148,328,79671,6,0,L|120:416,2,58.3333333333333,2|0|0,0:0|0:0|0:0,0:0:0:0:
32,200,79868,2,0,P|28:236|57:298,1,87.5,8|0,0:0|0:0,0:0:0:0:
148,216,80066,6,0,P|127:132|57:83,1,175,2|0,0:0|0:0,0:0:0:0:
63,88,80362,1,8,0:0:0:0:
63,88,80461,2,0,P|165:114|242:74,1,175,2|8,0:0|0:0,0:0:0:0:
304,20,80757,1,0,0:0:0:0:
400,56,80855,2,0,P|420:88|424:164,1,87.5,2|0,0:0|0:0,0:0:0:0:
488,216,81053,2,0,P|470:249|406:290,1,87.5,8|0,0:0|0:0,0:0:0:0:
264,200,81250,5,8,0:3:0:0:
178,217,81349,1,8,0:3:0:0:
168,305,81448,1,8,0:3:0:0:
248,340,81546,1,8,0:3:0:0:
308,275,81645,6,0,L|224:120,1,175,6|0,0:0|0:0,0:0:0:0:
128,76,81941,1,8,0:0:0:0:
48,144,82040,2,0,P|124:180|192:148,1,87.5,2|0,0:0|0:0,0:0:0:0:
348,41,82237,1,8,0:0:0:0:
400,113,82336,1,0,0:0:0:0:
312,121,82435,6,0,L|224:121,1,87.5,2|0,0:0|0:0,0:0:0:0:
84,4,82632,2,0,P|116:32|127:79,1,87.5,8|0,0:0|0:0,0:0:0:0:
76,256,82829,2,0,P|87:297|120:326,1,87.5,2|0,0:0|0:0,0:0:0:0:
348,264,83027,1,8,0:0:0:0:
368,180,83126,1,0,0:0:0:0:
287,135,83224,6,0,L|203:159,1,87.5,2|0,0:0|0:0,0:0:0:0:
196,384,83421,2,0,P|214:338|208:284,1,87.5,0|8,0:0|0:0,0:0:0:0:
132,100,83618,2,0,P|112:136|110:184,1,87.5,2|0,0:0|0:0,0:0:0:0:
312,344,83816,1,8,0:0:0:0:
424,332,83915,1,0,0:0:0:0:
480,232,84014,6,0,L|424:48,1,175,2|8,0:0|0:0,0:0:0:0:
328,32,84310,1,0,0:0:0:0:
268,116,84408,2,0,B|184:132|184:132|100:72,1,175,2|8,0:0|0:0,0:0:0:0:
36,8,84704,1,0,0:0:0:0:
24,112,84803,2,0,L|16:248,1,87.5,6|0,0:0|0:0,0:0:0:0:
184,248,85001,5,0,0:0:0:0:
128,172,85099,1,8,0:0:0:0:
92,260,85198,2,0,P|108:300|152:332,1,87.5,2|0,0:0|0:0,0:0:0:0:
344,312,85395,2,0,L|424:272,1,87.5,8|0,0:0|0:0,0:0:0:0:
352,56,85593,6,0,B|476:80|476:80|420:108,1,175,2|8,0:0|0:0,0:0:0:0:
296,168,85889,1,0,0:0:0:0:
176,64,85987,2,0,P|228:52|312:88,1,87.5,2|0,0:0|0:0,0:0:0:0:
415,187,86184,2,0,P|427:239|391:323,1,87.5,8|0,0:0|0:0,0:0:0:0:
249,366,86382,2,0,B|114:381|114:381|178:351,1,175,2|0,0:0|0:0,0:0:0:0:
216,280,86678,5,8,0:0:0:0:
172,192,86777,2,0,L|71:186,1,87.5,2|0,0:0|0:0,0:0:0:0:
72,56,86974,1,8,0:0:0:0:
168,12,87073,1,0,0:0:0:0:
276,48,87172,6,0,P|308:144|252:240,1,175,2|0,0:0|0:0,0:0:0:0:
172,192,87468,1,0,0:0:0:0:
84,260,87566,2,0,P|82:313|260:292,1,262.5,8|8,0:3|0:3,0:0:0:0:
356,64,87961,6,0,P|445:76|496:143,1,175,6|0,0:0|0:0,0:0:0:0:
386,174,88257,1,8,0:0:0:0:
276,136,88356,2,0,L|232:3,1,87.5,2|0,0:0|0:0,0:0:0:0:
116,104,88553,1,8,0:0:0:0:
50,164,88652,1,0,0:0:0:0:
134,192,88751,6,0,L|348:256,1,175,2|8,0:0|0:0,0:0:0:0:
260,336,89046,1,0,0:0:0:0:
159,366,89145,2,0,P|135:310|171:254,1,87.5,2|0,0:0|0:0,0:0:0:0:
96,24,89342,2,0,P|120:80|84:136,1,87.5,8|0,0:0|0:0,0:0:0:0:
42,300,89540,6,0,P|93:307|141:287,1,105.000004005432,6|0,0:0|0:0,0:0:0:0:
220,128,89737,2,0,P|227:76|207:28,1,105.000004005432,4|8,0:0|0:0,0:0:0:0:
223,307,89934,6,0,P|255:266|259:187,1,122.500001168251,6|0,0:0|0:0,0:0:0:0:
112,88,90131,2,0,P|71:55|0:52,1,122.500001168251,12|0,0:0|0:0,0:0:0:0:
141,210,90329,6,0,L|330:191,1,122.500001168251,6|0,0:0|0:0,0:0:0:0:
432,104,90526,2,0,L|310:116,1,122.500001168251,8|0,0:0|0:0,0:0:0:0:
320,320,90724,1,10,0:3:0:0:
332,316,90790,1,2,0:3:0:0:
344,312,90855,1,2,0:3:0:0:
356,308,90922,2,0,P|372:240|348:192,1,116.666666666667,10|0,0:3|0:0,0:0:0:0:
140,48,91119,6,0,B|108:128|108:128|152:232,1,175,6|0,0:0|0:0,0:0:0:0:
240,248,91415,1,8,0:0:0:0:
160,316,91514,2,0,P|96:312|56:270,1,87.5,2|0,0:0|0:0,0:0:0:0:
278,170,91711,1,8,0:0:0:0:
328,240,91810,1,0,0:0:0:0:
240,248,91908,6,0,B|154:217,1,87.5,2|0,0:0|0:0,0:0:0:0:
108,128,92106,2,0,P|96:80|120:24,1,87.5,8|0,0:0|0:0,0:0:0:0:
352,32,92303,2,0,P|364:80|340:136,1,87.5,2|0,0:0|0:0,0:0:0:0:
328,240,92501,2,0,L|240:248,1,87.5,8|0,0:0|0:0,0:0:0:0:
156,336,92698,6,0,P|121:258|146:176,1,175,2|0,0:0|0:0,0:0:0:0:
148,180,92994,1,8,0:0:0:0:
148,180,93093,2,0,P|84:264|-2:280,1,175,2|8,0:0|0:0,0:0:0:0:
84,100,93389,1,0,0:0:0:0:
84,100,93487,2,0,P|176:84|244:144,1,175,2|8,0:0|0:0,0:0:0:0:
252,236,93783,1,0,0:0:0:0:
336,300,93882,2,0,P|396:308|456:268,1,87.5,2|0,0:0|0:0,0:0:0:0:
416,88,94079,2,0,P|356:80|296:120,1,87.5,8|0,0:0|0:0,0:0:0:0:
152,180,94277,6,0,P|147:266|200:333,1,175,2|0,0:0|0:0,0:0:0:0:
204,336,94573,1,8,0:0:0:0:
204,336,94672,2,0,P|114:281|28:297,1,175,2|0,0:0|0:0,0:0:0:0:
0,188,94968,1,0,0:0:0:0:
72,112,95066,2,0,P|128:108|184:128,1,87.5,8|8,0:3|0:3,0:0:0:0:
300,240,95263,5,0,0:0:0:0:
384,261,95361,1,8,0:3:0:0:
465,227,95461,1,8,0:0:0:0:
498,146,95559,1,0,0:0:0:0:
468,64,95657,1,8,0:3:0:0:
388,26,95756,1,8,0:3:0:0:
308,58,95855,6,0,L|235:178,1,140,6|0,0:0|0:0,0:0:0:0:
388,260,96151,1,2,0:3:0:0:
388,260,96250,2,0,L|372:188,1,70,2|0,0:0|0:0,0:0:0:0:
454,25,96447,2,0,L|471:95,1,70,8|0,0:0|0:0,0:0:0:0:
512,272,96644,6,0,P|446:293|388:260,1,140,8|0,0:3|0:0,0:0:0:0:
235,178,96940,1,2,0:3:0:0:
235,178,97039,2,0,P|195:174|159:182,1,70,2|0,0:0|0:0,0:0:0:0:
44,340,97237,2,0,P|84:344|120:336,1,70,8|0,0:0|0:0,0:0:0:0:
68,120,97434,6,0,P|52:192|76:256,1,140,8|0,0:3|0:0,0:0:0:0:
204,352,97730,1,2,0:3:0:0:
204,352,97829,2,0,L|220:240,1,70,2|0,0:0|0:0,0:0:0:0:
328,76,98026,2,0,L|318:145,1,70,8|0,0:0|0:0,0:0:0:0:
168,180,98223,5,2,0:0:0:0:
156,184,98322,1,0,0:0:0:0:
144,184,98421,1,8,0:0:0:0:
132,180,98519,1,0,0:0:0:0:
196,136,98618,6,0,P|212:164|208:204,1,70,2|0,0:0|0:0,0:0:0:0:
80,256,98815,1,8,0:0:0:0:
88,112,98914,1,8,0:3:0:0:
244,176,99013,6,0,P|324:188|400:156,1,140,6|0,0:0|0:0,0:0:0:0:
400,144,99309,1,2,0:3:0:0:
316,64,99408,2,0,P|236:52|160:84,1,140,2|8,0:0|0:0,0:0:0:0:
160,96,99704,1,0,0:0:0:0:
84,16,99802,6,0,P|54:90|66:172,1,140,8|0,0:3|0:0,0:0:0:0:
78,175,100098,1,2,0:3:0:0:
240,172,100197,2,0,P|270:234|267:304,1,140,2|8,0:0|0:0,0:0:0:0:
250,330,100493,1,0,0:0:0:0:
91,322,100592,6,0,P|158:300|226:311,1,140,8|0,0:3|0:0,0:0:0:0:
250,330,100888,1,2,0:3:0:0:
480,288,100987,2,0,P|413:310|345:299,1,140,2|8,0:0|0:0,0:0:0:0:
318,282,101283,1,0,0:0:0:0:
404,176,101381,6,0,L|496:132,1,70,2|0,0:0|0:0,0:0:0:0:
264,136,101579,2,0,L|200:166,1,70,8|0,0:0|0:0,0:0:0:0:
318,282,101776,2,0,P|326:238|310:198,1,70,8|0,0:3|0:3,0:0:0:0:
348,24,101974,2,0,P|340:68|356:108,1,70,8|8,0:0|0:3,0:0:0:0:
456,223,102171,6,0,P|391:206|306:219,1,140,6|0,0:0|0:0,0:0:0:0:
212,320,102467,1,2,0:3:0:0:
212,320,102566,2,0,L|232:236,1,70,2|0,0:0|0:0,0:0:0:0:
184,36,102763,2,0,L|167:104,1,70,8|0,0:0|0:0,0:0:0:0:
4,192,102961,6,0,P|69:209|154:196,1,140,8|0,0:3|0:0,0:0:0:0:
268,92,103256,1,2,0:3:0:0:
268,92,103355,2,0,L|372:108,1,70,2|0,0:0|0:0,0:0:0:0:
408,260,103552,2,0,L|312:248,1,70,8|0,0:0|0:0,0:0:0:0:
140,200,103750,6,0,P|102:256|113:324,1,140,8|0,0:3|0:0,0:0:0:0:
236,280,104046,1,2,0:3:0:0:
236,280,104144,2,0,L|236:184,1,70,2|0,0:0|0:0,0:0:0:0:
380,40,104342,2,0,L|380:110,1,70,8|0,0:0|0:0,0:0:0:0:
389,227,104539,5,2,0:0:0:0:
401,231,104638,1,0,0:0:0:0:
413,231,104737,1,8,0:0:0:0:
425,227,104835,1,0,0:0:0:0:
361,183,104934,6,0,P|345:211|349:251,1,70,2|0,0:0|0:0,0:0:0:0:
477,303,105131,1,8,0:0:0:0:
469,159,105230,1,8,0:3:0:0:
308,228,105329,6,0,P|228:240|152:208,1,140,6|0,0:0|0:0,0:0:0:0:
156,196,105625,1,2,0:3:0:0:
188,76,105724,2,0,P|108:64|32:96,1,140,2|8,0:0|0:0,0:0:0:0:
36,108,106020,1,0,0:0:0:0:
0,232,106118,6,0,P|80:244|156:212,1,140,8|0,0:3|0:0,0:0:0:0:
156,196,106415,1,2,0:3:0:0:
204,304,106513,2,0,P|254:240|264:158,1,140,2|8,0:0|0:0,0:0:0:0:
252,156,106809,1,0,0:0:0:0:
52,76,106908,6,0,P|81:151|147:201,1,140,8|0,0:3|0:0,0:0:0:0:
156,192,107204,1,2,0:3:0:0:
328,128,107303,2,0,P|298:52|232:2,1,140,2|8,0:0|0:0,0:0:0:0:
224,13,107599,1,0,0:0:0:0:
98,78,107697,6,0,L|34:74,5,46.6666666666667,8|0|0|2|2|2,0:3|0:0|0:0|0:3|0:3|0:3,0:0:0:0:
160,160,108092,2,0,L|224:156,4,46.6666666666667,8|0|0|8|0,0:3|0:0|0:0|0:3|0:0,0:0:0:0:
0,228,108487,6,0,L|108:220,1,87.5,12|0,0:0|0:0,0:0:0:0:
168,296,108684,1,2,0:0:0:0:
168,296,108783,2,0,L|276:288,1,87.5,8|0,0:0|0:0,0:0:0:0:
352,344,108980,1,2,0:0:0:0:
352,344,109079,2,0,L|456:336,1,87.5,8|0,0:0|0:0,0:0:0:0:
512,220,109276,6,0,B|416:228|416:228|368:144,1,175,8|0,0:0|0:0,0:0:0:0:
372,144,109540,1,2,0:3:0:0:
368,128,109605,1,2,0:3:0:0:
364,112,109671,6,0,L|384:24,1,87.5,8|0,0:0|0:0,0:0:0:0:
228,92,109868,1,2,0:0:0:0:
228,92,109967,2,0,L|247:177,1,87.5,8|0,0:0|0:0,0:0:0:0:
92,88,110165,1,2,0:0:0:0:
92,88,110264,2,0,L|111:2,1,87.5,8|0,0:0|0:0,0:0:0:0:
0,192,110461,6,0,P|66:235|180:192,1,175,8|8,0:0|0:3,0:0:0:0:
368,108,110757,1,8,0:3:0:0:
464,120,110855,6,0,P|491:150|448:276,1,175,6|0,0:0|0:0,0:0:0:0:
272,280,111151,1,0,0:0:0:0:
248,188,111250,2,0,L|266:39,1,87.5,8|8,0:3|0:3,0:0:0:0:
424,36,111447,1,8,0:3:0:0:
464,120,111546,1,8,0:3:0:0:
440,212,111645,6,0,L|332:204,1,87.5,8|0,0:0|0:0,0:0:0:0:
272,280,111842,1,2,0:0:0:0:
272,280,111941,2,0,L|164:272,1,87.5,8|0,0:0|0:0,0:0:0:0:
88,328,112138,1,2,0:0:0:0:
88,328,112237,2,0,L|-16:320,1,87.5,8|0,0:0|0:0,0:0:0:0:
0,172,112434,6,0,L|8:100,4,58.3333333333333,8|0|0|0|2,0:0|0:0|0:0|0:0|0:3,0:0:0:0:
104,228,112829,6,0,P|116:176|84:88,1,105.000004005432,8|0,0:0|0:0,0:0:0:0:
40,32,113026,1,2,0:0:0:0:
216,112,113125,6,0,L|340:96,1,105.000004005432,8|0,0:0|0:0,0:0:0:0:
432,136,113322,1,2,0:0:0:0:
320,316,113421,6,0,P|308:276|320:211,1,105.000004005432,8|0,0:0|0:0,0:0:0:0:
379,34,113618,6,0,B|462:2|506:153|366:153|366:153|300:276|188:167|255:108,1,476.00000907898,12|0,0:0|0:0,0:0:0:0:
