osu file format v14

[General]
AudioFilename: audio.mp3
AudioLeadIn: 0
PreviewTime: 66546
Countdown: 0
SampleSet: Normal
StackLeniency: 0.2
Mode: 0
LetterboxInBreaks: 0
WidescreenStoryboard: 1

[Editor]
Bookmarks: 2697,16908,29540,42171,54803,67434,81645,95855,108487,114408
DistanceSpacing: 0.2
BeatDivisor: 4
GridSize: 4
TimelineZoom: 2.6

[Metadata]
Title:Nekozamurai no Gyakushu
TitleUnicode:猫侍の逆襲
Artist:Nekomata Master
ArtistUnicode:猫叉Master
Creator:moph
Version:Insane
Source:GITADORA
Tags:naoyuki sato follow slowly neko samurai jubeat saucer pop'n music kwk alheak
BeatmapID:1432015
BeatmapSetID:518743

[Difficulty]
HPDrainRate:6
CircleSize:4
OverallDifficulty:7
ApproachRate:9
SliderMultiplier:2.3
SliderTickRate:1

[Events]
//Background and Video events
0,0,"bg.jpg",0,0
//Break Periods
//Storyboard Layer 0 (Background)
//Storyboard Layer 1 (Fail)
//Storyboard Layer 2 (Pass)
//Storyboard Layer 3 (Foreground)
//Storyboard Sound Samples

[TimingPoints]
1119,394.736842105263,4,1,1,50,1,0
1119,-133.333333333333,4,1,1,50,0,0
2697,-133.333333333333,4,1,1,60,0,0
16908,-100,4,1,1,70,0,0
66645,-133.333333333333,4,1,1,70,0,0
67434,-80,4,1,1,80,0,1
74540,-100,4,1,1,80,0,1
75329,-80,4,1,1,80,0,1
81250,-80,4,1,1,80,0,0
81645,-80,4,1,1,80,0,1
89540,-68.9655172413793,4,1,1,80,0,1
90329,-80,4,1,1,80,0,1
95855,-100,4,1,1,70,0,0
113717,-100,4,1,1,20,0,0
114408,-100,4,1,1,5,0,0

[Colours]
Combo1 : 169,117,189
Combo2 : 184,80,80
Combo3 : 83,114,187
Combo4 : 218,131,78

[HitObjects]
360,177,1119,5,8,0:3:0:0:
282,138,1316,2,0,L|274:267,1,129.375004935265,8|0,0:0|0:0,0:0:0:0:
273,293,1711,1,8,0:0:0:0:
64,306,1908,2,0,P|101:256|174:258,1,129.375004935265,0|0,3:0|0:0,0:0:0:0:
186,264,2303,1,8,0:3:0:0:
204,348,2500,1,4,0:3:0:0:
391,270,2697,5,4,0:0:0:0:
409,354,2894,1,0,0:0:0:0:
325,330,3092,1,0,0:0:0:0:
305,245,3290,1,0,0:0:0:0:
473,295,3487,5,0,0:0:0:0:
325,330,3684,1,0,0:0:0:0:
453,208,3882,1,0,0:0:0:0:
409,354,4079,1,0,0:0:0:0:
370,184,4276,6,0,L|415:101,1,86.2500032901765,0|0,0:0|0:0,0:0:0:0:
353,43,4671,2,0,L|308:126,1,86.2500032901765,0|0,0:0|0:0,0:0:0:0:
119,101,5066,2,0,P|164:90|224:139,1,129.375004935265,8|0,0:3|0:0,0:0:0:0:
225,165,5461,1,2,0:0:0:0:
165,226,5658,1,2,0:0:0:0:
339,270,5855,5,4,0:0:0:0:
279,332,6052,1,0,0:0:0:0:
250,248,6250,1,0,0:0:0:0:
308,183,6448,1,0,0:0:0:0:
364,349,6645,5,0,0:0:0:0:
250,248,6842,1,0,0:0:0:0:
424,284,7040,1,0,0:0:0:0:
279,332,7237,1,2,0:3:0:0:
270,335,7336,1,2,0:3:0:0:
261,337,7434,5,4,0:0:0:0:
178,309,7632,1,8,0:0:0:0:
61,366,7829,1,4,0:0:0:0:
64,335,7928,1,0,0:0:0:0:
68,305,8026,1,8,0:0:0:0:
72,275,8125,1,2,0:3:0:0:
76,244,8224,1,6,0:0:0:0:
7,191,8421,1,2,0:0:0:0:
152,205,8618,1,6,0:0:0:0:
92,70,8816,1,0,0:0:0:0:
91,78,8915,1,0,0:0:0:0:
90,86,9013,5,6,0:0:0:0:
150,24,9210,1,0,0:0:0:0:
179,108,9408,1,0,0:0:0:0:
121,173,9606,1,0,0:0:0:0:
65,7,9803,5,0,0:0:0:0:
179,108,10000,1,0,0:0:0:0:
5,72,10198,1,0,0:0:0:0:
150,24,10395,1,0,0:0:0:0:
37,154,10592,6,0,P|14:222|41:289,1,129.375004935265,2|0,0:3|0:0,0:0:0:0:
43,290,10987,2,0,L|139:290,1,86.2500032901765
216,351,11382,1,2,0:3:0:0:
245,344,11480,1,0,0:0:0:0:
274,336,11579,1,0,0:0:0:0:
303,328,11678,1,0,0:0:0:0:
332,320,11776,2,0,L|428:355,1,86.2500032901765,2|0,0:3|0:0,0:0:0:0:
425,354,12072,1,0,0:0:0:0:
437,358,12171,6,0,B|406:280|406:280|438:187,2,172.500006580353,6|2|2,0:0|0:0|0:0,0:0:0:0:
508,308,13158,1,0,0:0:0:0:
348,213,13355,2,0,B|306:205|306:205|240:216,1,86.2500032901765,2|2,0:0|0:0,0:0:0:0:
147,258,13750,5,2,0:0:0:0:
111,161,13947,1,2,0:3:0:0:
114,169,14046,1,0,0:0:0:0:
116,177,14145,1,2,0:0:0:0:
79,70,14342,1,2,0:3:0:0:
82,78,14441,1,0,0:0:0:0:
84,86,14540,1,2,0:0:0:0:
168,100,14737,1,0,0:0:0:0:
245,61,14934,2,0,B|287:69|287:69|353:58,1,86.2500032901765,2|0,0:0|0:0,0:0:0:0:
342,59,15230,1,0,0:0:0:0:
354,55,15329,6,0,B|396:47|396:47|462:58,1,86.2500032901765,6|2,0:0|0:0,0:0:0:0:
493,121,15724,1,2,0:0:0:0:
451,265,15921,1,0,0:0:0:0:
454,272,16020,1,0,0:0:0:0:
457,279,16118,2,0,B|415:287|415:287|349:276,1,86.2500032901765,12|8,0:0|0:3,0:0:0:0:
359,279,16415,1,8,0:3:0:0:
346,276,16513,2,0,L|343:319,1,43.1250016450883,8|0,0:0|0:0,0:0:0:0:
246,357,16711,2,0,L|248:313,1,43.1250016450883,8|0,0:0|0:0,0:0:0:0:
104,240,16908,6,0,B|177:244|177:244|198:225|198:225|275:228,1,172.5,4|2,0:0|0:3,0:0:0:0:
251,94,17303,2,0,B|242:127|242:127|254:162,1,57.5,2|0,0:0|0:0,0:0:0:0:
345,192,17500,1,8,0:0:0:0:
355,196,17599,1,0,0:0:0:0:
365,200,17697,2,0,B|398:115|398:115|352:20,1,172.5,8|2,0:3|0:3,0:0:0:0:
480,139,18092,2,0,L|457:198,1,57.5,2|0,0:0|0:0,0:0:0:0:
507,273,18290,1,8,0:0:0:0:
496,277,18388,1,0,0:0:0:0:
485,282,18487,6,0,B|415:276|415:276|386:296|386:296|305:293,1,172.5,8|2,0:3|0:3,0:0:0:0:
200,353,18882,2,0,P|231:358|276:346,1,57.5,2|0,0:0|0:0,0:0:0:0:
280,220,19079,1,8,0:0:0:0:
270,213,19178,1,0,0:0:0:0:
259,208,19276,6,0,P|228:203|183:215,1,57.5,2|0,0:0|0:0,0:0:0:0:
83,142,19474,2,0,P|92:168|110:191,1,57.5,8|0,0:0|0:0,0:0:0:0:
116,324,19671,2,0,P|134:302|145:275,1,57.5,2|0,0:0|0:0,0:0:0:0:
167,120,19868,1,8,0:3:0:0:
163,108,19967,1,8,0:3:0:0:
159,96,20066,6,0,B|236:93|236:93|254:109|254:109|333:106,1,172.5,6|2,0:0|0:3,0:0:0:0:
480,32,20461,2,0,P|426:42|428:133,1,115,2|8,0:0|0:0,0:0:0:0:
410,103,20757,1,0,0:0:0:0:
416,113,20855,2,0,B|440:163|440:163|416:229,1,115,8|0,0:3|0:0,0:0:0:0:
362,285,21151,1,2,0:3:0:0:
362,285,21250,2,0,P|407:304|487:273,1,115,2|8,0:0|0:0,0:0:0:0:
288,228,21546,1,0,0:0:0:0:
288,228,21645,6,0,P|269:273|300:353,1,115,8|0,0:3|0:0,0:0:0:0:
340,154,21941,1,2,0:3:0:0:
340,154,22040,2,0,P|295:135|215:166,1,115,2|8,0:0|0:0,0:0:0:0:
196,229,22336,1,0,0:0:0:0:
196,229,22434,6,0,P|178:246|131:262,1,57.5,2|0,0:0|0:0,0:0:0:0:
98,329,22632,2,0,P|81:311|65:264,1,57.5,8|0,0:0|0:0,0:0:0:0:
0,229,22829,2,0,P|18:212|65:196,1,57.5,2|0,0:0|0:0,0:0:0:0:
98,129,23027,2,0,P|115:147|131:194,1,57.5,8|0,0:0|0:0,0:0:0:0:
189,331,23224,6,0,B|239:307|290:331|263:346|316:370|370:337,1,172.5,6|2,0:0|0:3,0:0:0:0:
319,214,23618,2,0,B|311:240|311:240|320:269,1,57.5,2|0,0:0|0:0,0:0:0:0:
447,315,23816,1,8,0:0:0:0:
457,319,23915,1,0,0:0:0:0:
467,323,24013,2,0,B|502:243|502:243|461:158,1,172.5,8|2,0:3|0:3,0:0:0:0:
340,244,24408,2,0,L|418:243,1,57.5,2|0,0:0|0:0,0:0:0:0:
508,86,24605,1,8,0:0:0:0:
498,78,24704,1,0,0:0:0:0:
489,70,24803,6,0,P|414:81|365:166,1,172.5,8|2,0:3|0:3,0:0:0:0:
231,124,25197,2,0,P|261:118|293:125,1,57.5,2|0,0:0|0:0,0:0:0:0:
340,244,25395,1,8,0:0:0:0:
331,251,25493,1,0,0:0:0:0:
322,258,25592,2,0,P|291:263|259:256,1,57.5,2|0,0:0|0:0,0:0:0:0:
231,343,25790,2,0,P|204:327|184:301,1,57.5,8|0,0:0|0:0,0:0:0:0:
106,351,25987,2,0,P|95:322|96:289,1,57.5,2|0,0:0|0:0,0:0:0:0:
31,191,26184,1,8,0:3:0:0:
37,200,26283,1,8,0:3:0:0:
42,209,26382,6,0,B|116:200|116:200|132:215|132:215|215:206,1,172.5,4|2,0:0|0:3,0:0:0:0:
161,78,26776,2,0,B|154:105|154:105|173:154,1,57.5,2|0,0:0|0:0,0:0:0:0:
308,201,26974,1,8,0:0:0:0:
312,190,27072,1,0,0:0:0:0:
317,179,27171,2,0,B|279:104|279:104|321:13,1,172.5,8|2,0:3|0:3,0:0:0:0:
439,105,27566,2,0,L|364:105,1,57.5,2|0,0:0|0:0,0:0:0:0:
382,240,27763,1,8,0:0:0:0:
389,248,27862,1,0,0:0:0:0:
396,256,27961,6,0,P|326:301|232:274,1,172.5,4|2,0:0|0:3,0:0:0:0:
107,331,28355,2,0,P|135:336|172:321,1,57.5,2|0,0:0|0:0,0:0:0:0:
120,194,28553,2,0,L|128:254,1,57.5,8|0,0:0|0:0,0:0:0:0:
17,149,28750,1,2,0:3:0:0:
36,116,28848,1,2,0:3:0:0:
67,93,28947,1,8,0:3:0:0:
103,81,29046,1,8,0:3:0:0:
141,84,29144,1,8,0:3:0:0:
176,99,29243,1,8,0:3:0:0:
203,126,29342,2,0,L|260:124,1,57.5,8|8,0:0|0:0,0:0:0:0:
348,92,29540,6,0,L|468:92,1,115,6|0,0:0|0:0,0:0:0:0:
399,184,29836,1,8,0:0:0:0:
399,184,29934,2,0,B|391:214|391:214|403:258,1,57.5,2|0,0:0|0:0,0:0:0:0:
490,273,30132,2,0,B|498:303|498:303|486:347,1,57.5,8|0,0:0|0:0,0:0:0:0:
397,359,30329,2,0,B|345:338|345:338|284:361,1,115,2|8,0:0|0:0,0:0:0:0:
191,352,30625,1,0,0:0:0:0:
191,352,30724,2,0,B|128:374,1,57.5,2|0,0:0|0:0,0:0:0:0:
35,311,30921,2,0,B|98:289,1,57.5,8|0,0:0|0:0,0:0:0:0:
33,211,31118,6,0,B|13:154|13:154|42:84,1,115,2|0,0:0|0:0,0:0:0:0:
116,163,31415,1,8,0:0:0:0:
116,163,31513,2,0,L|181:171,1,57.5,2|0,0:0|0:0,0:0:0:0:
261,214,31711,2,0,L|268:156,1,57.5,8|0,0:0|0:0,0:0:0:0:
309,67,31908,2,0,L|244:59,1,57.5,2|0,0:0|0:0,0:0:0:0:
164,17,32106,2,0,L|156:74,1,57.5,8|0,0:0|0:0,0:0:0:0:
116,163,32303,2,0,L|181:171,1,57.5,2|0,0:0|0:0,0:0:0:0:
370,140,32500,1,8,0:0:0:0:
370,140,32599,1,2,0:0:0:0:
370,140,32697,6,0,B|350:189|350:189|368:254,1,115,6|0,0:0|0:0,0:0:0:0:
428,324,32993,1,8,0:0:0:0:
428,324,33092,2,0,P|385:342|315:331,1,115,2|8,0:0|0:0,0:0:0:0:
264,251,33388,1,0,0:0:0:0:
264,251,33487,2,0,P|181:256|149:315,1,115,2|8,0:0|0:0,0:0:0:0:
95,355,33783,1,0,0:0:0:0:
95,355,33882,2,0,P|124:361|163:349,1,57.5,2|0,0:0|0:0,0:0:0:0:
234,329,34079,1,8,0:0:0:0:
234,329,34178,1,0,0:0:0:0:
234,329,34276,5,2,0:0:0:0:
126,191,34474,1,0,0:0:0:0:
126,191,34572,1,8,0:0:0:0:
126,191,34671,2,0,B|119:164|119:164|130:127,1,57.5,2|0,0:0|0:0,0:0:0:0:
238,26,34868,1,8,0:0:0:0:
238,26,34966,1,0,0:0:0:0:
238,26,35066,2,0,B|243:57|243:57|232:98,1,57.5,2|0,0:0|0:0,0:0:0:0:
127,135,35263,2,0,L|87:135,2,38.3333333333333,8|0|0,0:0|0:0|0:0,0:0:0:0:
207,165,35461,2,0,L|267:165,1,57.5,2|0,0:0|0:0,0:0:0:0:
379,62,35658,1,8,0:0:0:0:
379,62,35757,1,0,0:0:0:0:
379,62,35855,6,0,B|359:114|359:114|380:182,1,115,6|0,0:0|0:0,0:0:0:0:
459,222,36151,1,8,0:0:0:0:
459,222,36250,2,0,L|445:298,1,57.5,2|0,0:0|0:0,0:0:0:0:
362,359,36447,2,0,L|348:283,1,57.5,8|0,0:0|0:0,0:0:0:0:
323,161,36645,2,0,L|334:218,1,57.5,2|0,0:0|0:0,0:0:0:0:
226,297,36842,2,0,L|237:241,1,57.5,8|0,0:0|0:0,0:0:0:0:
51,188,37040,2,0,P|99:209|161:193,1,115,2|8,0:0|0:0,0:0:0:0:
111,21,37336,1,0,0:0:0:0:
111,21,37434,6,0,B|89:74|89:74|118:156,1,115,2|0,0:0|0:0,0:0:0:0:
200,81,37730,1,8,0:0:0:0:
200,81,37829,2,0,L|272:71,1,57.5,2|0,0:0|0:0,0:0:0:0:
254,211,38026,2,0,B|241:180|241:180|250:137,1,57.5,8|0,0:0|0:0,0:0:0:0:
390,161,38224,2,0,L|318:171,1,57.5,2|0,0:0|0:0,0:0:0:0:
336,31,38421,2,0,B|349:62|349:62|340:105,1,57.5,8|0,0:0|0:0,0:0:0:0:
352,254,38618,2,0,P|305:289|308:363,1,115,2|8,0:0|0:0,0:0:0:0:
386,379,38915,1,0,0:0:0:0:
386,379,39013,6,0,P|433:344|430:270,1,115,2|0,0:0|0:0,0:0:0:0:
352,254,39309,1,8,0:0:0:0:
352,254,39408,1,2,0:0:0:0:
163,341,39605,1,8,0:0:0:0:
163,341,39704,1,0,0:0:0:0:
162,340,39803,2,0,P|91:366|39:274,1,172.5,2|0,0:0|0:0,0:0:0:0:
40,272,40197,1,2,0:0:0:0:
193,238,40395,1,8,0:0:0:0:
193,238,40493,1,0,0:0:0:0:
193,238,40592,6,0,L|127:232,1,57.5,2|0,0:0|0:0,0:0:0:0:
21,161,40790,2,0,L|87:167,1,57.5,8|0,0:0|0:0,0:0:0:0:
193,228,40987,2,0,L|127:222,1,57.5,2|0,0:0|0:0,0:0:0:0:
21,151,41185,2,0,L|87:157,1,57.5,8|0,0:0|0:0,0:0:0:0:
159,94,41382,5,8,0:3:0:0:
196,78,41480,1,8,0:3:0:0:
237,77,41579,1,8,0:3:0:0:
275,93,41678,1,8,0:3:0:0:
308,116,41776,1,8,0:3:0:0:
347,129,41875,1,8,0:3:0:0:
388,126,41974,1,8,0:3:0:0:
425,109,42072,1,8,0:3:0:0:
451,71,42171,6,0,L|442:195,1,115,6|0,0:0|0:0,0:0:0:0:
489,288,42467,2,0,B|436:262|436:262|379:278,1,115,8|0,0:0|0:0,0:0:0:0:
331,340,42763,2,0,L|234:330,1,57.5,2|0,0:0|0:0,0:0:0:0:
192,323,42961,1,8,0:0:0:0:
192,323,43355,6,0,B|101:341|101:341|67:370,1,115,2|0,0:0|0:0,0:0:0:0:
12,273,43651,2,0,B|103:255|103:255|137:226,1,115,8|0,0:0|0:0,0:0:0:0:
107,158,43947,2,0,P|146:162|181:187,1,57.5,2|0,0:0|0:0,0:0:0:0:
201,241,44145,1,8,0:0:0:0:
201,241,44342,6,0,P|240:237|275:212,1,57.5,2|0,0:0|0:0,0:0:0:0:
274,149,44540,1,8,0:0:0:0:
274,149,44638,2,0,L|391:169,1,115,2|8,0:0|0:0,0:0:0:0:
399,30,44934,2,0,P|387:60|389:105,1,57.5,2|0,0:0|0:0,0:0:0:0:
466,125,45132,2,0,P|478:155|476:200,1,57.5,10|0,0:0|0:0,0:0:0:0:
393,256,45329,6,0,P|443:272|442:349,1,115,2|2,0:3|0:0,0:0:0:0:
390,381,45625,2,0,P|340:365|341:288,1,115,0|0,0:0|0:0,0:0:0:0:
230,313,45921,2,0,L|160:329,1,57.5,2|0,0:3|0:0,0:0:0:0:
67,358,46118,1,10,0:0:0:0:
67,358,46217,1,0,0:0:0:0:
67,358,46316,1,2,0:0:0:0:
67,358,46415,1,2,0:0:0:0:
67,358,46513,6,0,B|84:306|84:306|59:241,1,115,2|0,0:0|0:0,0:0:0:0:
14,164,46809,2,0,P|70:154|137:194,1,115,8|0,0:0|0:0,0:0:0:0:
156,252,47105,2,0,P|183:230|200:198,1,57.5,2|0,0:0|0:0,0:0:0:0:
188,128,47303,1,8,0:0:0:0:
188,128,47401,2,0,B|242:146|242:146|316:125,1,115,10|8,0:0|0:0,0:0:0:0:
358,67,47697,6,0,L|364:29,4,38.3333333333333,2|2|2|0|0,0:3|0:3|0:3|0:0|0:0,0:0:0:0:
383,152,48092,2,0,L|412:176,4,38.3333333333333,2|2|2|2|0,0:3|0:3|0:3|0:0|0:0,0:0:0:0:
328,216,48487,6,0,B|308:272|308:272|332:348,1,115,2|0,0:0|0:0,0:0:0:0:
244,328,48783,2,0,B|159:318|159:318|97:355,1,115,8|0,0:0|0:0,0:0:0:0:
55,354,49079,2,0,P|56:311|71:280,1,57.5,8|0,0:0|0:0,0:0:0:0:
118,241,49276,1,2,0:0:0:0:
56,62,49474,1,2,0:3:0:0:
56,62,49572,1,2,0:3:0:0:
56,62,49671,6,0,B|31:114|31:114|67:192,1,115,6|0,0:0|0:0,0:0:0:0:
120,118,49967,2,0,B|170:115|170:115|183:123|183:123|240:117,1,115,2|0,0:0|0:0,0:0:0:0:
272,47,50263,2,0,P|311:88|310:135,1,57.5,2|0,0:0|0:0,0:0:0:0:
299,168,50461,6,0,P|330:168|386:128,2,76.6666666666667,8|2|2,0:0|0:0|0:0,0:0:0:0:
329,15,50855,2,0,P|313:41|320:110,2,76.6666666666667,8|2|2,0:0|0:0|0:0,0:0:0:0:
445,119,51250,2,0,P|429:92|366:63,2,76.6666666666667,8|2|2,0:0|0:0|0:0,0:0:0:0:
427,208,51645,6,0,B|403:260|403:260|433:330,1,115,2|0,0:0|0:0,0:0:0:0:
353,348,51941,2,0,P|286:366|235:341,1,115,0|0,0:0|0:0,0:0:0:0:
205,279,52237,2,0,P|180:300|167:326,1,57.5,2|0,0:0|0:0,0:0:0:0:
96,357,52434,2,0,L|5:360,2,76.6666666666667,8|2|2,0:0|0:0|0:0,0:0:0:0:
56,256,52829,6,0,B|37:201|37:201|57:129,1,115,2|0,0:0|0:0,0:0:0:0:
56,135,53125,1,0,0:0:0:0:
61,124,53224,2,0,L|121:148,1,57.5,0|0,0:0|0:0,0:0:0:0:
142,69,53421,2,0,L|202:93,1,57.5,2|0,0:0|0:0,0:0:0:0:
298,121,53618,1,8,0:3:0:0:
339,110,53716,1,8,0:3:0:0:
381,100,53815,1,8,0:3:0:0:
423,90,53914,1,2,0:3:0:0:
465,80,54013,6,0,B|446:134|446:134|472:196,1,115,0|0,0:0|0:0,0:0:0:0:
418,325,54408,1,8,0:3:0:0:
418,325,54506,1,8,0:3:0:0:
418,325,54605,1,2,0:0:0:0:
418,325,54704,1,0,0:0:0:0:
418,325,54803,6,0,L|476:324,3,57.5,12|0|10|8,0:3|0:0|0:3|0:3,0:0:0:0:
351,245,55197,2,0,B|323:237|323:237|275:251,1,57.5,12|0,0:3|0:0,0:0:0:0:
276,324,55395,2,0,B|248:332|248:332|200:318,1,57.5,10|8,0:3|0:3,0:0:0:0:
140,322,55592,2,0,L|47:356,2,76.6666666666667,6|0|0,0:3|0:0|0:0,0:0:0:0:
69,240,55987,5,12,0:3:0:0:
53,208,56086,1,0,0:0:0:0:
49,173,56184,1,10,0:3:0:0:
56,139,56283,1,8,0:3:0:0:
70,107,56382,2,0,L|11:132,1,57.5,12|0,0:3|0:0,0:0:0:0:
138,178,56579,2,0,L|197:153,1,57.5,10|8,0:3|0:3,0:0:0:0:
274,20,56776,2,0,B|255:75|255:75|287:158,1,115,6|8,0:3|0:0,0:0:0:0:
479,155,57171,5,12,0:3:0:0:
442,132,57269,1,8,0:3:0:0:
400,130,57368,1,10,0:3:0:0:
362,149,57467,1,8,0:3:0:0:
338,184,57565,1,10,0:3:0:0:
335,227,57664,1,8,0:3:0:0:
353,266,57763,1,10,0:3:0:0:
388,290,57861,1,8,0:3:0:0:
431,294,57961,6,0,L|419:362,1,57.5,10|0,0:3|0:0,0:0:0:0:
301,318,58158,2,0,L|313:385,1,57.5,2|0,0:0|0:0,0:0:0:0:
190,245,58355,2,0,L|177:312,1,57.5,10|0,0:3|0:0,0:0:0:0:
59,268,58552,2,0,L|71:335,1,57.5,2|0,0:0|0:0,0:0:0:0:
40,118,58750,6,0,L|45:157,5,38.3333333333333,10|2|2|2|0|0,0:3|0:3|0:3|0:0|0:3|0:3,0:0:0:0:
34,96,59145,2,0,L|96:104,1,57.5,10|0,0:3|0:0,0:0:0:0:
153,161,59342,2,0,L|215:153,1,57.5,2|0,0:3|0:0,0:0:0:0:
279,78,59540,1,10,0:3:0:0:
317,96,59638,1,0,0:0:0:0:
360,97,59737,1,2,0:0:0:0:
401,83,59836,1,0,0:0:0:0:
442,72,59934,1,2,0:0:0:0:
482,87,60033,1,0,0:0:0:0:
502,124,60132,1,2,0:0:0:0:
491,165,60230,1,2,0:0:0:0:
454,183,60329,6,0,B|432:240|432:240|461:309,1,115,4|0,0:0|0:0,0:0:0:0:
360,382,60625,1,0,0:0:0:0:
360,382,60724,2,0,B|382:325|382:325|353:256,1,115,8|8,0:0|0:3,0:0:0:0:
354,259,61020,1,8,0:3:0:0:
346,243,61118,5,4,0:0:0:0:
121,316,61316,2,0,B|196:316|196:316|217:332|217:332|296:330,1,172.5,6|0,0:0|0:0,0:0:0:0:
256,252,61711,1,8,0:0:0:0:
256,252,61809,1,2,0:0:0:0:
256,252,61908,2,0,B|259:182|259:182|242:156|242:156|249:77,1,172.5,6|0,0:0|0:0,0:0:0:0:
328,138,62303,2,0,P|378:151|435:126,1,115,2|8,0:0|0:0,0:0:0:0:
368,14,62599,1,2,0:0:0:0:
368,14,62697,6,0,B|364:45|364:45|374:71,1,57.5,6|0,0:0|0:0,0:0:0:0:
499,169,62895,2,0,B|503:200|503:200|493:226,1,57.5,8|0,0:0|0:0,0:0:0:0:
387,334,63092,2,0,L|484:348,2,76.6666666666667,2|0|0,0:0|0:0|0:0,0:0:0:0:
225,319,63487,2,0,L|142:339,1,57.5,0|0,0:0|0:0,0:0:0:0:
41,247,63684,2,0,L|124:227,1,57.5,0|0,0:0|0:0,0:0:0:0:
98,374,63882,2,0,B|87:343|87:343|93:304,1,57.5,8|0,0:0|0:0,0:0:0:0:
168,192,64079,2,0,B|179:223|179:223|173:262,1,57.5,2|0,0:0|0:0,0:0:0:0:
33,106,64276,6,0,B|88:126|88:126|179:95,1,115,6|0,0:0|0:0,0:0:0:0:
204,48,64572,2,0,B|257:29|257:29|312:49,1,115,8|0,0:0|0:0,0:0:0:0:
327,135,64868,2,0,P|364:119|387:83,1,57.5,2|0,0:0|0:0,0:0:0:0:
393,21,65066,1,8,0:0:0:0:
491,205,65263,1,8,0:3:0:0:
491,205,65362,1,8,0:3:0:0:
491,205,65461,6,0,P|445:187|379:211,1,115,6|0,0:0|0:0,0:0:0:0:
441,272,65757,2,0,B|465:327|465:327|444:381,1,115,8|0,0:0|0:0,0:0:0:0:
373,329,66053,2,0,L|302:328,1,57.5,2|0,0:0|0:0,0:0:0:0:
233,357,66250,1,8,0:0:0:0:
249,216,66447,6,0,B|259:250|259:250|247:281,1,57.5,8|8,0:3|0:3,0:0:0:0:
164,303,66645,6,0,B|114:295|114:295|94:305|94:305|13:295,1,129.375004935265,6|0,0:0|0:0,0:0:0:0:
25,219,67040,2,0,B|83:226|83:226|103:216|103:216|184:226,1,129.375004935265,6|0,0:0|0:0,0:0:0:0:
140,131,67434,6,0,P|176:86|270:127,1,143.75,6|0,0:0|0:0,0:0:0:0:
324,149,67730,1,8,0:0:0:0:
324,149,67829,2,0,B|335:93|335:93|323:68|323:68|337:-1,1,143.75,2|8,0:0|0:0,0:0:0:0:
415,52,68125,1,0,0:0:0:0:
415,52,68224,6,0,L|498:64,1,71.875,2|0,0:0|0:0,0:0:0:0:
475,144,68421,2,0,L|392:132,1,71.875,8|0,0:0|0:0,0:0:0:0:
334,262,68618,2,0,B|324:296|324:296|340:339,1,71.875,2|0,0:0|0:0,0:0:0:0:
415,293,68816,2,0,B|425:259|425:259|409:216,1,71.875,8|0,0:0|0:0,0:0:0:0:
245,230,69013,6,0,P|210:229|176:248,1,71.875,2|0,0:0|0:0,0:0:0:0:
44,279,69211,2,0,P|79:278|113:297,1,71.875,0|8,0:0|0:0,0:0:0:0:
232,379,69408,2,0,B|242:345|242:345|221:291,1,71.875,2|0,0:0|0:0,0:0:0:0:
87,195,69605,2,0,B|77:161|77:161|98:107,1,71.875,8|0,0:0|0:0,0:0:0:0:
238,98,69803,6,0,B|270:165|270:165|233:260,1,143.75,2|8,0:0|0:0,0:0:0:0:
347,229,70099,1,0,0:0:0:0:
347,229,70197,2,0,L|426:238,1,71.875,2|0,0:0|0:0,0:0:0:0:
396,346,70395,1,8,0:0:0:0:
374,344,70493,1,0,0:0:0:0:
352,343,70592,5,6,0:0:0:0:
199,340,70790,2,0,P|167:322|132:318,1,71.875,0|8,0:0|0:0,0:0:0:0:
53,348,70987,2,0,B|48:298|48:298|63:267|63:267|53:208,1,143.75,2|8,0:0|0:0,0:0:0:0:
15,93,71283,1,0,0:0:0:0:
15,93,71382,2,0,P|85:102|153:15,1,143.75,2|8,0:0|0:0,0:0:0:0:
259,165,71678,1,0,0:0:0:0:
259,165,71776,2,0,P|216:164|180:137,1,71.875,2|0,0:0|0:0,0:0:0:0:
234,28,71974,2,0,P|277:29|313:56,1,71.875,8|0,0:0|0:0,0:0:0:0:
473,96,72171,6,0,P|403:87|335:174,1,143.75,2|0,0:0|0:0,0:0:0:0:
429,244,72467,1,8,0:0:0:0:
429,244,72566,2,0,B|437:210|437:210|425:172,1,71.875,2|0,0:0|0:0,0:0:0:0:
334,264,72763,2,0,B|326:298|326:298|338:336,1,71.875,8|0,0:0|0:0,0:0:0:0:
224,347,72961,5,2,0:0:0:0:
178,368,73059,1,0,0:0:0:0:
127,367,73158,1,8,0:0:0:0:
82,342,73257,1,0,0:0:0:0:
54,299,73355,1,10,0:3:0:0:
49,249,73454,1,8,0:3:0:0:
68,201,73553,1,8,0:3:0:0:
106,168,73651,1,8,0:3:0:0:
155,156,73750,6,0,B|125:225|125:225|164:299,1,143.75,6|0,0:0|0:0,0:0:0:0:
224,347,74046,1,8,0:0:0:0:
224,347,74145,2,0,B|254:278|254:278|215:204,1,143.75,2|8,0:0|0:0,0:0:0:0:
264,116,74441,1,0,0:0:0:0:
264,116,74540,6,0,L|315:89,1,57.5,2|0,0:0|0:0,0:0:0:0:
375,29,74737,2,0,L|403:80,1,57.5,8|0,0:0|0:0,0:0:0:0:
471,141,74934,2,0,L|420:166,1,57.5,2|0,0:0|0:0,0:0:0:0:
359,226,75131,2,0,L|332:176,1,57.5,8|0,0:0|0:0,0:0:0:0:
369,16,75329,6,0,L|402:79,1,71.875,2|0,0:0|0:0,0:0:0:0:
366,240,75526,2,0,L|326:167,1,71.875,0|8,0:0|0:0,0:0:0:0:
482,132,75724,2,0,L|418:166,1,71.875,2|0,0:0|0:0,0:0:0:0:
251,122,75921,2,0,L|314:89,1,71.875,8|0,0:0|0:0,0:0:0:0:
479,253,76118,6,0,P|404:249|366:318,1,143.75,2|8,0:0|0:0,0:0:0:0:
272,338,76415,1,0,0:0:0:0:
272,338,76513,2,0,P|223:330|177:285,1,71.875,2|0,0:0|0:0,0:0:0:0:
65,295,76711,2,0,P|114:287|160:242,1,71.875,8|0,0:0|0:0,0:0:0:0:
205,100,76908,6,0,B|175:164|175:164|207:242,1,143.75,6|0,0:0|0:0,0:0:0:0:
276,173,77204,1,8,0:0:0:0:
276,173,77303,2,0,B|333:172|333:172|360:186|360:186|438:184,1,143.75,2|8,0:0|0:0,0:0:0:0:
501,224,77599,1,0,0:0:0:0:
501,224,77697,6,0,B|509:191|509:191|502:154,1,71.875,2|0,0:0|0:0,0:0:0:0:
388,34,77895,2,0,B|380:67|380:67|387:104,1,71.875,8|0,0:0|0:0,0:0:0:0:
275,243,78092,2,0,B|283:210|283:210|276:173,1,71.875,2|0,0:0|0:0,0:0:0:0:
162,53,78290,2,0,B|154:86|154:86|161:123,1,71.875,8|0,0:0|0:0,0:0:0:0:
19,201,78487,6,0,P|100:208|112:308,1,143.75,2|0,0:0|0:0,0:0:0:0:
96,346,78783,1,8,0:0:0:0:
96,346,78882,2,0,B|162:347|162:347|178:330|178:330|253:332,1,143.75,2|8,0:0|0:0,0:0:0:0:
324,347,79178,1,0,0:0:0:0:
324,347,79276,2,0,B|296:282|296:282|327:202,1,143.75,2|8,0:0|0:0,0:0:0:0:
493,245,79572,1,0,0:0:0:0:
493,245,79671,2,0,B|455:253|455:253|396:243,1,71.875,2|0,0:0|0:0,0:0:0:0:
322,213,79868,1,8,0:0:0:0:
462,77,80066,6,0,B|424:69|424:69|365:79,1,71.875,2|0,0:0|0:0,0:0:0:0:
251,210,80263,2,0,B|289:218|289:218|348:208,1,71.875,0|8,0:0|0:0,0:0:0:0:
290,38,80461,2,0,B|282:76|282:76|287:108,1,71.875,2|0,0:0|0:0,0:0:0:0:
423,248,80658,2,0,B|431:210|431:210|425:177,1,71.875,8|0,0:0|0:0,0:0:0:0:
391,74,80855,5,2,0:0:0:0:
362,331,81053,1,8,0:0:0:0:
171,178,81250,1,8,0:3:0:0:
156,175,81349,1,8,0:3:0:0:
141,172,81447,1,8,0:3:0:0:
126,170,81546,1,8,0:3:0:0:
111,167,81645,6,0,B|84:235|84:235|112:302,1,143.75,6|0,0:0|0:0,0:0:0:0:
195,259,81941,1,8,0:0:0:0:
195,259,82040,2,0,B|255:263|255:263|274:249|274:249|355:253,1,143.75,2|8,0:0|0:0,0:0:0:0:
411,303,82336,1,0,0:0:0:0:
411,303,82435,6,0,L|494:303,1,71.875,2|0,0:0|0:0,0:0:0:0:
480,209,82632,2,0,L|397:209,1,71.875,8|0,0:0|0:0,0:0:0:0:
309,56,82829,2,0,B|320:92|320:92|302:151,1,71.875,2|0,0:0|0:0,0:0:0:0:
229,177,83026,2,0,B|218:140|218:140|235:81,1,71.875,8|0,0:0|0:0,0:0:0:0:
46,196,83224,6,0,P|78:195|126:162,1,71.875,2|0,0:0|0:0,0:0:0:0:
235,276,83421,2,0,P|202:275|154:242,1,71.875,0|8,0:0|0:0,0:0:0:0:
227,108,83618,2,0,B|239:140|239:140|228:177,1,71.875,2|0,0:0|0:0,0:0:0:0:
84,283,83816,2,0,B|72:314|72:314|83:351,1,71.875,8|0,0:0|0:0,0:0:0:0:
303,355,84013,6,0,B|365:357|365:357|381:345|381:345|442:348,1,143.75,2|8,0:0|0:0,0:0:0:0:
333,203,84310,1,0,0:0:0:0:
333,203,84408,2,0,B|327:240|327:240|335:273,1,71.875,2|0,0:0|0:0,0:0:0:0:
456,238,84606,1,8,0:0:0:0:
434,236,84704,1,0,0:0:0:0:
412,235,84803,5,6,0:0:0:0:
306,82,85000,2,0,L|397:81,1,71.875,0|8,0:0|0:0,0:0:0:0:
430,13,85197,2,0,B|468:73|468:73|432:160,1,143.75,2|8,0:0|0:0,0:0:0:0:
333,203,85494,1,0,0:0:0:0:
333,203,85592,2,0,B|295:263|295:263|331:350,1,143.75,2|8,0:0|0:0,0:0:0:0:
231,354,85889,1,0,0:0:0:0:
231,354,85987,2,0,P|197:363|151:350,1,71.875,2|0,0:0|0:0,0:0:0:0:
31,284,86184,2,0,P|65:275|111:288,1,71.875,8|0,0:0|0:0,0:0:0:0:
192,132,86382,6,0,B|163:201|163:201|191:266,1,143.75,2|0,0:0|0:0,0:0:0:0:
261,203,86678,1,8,0:0:0:0:
261,203,86776,2,0,L|343:203,1,71.875,2|0,0:0|0:0,0:0:0:0:
100,147,86974,2,0,L|18:147,1,71.875,8|0,0:0|0:0,0:0:0:0:
124,48,87171,5,2,0:0:0:0:
170,27,87269,1,0,0:0:0:0:
221,28,87368,1,8,0:0:0:0:
266,53,87467,1,0,0:0:0:0:
294,96,87565,1,8,0:3:0:0:
299,146,87664,1,8,0:3:0:0:
280,194,87763,1,8,0:3:0:0:
242,227,87861,1,8,0:3:0:0:
193,242,87961,6,0,B|167:317|167:317|200:390,1,143.75,6|0,0:0|0:0,0:0:0:0:
272,324,88257,1,8,0:0:0:0:
272,324,88356,2,0,B|330:327|330:327|350:311|350:311|419:313,1,143.75,2|8,0:0|0:0,0:0:0:0:
457,233,88651,1,0,0:0:0:0:
457,233,88750,2,0,P|414:181|298:247,1,215.625,2|0,0:0|0:0,0:0:0:0:
148,174,89145,2,0,B|185:170|185:170|226:187,1,71.875,2|0,0:0|0:0,0:0:0:0:
206,276,89342,2,0,B|169:280|169:280|128:263,1,71.875,8|0,0:0|0:0,0:0:0:0:
9,346,89540,6,0,P|45:346|97:313,1,83.3750025444031,6|0,0:0|0:0,0:0:0:0:
310,381,89737,2,0,P|274:374|226:323,1,83.3750025444031,4|8,0:0|0:0,0:0:0:0:
344,102,89934,2,0,P|308:102|254:134,1,83.3750025444031,6|0,0:0|0:0,0:0:0:0:
54,64,90131,2,0,P|90:71|138:119,1,83.3750025444031,12|0,0:0|0:0,0:0:0:0:
110,246,90329,6,0,B|189:228|189:228|258:280,1,143.75,6|8,0:0|0:0,0:0:0:0:
327,300,90626,1,0,0:0:0:0:
327,300,90724,2,0,P|360:309|416:285,1,71.875,10|0,0:0|0:0,0:0:0:0:
427,176,90921,1,10,0:3:0:0:
427,176,91020,1,0,0:0:0:0:
427,176,91119,6,0,P|369:145|280:195,1,143.75,6|0,0:0|0:0,0:0:0:0:
210,198,91415,1,8,0:0:0:0:
211,198,91513,2,0,B|231:128|231:128|200:64,1,143.75,2|8,0:0|0:0,0:0:0:0:
144,139,91809,1,0,0:0:0:0:
144,139,91908,2,0,P|86:170|-3:120,1,143.75,2|8,0:0|0:0,0:0:0:0:
76,19,92204,1,0,0:0:0:0:
76,19,92303,2,0,B|81:54|81:54|75:95,1,71.875,2|0,0:0|0:0,0:0:0:0:
6,273,92500,1,8,0:0:0:0:
6,273,92599,1,0,0:0:0:0:
6,273,92697,6,0,B|66:276|66:276|84:260|84:260|152:263,1,143.75,2|0,0:0|0:0,0:0:0:0:
188,346,92994,1,8,0:0:0:0:
188,346,93092,2,0,P|253:321|339:364,1,143.75,2|8,0:0|0:0,0:0:0:0:
370,265,93388,1,0,0:0:0:0:
370,265,93487,2,0,B|429:262|429:262|447:278|447:278|507:275,1,143.75,2|8,0:0|0:0,0:0:0:0:
471,127,93783,1,0,0:0:0:0:
471,127,93882,2,0,B|485:161|485:161|473:209,1,71.875,2|0,0:0|0:0,0:0:0:0:
319,167,94079,1,8,0:0:0:0:
319,167,94178,1,0,0:0:0:0:
319,167,94277,6,0,L|417:167,1,71.875,2|0,0:0|0:0,0:0:0:0:
391,344,94474,2,0,L|320:344,1,71.875,0|8,0:0|0:0,0:0:0:0:
248,150,94671,2,0,L|346:150,1,71.875,2|0,0:0|0:0,0:0:0:0:
320,361,94868,2,0,L|249:361,1,71.875,8|0,0:0|0:0,0:0:0:0:
116,373,95066,5,8,0:3:0:0:
152,334,95164,1,8,0:3:0:0:
163,282,95263,1,8,0:3:0:0:
146,231,95362,1,8,0:3:0:0:
105,197,95461,2,0,L|21:197,1,71.875,8|0,0:0|0:0,0:0:0:0:
80,16,95658,1,8,0:3:0:0:
104,63,95757,1,8,0:3:0:0:
86,117,95855,6,0,B|159:116|159:116|183:133|183:133|263:133,1,172.5,6|2,0:0|0:3,0:0:0:0:
324,15,96250,2,0,P|318:41|328:90,1,57.5,2|0,0:0|0:0,0:0:0:0:
355,175,96447,1,8,0:0:0:0:
346,167,96546,1,0,0:0:0:0:
338,157,96645,2,0,B|290:232|290:232|334:302,1,172.5,8|2,0:3|0:3,0:0:0:0:
472,272,97040,2,0,P|442:269|395:282,1,57.5,2|0,0:0|0:0,0:0:0:0:
257,341,97237,1,8,0:0:0:0:
247,345,97336,1,0,0:0:0:0:
237,349,97434,6,0,B|168:345|168:345|145:363|145:363|65:359,1,172.5,8|2,0:3|0:3,0:0:0:0:
103,229,97829,2,0,P|114:252|98:315,1,57.5,2|0,0:0|0:0,0:0:0:0:
32,165,98026,1,8,0:0:0:0:
41,159,98125,1,0,0:0:0:0:
52,155,98224,6,0,L|115:149,1,57.5,2|0,0:0|0:0,0:0:0:0:
70,16,98421,2,0,L|75:73,1,57.5,8|0,0:0|0:0,0:0:0:0:
211,37,98618,2,0,L|153:42,1,57.5,2|0,0:0|0:0,0:0:0:0:
193,176,98816,2,0,L|187:118,1,57.5,8|8,0:0|0:3,0:0:0:0:
320,35,99013,6,0,L|339:232,1,172.5,6|2,0:0|0:3,0:0:0:0:
440,281,99408,2,0,P|380:274|335:359,1,115,2|8,0:0|0:0,0:0:0:0:
269,356,99704,1,0,0:0:0:0:
269,356,99803,2,0,P|213:364|169:329,1,115,8|0,0:3|0:0,0:0:0:0:
148,245,100099,1,2,0:3:0:0:
148,245,100197,2,0,L|70:270,1,57.5,2|0,0:0|0:0,0:0:0:0:
18,163,100395,2,0,L|96:188,1,57.5,8|0,0:0|0:0,0:0:0:0:
93,96,100592,6,0,B|152:76|152:76|216:103,1,115,8|0,0:3|0:0,0:0:0:0:
236,175,100888,1,2,0:3:0:0:
236,175,100987,2,0,B|295:195|295:195|360:171,1,115,2|8,0:0|0:0,0:0:0:0:
294,33,101283,1,0,0:0:0:0:
294,33,101382,6,0,B|283:62|283:62|298:101,1,57.5,2|0,0:0|0:0,0:0:0:0:
427,207,101579,2,0,B|438:178|438:178|423:139,1,57.5,8|0,0:0|0:0,0:0:0:0:
266,184,101776,2,0,B|295:195|295:195|334:180,1,57.5,8|0,0:3|0:3,0:0:0:0:
456,63,101974,2,0,B|427:52|427:52|388:67,1,57.5,8|8,0:0|0:3,0:0:0:0:
378,300,102171,6,0,P|302:284|253:368,1,172.5,6|2,0:0|0:3,0:0:0:0:
131,293,102566,2,0,P|163:289|206:304,1,57.5,2|0,0:0|0:0,0:0:0:0:
63,356,102763,1,8,0:0:0:0:
56,346,102862,1,0,0:0:0:0:
49,336,102961,2,0,B|42:272|42:272|59:246|59:246|48:162,1,172.5,8|0,0:3|0:0,0:0:0:0:
191,182,103355,2,0,P|159:186|116:171,1,57.5,2|0,0:0|0:0,0:0:0:0:
65,75,103553,1,8,0:0:0:0:
74,68,103651,1,0,0:0:0:0:
83,61,103750,6,0,B|164:94|164:94|256:57,1,172.5,8|2,0:3|0:3,0:0:0:0:
292,190,104145,2,0,P|287:164|293:125,1,57.5,2|0,0:0|0:0,0:0:0:0:
429,140,104342,1,8,0:0:0:0:
435,149,104441,1,0,0:0:0:0:
441,158,104540,6,0,L|369:158,1,57.5,2|0,0:0|0:0,0:0:0:0:
254,265,104737,2,0,L|326:265,1,57.5,8|0,0:0|0:0,0:0:0:0:
438,375,104934,2,0,L|366:375,1,57.5,2|0,0:0|0:0,0:0:0:0:
197,355,105132,1,8,0:0:0:0:
190,345,105231,1,8,0:3:0:0:
184,334,105330,6,0,B|112:333|112:333|94:349|94:349|12:347,1,172.5,6|0,0:0|0:0,0:0:0:0:
0,238,105724,2,0,L|63:241,1,57.5,2|0,0:0|0:0,0:0:0:0:
174,233,105921,1,8,0:0:0:0:
166,241,106020,1,0,0:0:0:0:
157,248,106118,2,0,B|117:175|117:175|158:83,1,172.5,8|2,0:3|0:3,0:0:0:0:
33,43,106513,2,0,P|58:75|88:91,1,57.5,2|0,0:0|0:0,0:0:0:0:
229,122,106711,1,8,0:0:0:0:
238,127,106809,1,0,0:0:0:0:
248,131,106908,6,0,P|323:108|371:19,1,172.5,8|2,0:3|0:3,0:0:0:0:
495,80,107303,2,0,P|461:84|410:73,1,57.5,2|0,0:0|0:0,0:0:0:0:
370,172,107500,2,0,P|404:168|455:179,1,57.5,8|0,0:0|0:0,0:0:0:0:
475,288,107697,5,8,0:3:0:0:
441,314,107795,1,8,0:3:0:0:
399,323,107894,1,2,0:3:0:0:
357,314,107993,1,0,0:0:0:0:
321,291,108091,1,8,0:3:0:0:
284,269,108190,1,8,0:3:0:0:
242,261,108289,1,8,0:3:0:0:
199,268,108387,1,8,0:3:0:0:
161,288,108487,6,0,L|146:357,1,57.5,12|0,0:0|0:0,0:0:0:0:
44,329,108684,1,2,0:0:0:0:
44,329,108783,2,0,L|59:260,1,57.5,8|0,0:0|0:0,0:0:0:0:
163,184,108980,1,2,0:0:0:0:
163,184,109079,2,0,B|135:189|135:189|91:177,1,57.5,8|0,0:0|0:0,0:0:0:0:
10,91,109276,2,0,B|38:86|38:86|82:98,1,57.5,8|0,0:0|0:0,0:0:0:0:
176,64,109474,1,0,0:0:0:0:
176,64,109572,1,0,0:0:0:0:
176,64,109671,6,0,L|253:100,1,57.5,8|0,0:0|0:0,0:0:0:0:
337,125,109868,1,2,0:0:0:0:
337,125,109967,2,0,L|260:161,1,57.5,8|0,0:0|0:0,0:0:0:0:
163,184,110165,1,2,0:0:0:0:
163,184,110263,2,0,L|240:220,1,57.5,8|0,0:0|0:0,0:0:0:0:
324,245,110461,2,0,L|247:281,1,57.5,8|0,0:0|0:0,0:0:0:0:
172,318,110658,1,8,0:3:0:0:
135,335,110757,1,8,0:3:0:0:
99,353,110855,6,0,L|237:374,1,115,6|0,0:0|0:0,0:0:0:0:
329,348,111151,1,0,0:0:0:0:
329,348,111250,2,0,L|467:369,1,115,8|8,0:3|0:3,0:0:0:0:
436,278,111546,1,8,0:3:0:0:
436,278,111645,6,0,L|452:208,1,57.5,8|0,0:0|0:0,0:0:0:0:
304,212,111842,1,2,0:0:0:0:
304,212,111941,2,0,L|360:224,1,57.5,8|0,0:0|0:0,0:0:0:0:
364,78,112138,1,2,0:0:0:0:
364,78,112237,2,0,L|351:134,1,57.5,8|0,0:0|0:0,0:0:0:0:
499,140,112434,2,0,L|442:127,1,57.5,8|0,0:0|0:0,0:0:0:0:
250,122,112632,1,0,0:0:0:0:
250,122,112730,1,0,0:0:0:0:
250,122,112829,6,0,L|193:109,1,57.5,8|0,0:0|0:0,0:0:0:0:
89,212,113026,1,2,0:0:0:0:
89,212,113125,2,0,L|128:169,1,57.5,8|0,0:0|0:0,0:0:0:0:
91,34,113322,1,2,0:0:0:0:
91,34,113421,2,0,L|107:88,1,57.5,8|0,0:0|0:0,0:0:0:0:
99,299,113618,6,0,B|146:309|179:278|185:243|185:243|174:304|194:341|194:341|206:298|238:270|238:270|228:305|246:324|246:324|254:301|283:291|283:291|308:309|345:297,1,460
