osu file format v14

[General]
AudioFilename: audio.mp3
AudioLeadIn: 0
PreviewTime: 66546
Countdown: 0
SampleSet: Normal
StackLeniency: 0.2
Mode: 0
LetterboxInBreaks: 0
WidescreenStoryboard: 1

[Editor]
Bookmarks: 2697,16908,29540,42171,54803,67434,81645,83816,95855,108487,114408
DistanceSpacing: 1.1
BeatDivisor: 4
GridSize: 32
TimelineZoom: 2.6

[Metadata]
Title:Nekozamurai no Gyakushu
TitleUnicode:猫侍の逆襲
Artist:Nekomata Master
ArtistUnicode:猫叉Master
Creator:moph
Version:Hyper
Source:GITADORA
Tags:naoyuki sato follow slowly neko samurai jubeat saucer pop'n music kwk alheak
BeatmapID:1430574
BeatmapSetID:518743

[Difficulty]
HPDrainRate:5
CircleSize:3.7
OverallDifficulty:6
ApproachRate:7.5
SliderMultiplier:1.8
SliderTickRate:1

[Events]
//Background and Video events
0,0,"bg.jpg",0,0
//Break Periods
//Storyboard Layer 0 (Background)
//Storyboard Layer 1 (Fail)
//Storyboard Layer 2 (Pass)
//Storyboard Layer 3 (Foreground)
//Storyboard Sound Samples

[TimingPoints]
1119,394.736842105263,4,1,1,50,1,0
1119,-133.333333333333,4,1,1,50,0,0
2697,-133.333333333333,4,1,1,60,0,0
16908,-100,4,1,1,70,0,0
67434,-100,4,1,1,80,0,1
81250,-100,4,1,1,80,0,0
81645,-100,4,1,1,80,0,1
95855,-100,4,1,1,70,0,0
113717,-100,4,1,1,20,0,0
114408,-100,4,1,1,5,0,0

[Colours]
Combo1 : 169,117,189
Combo2 : 184,80,80
Combo3 : 83,114,187
Combo4 : 218,131,78

[HitObjects]
52,125,1119,5,8,0:3:0:0:
142,98,1316,2,0,L|128:254,1,135.000005149842,8|8,0:0|0:0,0:0:0:0:
60,296,1908,2,0,P|103:323|166:320,1,101.250003862381,0|0,3:0|0:0,0:0:0:0:
195,302,2303,1,8,0:3:0:0:
273,249,2500,1,4,0:3:0:0:
369,344,2697,5,4,0:0:0:0:
447,291,2895,2,0,L|530:318,2,67.5000025749208,0|0|0,0:0|0:0|0:0,0:0:0:0:
377,226,3487,2,0,B|372:192|372:192|381:152,1,67.5000025749208,0|0,0:0|0:0,0:0:0:0:
469,190,3882,2,0,B|474:156|474:156|465:116,1,67.5000025749208,0|0,0:0|0:0,0:0:0:0:
430,36,4276,6,0,L|513:9,2,67.5000025749208,0|0|0,0:0|0:0|0:0,0:0:0:0:
342,71,4868,1,0,0:0:0:0:
255,109,5066,2,0,L|146:79,1,101.250003862381,8|0,0:3|0:0,0:0:0:0:
110,74,5461,2,0,B|118:108|118:108|103:159,1,67.5000025749208,2|2,0:0|0:0,0:0:0:0:
23,243,5855,5,4,0:0:0:0:
97,301,6053,2,0,L|121:230,2,67.5000025749208,0|0|0,0:0|0:0|0:0,0:0:0:0:
167,363,6645,2,0,P|200:372|245:359,1,67.5000025749208,0|0,0:0|0:0,0:0:0:0:
312,314,7040,2,0,P|344:308|377:317,1,67.5000025749208,0|2,0:0|0:3,0:0:0:0:
393,329,7336,1,2,0:3:0:0:
407,342,7434,6,0,L|476:331,1,67.5000025749208,4|8,0:0|0:0,0:0:0:0:
498,239,7829,2,0,L|429:250,1,67.5000025749208,4|8,0:0|0:0,0:0:0:0:
345,208,8224,1,6,0:0:0:0:
418,148,8421,1,2,0:0:0:0:
330,113,8618,2,0,L|261:124,1,67.5000025749208,6|0,0:0|0:0,0:0:0:0:
243,127,8915,1,0,0:0:0:0:
223,130,9013,5,6,0:0:0:0:
209,36,9211,1,0,0:0:0:0:
116,15,9408,1,0,0:0:0:0:
70,97,9605,1,0,0:0:0:0:
134,166,9803,2,0,B|142:199|142:199|132:252,1,67.5000025749208
46,201,10197,2,0,B|38:234|38:234|48:287,1,67.5000025749208
70,358,10592,6,0,L|-9:368,2,67.5000025749208,2|0|0,0:3|0:0|0:0,0:0:0:0:
164,344,11184,1,0,0:0:0:0:
191,253,11382,2,0,L|223:245,3,33.7500012874604,2|0|0|0,0:3|0:0|0:0|0:0,0:0:0:0:
243,248,11776,2,0,L|314:231,1,67.5000025749208,2|0,0:3|0:0,0:0:0:0:
328,236,12072,1,0,0:0:0:0:
348,238,12171,6,0,B|325:303|325:303|352:377,2,135.000005149842,6|2|2,0:0|0:0|0:0,0:0:0:0:
440,258,13158,1,0,0:0:0:0:
412,167,13355,2,0,P|405:125|420:85,1,67.5000025749208,2|2,0:0|0:0,0:0:0:0:
350,29,13750,6,0,B|287:46|287:46|217:28,2,135.000005149842,2|2|2,0:0|0:0|0:0,0:0:0:0:
411,102,14737,1,0,0:0:0:0:
323,136,14934,2,0,P|286:142|242:129,1,67.5000025749208,2|0,0:0|0:0,0:0:0:0:
237,128,15230,1,0,0:0:0:0:
217,120,15329,6,0,L|142:125,1,67.5000025749208,6|2,0:0|0:0,0:0:0:0:
55,135,15724,1,2,0:0:0:0:
115,207,15921,1,0,0:0:0:0:
131,218,16020,1,0,0:0:0:0:
147,229,16118,2,0,L|238:221,1,67.5000025749208,12|8,0:0|0:3,0:0:0:0:
230,234,16415,1,8,0:3:0:0:
247,244,16513,2,0,L|338:236,1,67.5000025749208,8|8,0:0|0:0,0:0:0:0:
345,365,16908,6,0,P|391:376|470:330,1,135,4|2,0:0|0:3,0:0:0:0:
482,290,17303,1,2,0:0:0:0:
405,227,17500,1,8,0:0:0:0:
494,185,17697,2,0,B|520:120|520:120|490:59,1,135,8|2,0:3|0:3,0:0:0:0:
462,21,18092,1,2,0:0:0:0:
382,79,18290,1,8,0:0:0:0:
283,68,18487,6,0,L|144:48,1,135,8|2,0:3|0:3,0:0:0:0:
100,38,18882,1,2,0:0:0:0:
132,131,19079,1,8,0:0:0:0:
37,161,19276,2,0,B|14:198|14:198|13:247,1,90,2|8,0:0|0:0,0:0:0:0:
64,329,19671,1,2,0:0:0:0:
137,263,19868,1,8,0:3:0:0:
157,274,19967,1,8,0:3:0:0:
176,285,20066,6,0,B|236:287|236:287|255:301|255:301|314:302,1,135,6|2,0:0|0:3,0:0:0:0:
356,303,20461,1,2,0:0:0:0:
438,356,20658,1,8,0:0:0:0:
483,268,20855,2,0,B|503:202|503:202|479:140,1,135,8|2,0:3|0:3,0:0:0:0:
442,107,21250,1,2,0:0:0:0:
358,159,21447,1,8,0:0:0:0:
268,115,21645,6,0,P|256:154|276:216,1,90,8|0,0:3|0:0,0:0:0:0:
344,262,22040,2,0,P|356:301|336:363,1,90,2|8,0:0|0:0,0:0:0:0:
247,342,22434,2,0,L|181:352,2,45,2|0|8,0:0|0:0|0:0,0:0:0:0:
201,253,22829,2,0,L|245:259,2,45,2|0|8,0:0|0:0|0:0,0:0:0:0:
117,307,23224,6,0,P|101:241|135:175,1,135,6|2,0:0|0:3,0:0:0:0:
168,155,23618,1,2,0:0:0:0:
85,99,23816,1,8,0:0:0:0:
165,42,24013,2,0,B|258:67|258:67|306:46,1,135,8|2,0:3|0:3,0:0:0:0:
339,32,24408,1,2,0:0:0:0:
386,118,24605,1,8,0:0:0:0:
464,57,24803,6,0,P|485:115|456:191,1,135,8|2,0:3|0:3,0:0:0:0:
423,211,25197,1,2,0:0:0:0:
488,285,25395,1,8,0:0:0:0:
407,341,25592,2,0,P|365:350|299:335,1,90,2|8,0:0|0:0,0:0:0:0:
234,290,25987,1,2,0:0:0:0:
306,223,26184,1,8,0:3:0:0:
306,223,26283,1,8,0:3:0:0:
306,223,26382,6,0,B|300:167|300:167|312:149|312:149|303:64,1,135,4|2,0:0|0:3,0:0:0:0:
302,43,26776,1,2,0:0:0:0:
213,87,26974,1,8,0:0:0:0:
136,24,27171,2,0,P|112:81|138:155,1,135,8|2,0:3|0:3,0:0:0:0:
167,183,27566,1,2,0:0:0:0:
77,225,27763,1,8,0:0:0:0:
156,284,27961,6,0,B|140:332|140:332|157:373,1,90,4|0,0:0|0:0,0:0:0:0:
253,369,28355,2,0,B|269:321|269:321|252:280,1,90,2|8,0:0|0:0,0:0:0:0:
349,311,28750,2,0,L|390:328,3,45,2|2|8|0,0:3|0:3|0:3|0:0,0:0:0:0:
410,338,29145,2,0,P|398:292|412:239,1,90,8|8,0:3|0:0,0:0:0:0:
419,232,29441,1,8,0:0:0:0:
434,215,29540,6,0,P|453:169|411:75,1,135,6|8,0:0|0:0,0:0:0:0:
394,55,29934,2,0,L|293:82,1,90,2|8,0:0|0:0,0:0:0:0:
217,121,30329,1,2,0:0:0:0:
186,26,30526,1,8,0:0:0:0:
86,26,30724,1,2,0:0:0:0:
52,118,30921,1,8,0:0:0:0:
131,176,31118,6,0,P|150:246|127:316,1,135,2|8,0:0|0:0,0:0:0:0:
90,328,31513,2,0,L|207:364,1,90,2|8,0:0|0:0,0:0:0:0:
271,380,31908,1,2,0:0:0:0:
284,282,32105,1,8,0:0:0:0:
374,240,32303,1,2,0:0:0:0:
466,299,32500,1,8,0:0:0:0:
466,299,32599,1,2,0:0:0:0:
466,299,32697,6,0,P|427:334|376:349,2,90,6|0|2,0:0|0:0|0:0,0:0:0:0:
468,199,33290,1,8,0:0:0:0:
374,240,33487,2,0,B|347:175|347:175|379:101,1,135,2|0,0:0|0:0,0:0:0:0:
396,71,33882,2,0,L|279:85,1,90,2|8,0:0|0:0,0:0:0:0:
208,94,34276,5,2,0:0:0:0:
119,49,34474,2,0,L|29:59,2,90,0|2|8,0:0|0:0|0:0,0:0:0:0:
118,148,35066,1,2,0:0:0:0:
213,202,35263,1,8,0:0:0:0:
213,202,35362,1,0,0:0:0:0:
213,202,35461,1,2,0:0:0:0:
125,248,35658,1,8,0:0:0:0:
37,203,35855,6,0,P|28:274|83:336,1,135,6|8,0:0|0:0,0:0:0:0:
107,344,36250,2,0,P|150:344|196:318,1,90,2|8,0:0|0:0,0:0:0:0:
271,264,36645,1,2,0:0:0:0:
324,346,36842,1,8,0:0:0:0:
423,346,37040,1,2,0:0:0:0:
464,256,37237,1,8,0:0:0:0:
365,243,37434,6,0,B|361:191|361:191|374:167|374:167|367:101,1,135,2|8,0:0|0:0,0:0:0:0:
383,63,37829,2,0,L|275:70,1,90,2|8,0:0|0:0,0:0:0:0:
205,116,38224,1,2,0:0:0:0:
135,46,38421,1,8,0:0:0:0:
37,61,38618,1,2,0:0:0:0:
15,162,38815,1,8,0:0:0:0:
15,162,38915,1,0,0:0:0:0:
15,162,39013,6,0,P|5:211|18:263,1,90,2|0,0:0|0:0,0:0:0:0:
20,270,39309,1,8,0:0:0:0:
36,285,39408,2,0,L|126:269,1,90,2|8,0:0|0:0,0:0:0:0:
198,335,39803,2,0,P|265:340|316:285,1,135,2|0,0:0|0:0,0:0:0:0:
313,247,40197,2,0,L|405:277,1,90,2|8,0:0|0:0,0:0:0:0:
418,284,40493,1,0,0:0:0:0:
439,291,40592,5,2,0:0:0:0:
500,211,40790,1,8,0:0:0:0:
483,113,40987,1,2,0:0:0:0:
389,79,41184,1,8,0:0:0:0:
309,138,41382,2,0,L|252:116,3,45,8|8|8|8,0:3|0:3|0:3|0:3,0:0:0:0:
245,127,41776,1,8,0:3:0:0:
222,130,41875,1,8,0:3:0:0:
199,134,41974,1,8,0:3:0:0:
176,137,42072,1,8,0:3:0:0:
153,140,42171,6,0,L|17:87,2,135,6|8|2,0:0|0:0|0:0,0:0:0:0:
92,218,42961,1,8,0:0:0:0:
239,349,43355,2,0,B|216:281|216:281|243:211,2,135,2|8|2,0:0|0:0|0:0,0:0:0:0:
314,284,44145,1,8,0:0:0:0:
390,362,44342,1,2,0:0:0:0:
390,362,44441,1,0,0:0:0:0:
390,362,44540,6,0,L|455:356,3,45,8|2|0|8,0:0|0:0|0:0|0:0,0:0:0:0:
444,332,44934,1,2,0:0:0:0:
455,307,45033,1,0,0:0:0:0:
465,282,45132,1,10,0:0:0:0:
474,256,45230,1,0,0:0:0:0:
482,230,45329,6,0,B|475:180|475:180|486:152|486:152|476:82,2,135,2|0|2,0:3|0:0|0:3,0:0:0:0:
383,226,46118,1,10,0:0:0:0:
312,173,46316,1,2,0:0:0:0:
312,173,46415,1,2,0:0:0:0:
312,173,46513,6,0,B|305:123|305:123|316:95|316:95|306:25,2,135,2|8|2,0:0|0:0|0:0,0:0:0:0:
294,261,47303,2,0,L|300:317,2,45,8|10|0,0:0|0:0|0:0,0:0:0:0:
224,204,47697,2,0,L|155:205,3,45,2|0|0|0,0:3|0:0|0:0|0:0,0:0:0:0:
162,219,48092,1,2,0:3:0:0:
144,233,48191,1,0,0:0:0:0:
126,246,48290,1,2,0:0:0:0:
108,259,48388,1,0,0:0:0:0:
89,272,48487,6,0,P|65:203|110:125,2,135,2|8|8,0:0|0:0|0:0,0:0:0:0:
169,329,49276,1,2,0:0:0:0:
264,300,49474,1,2,0:3:0:0:
264,300,49572,1,2,0:3:0:0:
264,300,49671,2,0,L|399:309,2,135,6|2|2,0:0|0:0|0:0,0:0:0:0:
270,205,50461,6,0,L|304:155,2,60,8|2|2,0:0|0:0|0:0,0:0:0:0:
183,246,50855,2,0,L|123:241,2,60,8|2|2,0:0|0:0|0:0,0:0:0:0:
264,300,51250,2,0,L|289:354,2,60,8|2|2,0:0|0:0|0:0,0:0:0:0:
352,262,51645,6,0,L|491:273,2,135,2|0|2,0:0|0:0|0:0,0:0:0:0:
304,185,52434,1,8,0:0:0:0:
414,42,52829,2,0,B|390:105|390:105|421:192,2,135,2|0|2,0:0|0:0|0:0,0:0:0:0:
324,49,53618,2,0,L|224:63,1,90,8|8,0:3|0:3,0:0:0:0:
212,67,53915,1,2,0:3:0:0:
190,71,54013,1,0,0:0:0:0:
99,30,54211,1,0,0:0:0:0:
29,99,54408,1,8,0:3:0:0:
29,99,54507,1,8,0:3:0:0:
29,99,54605,1,2,0:0:0:0:
117,143,54803,6,0,L|125:193,3,45,12|0|10|8,0:3|0:0|0:3|0:3,0:0:0:0:
127,209,55197,2,0,L|135:259,3,45,12|0|10|8,0:3|0:0|0:3|0:3,0:0:0:0:
138,275,55592,6,0,L|63:287,2,60,6|0|0,0:3|0:0|0:0,0:0:0:0:
215,335,55987,6,0,L|263:329,3,45,12|0|10|8,0:3|0:0|0:3|0:3,0:0:0:0:
282,327,56382,2,0,L|330:321,3,45,12|0|0|0,0:3|0:0|0:0|0:0,0:0:0:0:
348,320,56776,2,0,L|461:352,1,90,6|8,0:3|0:0,0:0:0:0:
494,265,57171,1,12,0:3:0:0:
483,244,57270,1,8,0:3:0:0:
473,223,57368,1,10,0:3:0:0:
463,202,57467,1,8,0:3:0:0:
454,181,57566,2,0,L|504:170,2,45,10|8|10,0:3|0:3|0:3,0:0:0:0:
374,240,57961,6,0,B|351:174|351:174|384:106,1,135,10|0,0:3|0:0,0:0:0:0:
405,73,58355,1,10,0:3:0:0:
313,34,58553,1,2,0:0:0:0:
240,100,58750,2,0,L|49:66,2,180,10|10|10,0:3|0:3|0:3,0:0:0:0:
287,187,59737,5,2,0:0:0:0:
201,236,59934,1,2,0:0:0:0:
178,231,60033,1,0,0:0:0:0:
155,227,60132,1,2,0:0:0:0:
132,222,60230,1,2,0:0:0:0:
109,216,60329,2,0,P|86:282|121:365,1,135,4|0,0:0|0:0,0:0:0:0:
123,367,60724,1,8,0:0:0:0:
212,324,60921,1,8,0:3:0:0:
301,282,61118,5,4,0:0:0:0:
387,331,61316,2,0,B|395:263|395:263|377:233|377:233|389:157,1,180,6|8,0:0|0:0,0:0:0:0:
394,136,61809,1,2,0:0:0:0:
398,114,61908,1,6,0:0:0:0:
220,26,62303,1,2,0:0:0:0:
248,130,62500,1,8,0:0:0:0:
248,130,62599,1,2,0:0:0:0:
248,130,62697,6,0,L|147:114,1,90,6|8,0:0|0:0,0:0:0:0:
76,168,63092,2,0,L|-5:156,2,60,2|0|0,0:0|0:0|0:0,0:0:0:0:
141,238,63487,1,0,0:0:0:0:
85,319,63684,1,0,0:0:0:0:
85,319,63783,1,0,0:0:0:0:
85,319,63882,2,0,P|129:338|189:325,1,90,8|2,0:0|0:0,0:0:0:0:
268,345,64276,6,0,B|246:281|246:281|273:215,2,135,6|8|2,0:0|0:0|0:0,0:0:0:0:
346,284,65066,1,8,0:0:0:0:
422,221,65263,1,8,0:3:0:0:
422,221,65362,1,8,0:3:0:0:
422,221,65461,6,0,B|447:283|447:283|425:347,2,135,6|8|2,0:0|0:0|0:0,0:0:0:0:
345,158,66250,1,8,0:0:0:0:
409,82,66447,1,8,0:3:0:0:
409,82,66546,1,8,0:3:0:0:
409,82,66645,2,0,P|348:59|278:84,1,135,6|0,0:0|0:0,0:0:0:0:
239,101,67040,2,0,P|178:124|108:99,1,135,6|0,0:0|0:0,0:0:0:0:
77,70,67434,5,6,0:0:0:0:
10,143,67632,1,0,0:0:0:0:
10,143,67730,1,8,0:0:0:0:
10,143,67829,2,0,B|-3:188|-3:188|9:231,1,90,2|8,0:0|0:0,0:0:0:0:
101,191,68224,5,2,0:0:0:0:
85,287,68421,1,8,0:0:0:0:
182,302,68618,1,2,0:0:0:0:
196,204,68816,1,8,0:0:0:0:
193,318,69013,5,2,0:0:0:0:
67,298,69211,1,8,0:0:0:0:
88,173,69408,1,2,0:0:0:0:
212,190,69604,1,8,0:0:0:0:
165,85,69803,6,0,P|211:73|261:82,1,90,2|8,0:0|0:0,0:0:0:0:
272,89,70099,1,0,0:0:0:0:
289,102,70197,2,0,L|397:86,1,90,2|8,0:0|0:0,0:0:0:0:
466,133,70592,5,6,0:0:0:0:
510,233,70790,1,0,0:0:0:0:
510,233,70888,1,8,0:0:0:0:
510,233,70987,2,0,L|402:249,1,90,2|8,0:0|0:0,0:0:0:0:
335,297,71382,2,0,P|304:333|229:343,1,90,2|8,0:0|0:0,0:0:0:0:
242,347,71678,1,0,0:0:0:0:
219,347,71776,2,0,P|177:331|148:297,1,90,2|8,0:0|0:0,0:0:0:0:
52,324,72171,6,0,B|55:255|55:255|71:225|71:225|75:120,1,180,2|2,0:0|0:0,0:0:0:0:
71,48,72763,1,8,0:0:0:0:
92,55,72862,1,0,0:0:0:0:
113,62,72961,2,0,L|204:34,1,90,2|8,0:0|0:0,0:0:0:0:
296,48,73355,1,10,0:3:0:0:
317,55,73454,1,8,0:3:0:0:
338,62,73553,1,8,0:3:0:0:
359,69,73651,1,8,0:3:0:0:
380,75,73750,6,0,B|353:142|353:142|386:218,1,135,6|8,0:0|0:0,0:0:0:0:
401,243,74145,2,0,L|311:253,1,90,2|8,0:0|0:0,0:0:0:0:
229,196,74540,5,2,0:0:0:0:
222,293,74737,1,8,0:0:0:0:
125,285,74934,1,2,0:0:0:0:
132,187,75131,1,8,0:0:0:0:
108,297,75329,5,2,0:0:0:0:
235,308,75526,1,8,0:0:0:0:
243,182,75723,1,2,0:0:0:0:
118,170,75920,1,8,0:0:0:0:
184,75,76118,2,0,P|136:55|85:61,1,90,2|8,0:0|0:0,0:0:0:0:
80,60,76415,1,0,0:0:0:0:
64,68,76513,2,0,P|25:103|9:152,1,90,2|8,0:0|0:0,0:0:0:0:
44,236,76908,6,0,B|114:232|114:232|143:254|143:254|199:251,1,135,6|8,0:0|0:0,0:0:0:0:
216,252,77303,1,2,0:0:0:0:
218,351,77500,1,8,0:0:0:0:
311,328,77697,2,0,B|358:340|358:340|416:328,1,90,2|8,0:0|0:0,0:0:0:0:
399,232,78092,2,0,B|352:220|352:220|294:232,1,90,2|8,0:0|0:0,0:0:0:0:
216,252,78487,6,0,B|143:254|143:254|114:232|114:232|44:236,2,180,2|2|2,0:0|0:0|0:0,0:0:0:0:
189,156,79474,1,8,0:0:0:0:
125,95,79671,1,2,0:0:0:0:
125,95,79770,1,0,0:0:0:0:
125,95,79868,1,8,0:0:0:0:
203,33,80066,6,0,L|331:51,1,90,2|0,0:0|0:0,0:0:0:0:
389,26,80461,2,0,P|374:71|387:144,1,90,2|8,0:0|0:0,0:0:0:0:
381,134,80757,1,0,0:0:0:0:
389,154,80855,2,0,P|404:199|391:272,1,90,2|8,0:0|0:0,0:0:0:0:
450,327,81250,1,8,0:3:0:0:
427,327,81349,1,8,0:3:0:0:
404,327,81447,1,8,0:3:0:0:
381,327,81546,1,8,0:3:0:0:
358,327,81645,6,0,L|236:355,1,90,6|0,0:0|0:0,0:0:0:0:
248,354,81941,1,8,0:0:0:0:
225,358,82040,2,0,B|233:311|233:311|219:254,1,90,2|8,0:0|0:0,0:0:0:0:
163,194,82435,5,2,0:0:0:0:
147,98,82632,1,8,0:0:0:0:
244,83,82829,1,2,0:0:0:0:
258,181,83026,1,8,0:0:0:0:
255,65,83224,5,2,0:0:0:0:
129,85,83421,1,8,0:0:0:0:
151,209,83618,1,2,0:0:0:0:
274,193,83815,1,8,0:0:0:0:
223,297,84014,6,0,P|269:309|319:300,1,90,2|8,0:0|0:0,0:0:0:0:
327,297,84310,1,0,0:0:0:0:
341,287,84408,2,0,L|448:280,1,90,2|8,0:0|0:0,0:0:0:0:
490,201,84803,5,6,0:0:0:0:
459,117,85001,1,0,0:0:0:0:
459,117,85099,1,8,0:0:0:0:
459,117,85198,2,0,L|352:124,1,90,2|8,0:0|0:0,0:0:0:0:
272,128,85593,2,0,P|248:86|176:62,1,90,2|8,0:0|0:0,0:0:0:0:
196,57,85889,1,0,0:0:0:0:
178,55,85987,2,0,P|133:62|98:90,1,90,2|8,0:0|0:0,0:0:0:0:
16,160,86382,6,0,B|58:241|58:241|23:341,1,180,2|2,0:0|0:0,0:0:0:0:
126,305,86974,1,8,0:0:0:0:
146,298,87072,1,0,0:0:0:0:
167,290,87171,2,0,L|254:341,1,90,2|8,0:0|0:0,0:0:0:0:
335,375,87566,1,8,0:3:0:0:
356,369,87665,1,8,0:3:0:0:
377,364,87763,1,8,0:3:0:0:
398,358,87862,1,8,0:3:0:0:
419,351,87961,2,0,B|391:290|391:290|426:202,1,135,6|8,0:0|0:0,0:0:0:0:
437,182,88355,5,2,0:0:0:0:
351,132,88553,1,8,0:0:0:0:
398,45,88750,2,0,P|350:34|292:54,1,90,2|8,0:0|0:0,0:0:0:0:
255,125,89145,2,0,P|207:114|149:134,1,90,2|8,0:0|0:0,0:0:0:0:
20,164,89540,5,6,0:0:0:0:
15,317,89737,1,6,0:0:0:0:
160,370,89934,1,12,0:0:0:0:
253,249,90132,1,12,0:0:0:0:
168,122,90329,6,0,P|211:132|261:120,1,90,6|8,0:0|0:0,0:0:0:0:
271,108,90626,1,0,0:0:0:0:
285,91,90724,2,0,L|388:74,1,90,10|10,0:3|0:3,0:0:0:0:
468,105,91118,6,0,B|460:187|460:187|475:216|475:216|466:290,1,180,6|2,0:0|0:0,0:0:0:0:
374,242,91711,1,8,0:0:0:0:
379,340,91908,2,0,P|312:368|233:337,1,135,2|0,0:0|0:0,0:0:0:0:
220,316,92303,2,0,L|130:327,1,90,2|8,0:0|0:0,0:0:0:0:
45,377,92697,6,0,B|35:306|35:306|50:275|50:275|35:182,2,180,2|2|2,0:0|0:0|0:0,0:0:0:0:
130,327,93684,1,8,0:0:0:0:
228,314,93882,1,2,0:0:0:0:
170,247,94079,1,8,0:0:0:0:
170,247,94178,1,0,0:0:0:0:
170,247,94276,6,0,P|211:227|263:230,1,90,2|0,0:0|0:0,0:0:0:0:
321,300,94671,2,0,P|365:300|405:280,1,90,2|8,0:0|0:0,0:0:0:0:
424,267,94968,1,0,0:0:0:0:
434,247,95066,2,0,L|396:202,3,45,8|8|8|8,0:3|0:3|0:3|0:3,0:0:0:0:
416,192,95461,1,8,0:0:0:0:
426,172,95560,1,0,0:0:0:0:
436,152,95658,1,8,0:3:0:0:
446,131,95757,1,8,0:3:0:0:
456,111,95855,6,0,L|318:57,1,135,6|2,0:0|0:3,0:0:0:0:
285,39,96250,1,2,0:0:0:0:
279,137,96447,1,8,0:0:0:0:
194,84,96645,2,0,P|130:71|50:109,1,135,8|2,0:3|0:3,0:0:0:0:
28,126,97040,1,2,0:0:0:0:
92,201,97237,1,8,0:0:0:0:
189,185,97434,6,0,B|216:248|216:248|198:315,1,135,8|2,0:3|0:3,0:0:0:0:
184,359,97829,1,2,0:0:0:0:
282,353,98026,1,8,0:0:0:0:
381,346,98224,2,0,L|482:364,1,90,2|8,0:0|0:0,0:0:0:0:
506,270,98618,2,0,L|405:252,1,90,2|8,0:0|0:0,0:0:0:0:
394,250,98915,1,8,0:3:0:0:
371,246,99013,6,0,B|399:176|399:176|360:102,1,135,6|2,0:0|0:3,0:0:0:0:
347,79,99408,1,2,0:0:0:0:
249,96,99605,1,8,0:0:0:0:
299,181,99803,2,0,P|237:194|169:153,1,135,8|0,0:3|0:0,0:0:0:0:
151,119,100197,1,2,0:0:0:0:
181,24,100395,1,8,0:0:0:0:
85,49,100592,6,0,P|34:45|-6:67,1,90,8|0,0:3|0:0,0:0:0:0:
55,143,100987,2,0,L|78:237,1,90,2|8,0:0|0:0,0:0:0:0:
68,251,101283,1,0,0:0:0:0:
60,272,101382,2,0,L|83:366,1,90,2|8,0:0|0:0,0:0:0:0:
171,318,101776,2,0,L|157:264,2,45,8|0|8,0:3|0:3|0:0,0:0:0:0:
261,359,102171,6,0,P|320:354|369:292,1,135,6|2,0:0|0:3,0:0:0:0:
372,249,102566,1,2,0:0:0:0:
458,296,102763,1,8,0:0:0:0:
483,200,102961,2,0,B|507:138|507:138|477:61,1,135,8|0,0:3|0:0,0:0:0:0:
458,30,103355,1,2,0:0:0:0:
374,84,103553,1,8,0:0:0:0:
291,137,103750,6,0,L|172:63,1,135,8|2,0:3|0:3,0:0:0:0:
132,42,104145,1,2,0:0:0:0:
48,94,104342,1,8,0:0:0:0:
112,169,104540,2,0,P|127:218|104:283,1,90,2|8,0:0|0:0,0:0:0:0:
48,323,104934,1,2,0:0:0:0:
151,359,105132,1,8,0:0:0:0:
151,359,105230,1,8,0:3:0:0:
151,359,105329,6,0,B|207:351|207:351|227:362|227:362|306:352,1,135,6|2,0:0|0:3,0:0:0:0:
331,348,105724,1,2,0:0:0:0:
285,260,105921,1,8,0:0:0:0:
319,167,106118,2,0,L|453:187,1,135,8|2,0:3|0:3,0:0:0:0:
501,193,106513,1,2,0:0:0:0:
469,98,106711,1,8,0:0:0:0:
433,5,106908,6,0,P|382:16|343:45,1,90,8|0,0:3|0:0,0:0:0:0:
263,84,107303,2,0,P|212:73|173:44,1,90,2|8,0:0|0:0,0:0:0:0:
83,37,107697,2,0,L|38:66,3,45,8|8|2|0,0:3|0:3|0:3|0:0,0:0:0:0:
52,87,108092,1,8,0:3:0:0:
57,113,108191,1,8,0:3:0:0:
61,139,108290,1,8,0:3:0:0:
65,165,108388,1,8,0:3:0:0:
68,191,108487,6,0,B|40:257|40:257|73:333,2,135,12|8|8,0:0|0:0|0:0,0:0:0:0:
140,257,109276,1,8,0:0:0:0:
204,345,109474,1,0,0:0:0:0:
204,345,109572,1,0,0:0:0:0:
204,345,109671,6,0,P|264:367|336:341,2,135,8|8|8,0:0|0:0|0:0,0:0:0:0:
266,268,110461,1,8,0:0:0:0:
233,185,110658,1,8,0:3:0:0:
233,185,110757,1,8,0:3:0:0:
233,185,110855,2,0,B|308:183|308:183|325:201|325:201|413:197,1,180,6|8,0:0|0:3,0:0:0:0:
485,255,111447,1,8,0:3:0:0:
485,255,111546,1,8,0:3:0:0:
485,255,111645,6,0,P|441:291|339:273,2,135,8|8|8,0:0|0:0|0:0,0:0:0:0:
405,197,112434,2,0,L|405:150,3,45,8|0|0|0,0:0|0:0|0:0|0:0,0:0:0:0:
401,102,112829,2,0,P|357:121|294:109,1,90,8|2,0:0|0:0,0:0:0:0:
296,107,113125,2,0,P|252:88|189:100,1,90,8|2,0:0|0:0,0:0:0:0:
190,99,113421,1,8,0:0:0:0:
182,196,113618,6,0,B|145:191|114:172|96:126|96:126|32:147|13:236|90:291|90:291|123:248,1,360,12|0,0:0|0:0,0:0:0:0:
