osu file format v14

[General]
AudioFilename: audio.mp3
AudioLeadIn: 0
PreviewTime: 68980
Countdown: 0
SampleSet: Soft
StackLeniency: 0.7
Mode: 0
LetterboxInBreaks: 0
EpilepsyWarning: 1
WidescreenStoryboard: 1

[Editor]
Bookmarks: 13500,26651,82541,85829,89117,95692,108843
DistanceSpacing: 0.5
BeatDivisor: 4
GridSize: 4
TimelineZoom: 1

[Metadata]
Title:Greening
TitleUnicode:Greening
Artist:Nekomata Master
ArtistUnicode:猫叉Master
Creator:Ultima Fox
Version:Plaudible's Hard
Source:pop'n music 12 いろは
Tags:Raindrops グリーニング Plaudible Hobbes2 Naoyuki Sato portable 19 TUNE STREET
BeatmapID:1246709
BeatmapSetID:581012

[Difficulty]
HPDrainRate:5
CircleSize:3.5
OverallDifficulty:6
ApproachRate:7
SliderMultiplier:1.5
SliderTickRate:1

[Events]
//Background and Video events
0,0,"Pixiv.Id.4041406.full.1005536.jpg",0,0
//Break Periods
//Storyboard Layer 0 (Background)
//Storyboard Layer 1 (Fail)
//Storyboard Layer 2 (Pass)
//Storyboard Layer 3 (Foreground)
//Storyboard Sound Samples

[TimingPoints]
350,410.958904109589,4,2,2,39,1,0
350,-100,4,2,2,39,0,0
13397,-100,4,2,2,5,0,0
13500,-80,4,2,1,68,0,1
26240,-80,4,2,1,68,0,0
41445,-80,4,2,1,68,0,0
43089,-80,4,2,1,68,0,0
48021,-80,4,2,1,83,0,0
48123,-80,4,2,1,68,0,0
48843,-80,4,2,1,83,0,0
48945,-80,4,2,1,68,0,0
55418,-80,4,2,1,68,0,0
56137,-100,4,2,2,5,0,0
56240,-80,4,2,1,68,0,0
61171,-80,4,2,1,83,0,0
61273,-80,4,2,1,68,0,0
61993,-80,4,2,1,83,0,0
62095,-80,4,2,1,68,0,0
67747,-80,4,2,1,68,0,0
68569,-80,4,2,2,68,0,0
69185,-80,4,2,1,68,0,0
69288,-80,4,2,1,68,0,0
69391,-80,4,2,1,68,0,1
73089,-80,4,2,1,68,0,1
73500,-80,4,2,1,68,0,1
85829,-80,4,2,1,68,0,0
89117,-80,4,2,1,68,0,1
95692,-100,4,2,1,68,0,0
107199,-100,4,2,1,68,0,0

[Colours]
Combo1 : 167,133,194
Combo2 : 125,255,165
Combo3 : 255,108,255
Combo4 : 0,219,0

[HitObjects]
442,163,350,6,0,P|363:144|333:157,1,112.5,0|0,0:0|0:0,0:0:0:0:
337,155,760,1,0,0:0:0:0:
272,209,966,1,0,0:0:0:0:
192,179,1171,2,0,L|185:63,2,112.500004291535,0|0|0,0:0|0:0|0:0,0:0:0:0:
272,209,1993,6,0,L|265:325,2,112.500004291535,0|0|0,0:0|0:0|0:0,0:0:0:0:
337,155,2815,1,0,0:0:0:0:
393,218,3021,1,0,0:0:0:0:
400,101,3226,1,0,0:0:0:0:
238,83,3637,6,0,P|216:151|225:198,1,112.5,0|0,0:0|0:0,0:0:0:0:
223,191,4048,1,0,0:0:0:0:
267,272,4254,1,0,0:0:0:0:
201,326,4459,2,0,L|56:333,2,112.500004291535,0|0|0,0:0|0:0|0:0,0:0:0:0:
267,272,5281,5,0,0:0:0:0:
342,304,5486,1,0,0:0:0:0:
395,241,5692,2,0,L|451:245,2,37.5,0|0|0,0:0|0:0|0:0,0:0:0:0:
351,170,6103,1,0,0:0:0:0:
351,170,6206,2,0,B|339:129|339:129|347:85,1,75,0|0,0:0|0:0,0:0:0:0:
365,61,6514,2,0,B|327:73|327:73|273:60,1,75,0|0,0:0|0:0,0:0:0:0:
262,55,6822,1,0,0:0:0:0:
236,48,6925,6,0,L|238:156,1,75,0|0,0:0|0:0,0:0:0:0:
163,174,7336,1,2,0:0:0:0:
81,137,7541,1,0,0:0:0:0:
81,137,7644,1,0,0:0:0:0:
81,137,7747,2,0,P|32:124|-13:146,1,75,0|0,0:0|0:0,0:0:0:0:
120,245,8158,2,0,P|170:258|218:238,1,75,2|0,0:0|0:0,0:0:0:0:
287,149,8569,6,0,P|239:127|158:186,1,150,0|2,0:0|0:0,0:0:0:0:
120,245,9185,1,0,0:0:0:0:
120,245,9288,1,0,0:0:0:0:
120,245,9391,2,0,L|38:248,1,75,0|0,0:0|0:0,0:0:0:0:
190,300,9802,2,0,L|195:385,1,75,2|0,0:0|0:0,0:0:0:0:
251,239,10213,6,0,P|283:226|336:234,1,75,0|0,0:0|0:0,0:0:0:0:
424,288,10623,1,2,0:0:0:0:
501,213,10829,1,0,0:0:0:0:
501,213,10932,1,0,0:0:0:0:
501,213,11034,2,0,L|503:117,1,75,0|0,0:0|0:0,0:0:0:0:
440,49,11445,2,0,P|387:38|365:46,1,75,2|0,0:0|0:0,0:0:0:0:
353,54,11754,1,0,0:0:0:0:
341,67,11856,6,0,L|300:62,3,37.5,0|0|0|0,0:0|0:0|0:0|0:0,0:0:0:0:
266,45,12267,2,0,L|225:50,3,37.5,0|0|0|0,0:0|0:0|0:0|0:0,0:0:0:0:
191,63,12678,2,0,L|150:58,3,37.5,0|0|0|0,0:0|0:0|0:0|0:0,0:0:0:0:
113,40,13089,2,0,L|120:172,1,112.5
118,152,13500,6,0,B|215:112|212:182|305:145,1,187.5,4|8,1:2|0:0,0:0:0:0:
413,77,14117,1,0,0:0:0:0:
413,77,14219,1,0,0:0:0:0:
413,77,14322,2,0,L|408:170,1,93.75,0|0,1:0|0:0,0:0:0:0:
336,283,14733,2,0,P|276:292|234:276,1,93.75,8|0,0:0|0:0,0:0:0:0:
158,155,15144,6,0,P|232:138|294:215,1,140.625,0|0,1:0|0:0,0:0:0:0:
301,199,15555,2,0,P|346:187|390:201,1,93.75,8|0,0:0|0:0,0:0:0:0:
495,286,15966,1,0,1:0:0:0:
336,283,16171,2,0,L|233:281,2,93.75,0|8|0,0:0|0:0|0:0,0:0:0:0:
488,195,16788,6,0,P|503:127|472:65,1,140.625,2|0,1:2|0:0,0:0:0:0:
447,46,17199,2,0,P|387:63|337:41,1,93.75,8|0,0:0|0:0,0:0:0:0:
217,18,17610,2,0,P|148:14|106:44,1,93.75,0|0,1:0|0:0,0:0:0:0:
143,184,18021,2,0,P|212:188|254:158,1,93.75,8|0,0:0|0:0,0:0:0:0:
360,82,18432,6,0,L|365:140,3,46.875,0|0|0|0,1:0|0:0|0:0|0:0,0:0:0:0:
343,164,18843,2,0,L|337:225,3,46.875,8|0|0|0,0:0|0:0|0:0|0:0,0:0:0:0:
360,252,19254,1,0,1:0:0:0:
304,340,19459,1,0,0:0:0:0:
304,340,19562,1,0,0:0:0:0:
304,340,19665,2,0,B|236:344|236:344|188:328,1,93.75,8|0,0:0|0:0,0:0:0:0:
200,328,19973,1,0,0:0:0:0:
189,318,20076,6,0,B|150:219|229:221|189:102,1,187.5,4|8,1:2|0:0,0:0:0:0:
128,39,20692,1,0,0:0:0:0:
128,39,20794,1,0,0:0:0:0:
128,39,20897,2,0,L|221:34,1,93.75,0|0,1:0|0:0,0:0:0:0:
369,119,21308,2,0,P|311:120|277:102,1,93.75,8|0,0:0|0:0,0:0:0:0:
437,28,21719,6,0,P|484:84|470:168,1,140.625,0|0,1:0|0:0,0:0:0:0:
468,178,22130,2,0,P|489:220|471:278,1,93.75,8|0,0:0|0:0,0:0:0:0:
375,376,22541,1,0,1:0:0:0:
368,232,22747,2,0,L|363:129,2,93.75,0|8|0,0:0|0:0|0:0,0:0:0:0:
279,348,23363,6,0,P|224:361|102:286,1,187.5,2|8,1:2|0:0,0:0:0:0:
209,188,23980,2,0,P|264:222|174:237,1,187.5,0|0,0:0|0:0,0:0:0:0:
88,194,24596,1,8,0:0:0:0:
98,359,24802,1,0,0:0:0:0:
98,359,24904,1,0,0:0:0:0:
98,359,25007,6,0,L|197:367,1,93.75
368,296,25418,2,0,L|269:304,1,93.75,0|0,0:0|0:0,0:0:0:0:
253,142,25829,1,0,0:0:0:0:
176,287,26034,1,0,0:0:0:0:
322,215,26240,1,0,0:0:0:0:
161,186,26445,1,0,0:0:0:0:
275,304,26651,6,0,P|348:312|408:262,1,140.625,4|0,1:2|0:0,0:0:0:0:
415,247,27062,2,0,L|407:125,1,93.75,8|0,0:0|0:0,0:0:0:0:
240,173,27473,2,0,P|284:189|348:159,1,93.75,0|0,1:0|0:0,0:0:0:0:
332,49,27884,2,0,P|287:37|240:53,1,93.75,8|0,0:0|0:0,0:0:0:0:
152,177,28295,6,0,P|107:188|64:172,1,93.75,0|0,1:0|0:0,0:0:0:0:
68,49,28706,2,0,P|112:35|157:47,1,93.75,8|0,0:0|0:0,0:0:0:0:
240,172,29117,2,0,B|241:246|232:300|232:300|259:274|304:252,1,187.5,0|8,1:0|0:0,0:0:0:0:
409,192,29733,1,0,0:0:0:0:
328,97,29939,6,0,L|324:209,2,93.75,0|0|8,1:0|0:0|0:0,0:0:0:0:
228,37,30555,1,0,0:0:0:0:
151,158,30760,2,0,P|207:178|259:162,1,93.75,0|0,1:0|0:0,0:0:0:0:
120,77,31171,2,0,P|74:115|62:168,1,93.75,8|0,0:0|0:0,0:0:0:0:
96,296,31582,6,0,P|168:244|151:158,1,187.5,0|8,1:0|0:0,0:0:0:0:
276,352,32404,1,0,1:0:0:0:
372,292,32610,1,0,0:0:0:0:
372,292,32713,1,0,0:0:0:0:
372,292,32815,2,0,L|380:188,1,93.75,8|0,0:0|1:0,0:0:0:0:
508,108,33226,6,0,B|420:144|420:64|308:120,1,187.5,0|8,1:0|0:0,0:0:0:0:
116,240,34048,2,0,P|110:286|129:328,1,93.75,0|0,1:0|0:0,0:0:0:0:
253,312,34459,2,0,P|258:265|239:223,1,93.75,8|0,0:0|0:0,0:0:0:0:
104,154,34870,6,0,P|85:111|90:65,1,93.75,0|0,1:0|0:0,0:0:0:0:
211,52,35281,2,0,P|230:94|225:141,1,93.75,8|0,0:0|0:0,0:0:0:0:
115,240,35692,2,0,B|51:249|-2:228|-2:228|30:249|51:286,1,187.5,0|8,1:0|0:0,0:0:0:0:
104,376,36308,1,0,0:0:0:0:
256,308,36514,6,0,L|152:312,2,93.75,0|0|8,1:0|0:0|0:0,0:0:0:0:
352,240,37130,1,0,0:0:0:0:
216,144,37336,2,0,P|196:196|208:236,1,93.75,0|0,1:0|0:0,0:0:0:0:
292,116,37747,2,0,P|256:72|216:63,1,93.75,8|0,0:0|0:0,0:0:0:0:
72,142,38158,5,0,1:0:0:0:
103,230,38363,1,0,0:0:0:0:
216,144,38569,1,0,0:0:0:0:
144,82,38774,1,0,0:0:0:0:
189,229,38980,2,0,P|183:263|128:317,1,93.75,0|0,0:0|0:0,0:0:0:0:
146,307,39288,1,0,0:0:0:0:
146,307,39391,1,0,0:0:0:0:
276,251,39596,1,0,1:0:0:0:
216,144,39802,6,0,B|288:143|288:143|332:181|332:181|410:179,1,187.5,0|8,1:0|0:0,0:0:0:0:
170,56,40623,2,0,L|274:54,1,93.75,0|0,1:0|0:0,0:0:0:0:
263,54,40931,1,0,0:0:0:0:
263,54,41034,1,8,0:0:0:0:
345,88,41240,1,0,0:0:0:0:
430,49,41445,6,0,L|426:166,2,93.75,0|0|0,0:0|0:0|0:0,0:0:0:0:
345,88,42062,1,0,0:0:0:0:
343,181,42267,2,0,P|342:234|338:291,1,93.75,0|0,0:0|0:0,0:0:0:0:
257,326,42678,2,0,P|202:285|129:310,1,140.625,0|0,0:0|0:0,0:0:0:0:
107,336,43089,6,0,P|106:238|102:141,1,187.5,4|8,1:2|0:0,0:0:0:0:
165,49,43706,1,0,0:0:0:0:
165,49,43808,1,0,0:0:0:0:
165,49,43911,2,0,P|213:32|288:68,1,93.75,0|0,1:0|0:0,0:0:0:0:
319,145,44322,2,0,P|271:162|196:126,1,93.75,8|0,0:0|0:0,0:0:0:0:
165,49,44733,5,0,1:0:0:0:
102,148,44939,1,0,0:0:0:0:
102,148,45041,1,0,0:0:0:0:
102,148,45144,2,0,L|96:270,1,93.75,8|0,0:0|0:0,0:0:0:0:
160,324,45555,1,0,1:0:0:0:
241,273,45760,1,0,0:0:0:0:
304,350,45966,2,0,L|412:346,1,93.75,8|0,0:0|0:0,0:0:0:0:
485,279,46377,6,0,B|478:392,2,93.75,0|0|8,1:0|0:0|0:0,0:0:0:0:
412,190,46993,1,0,0:0:0:0:
412,190,47096,1,0,0:0:0:0:
412,190,47199,2,0,B|406:96,1,93.75,0|0,1:0|0:0,0:0:0:0:
326,30,47610,2,0,P|257:18|218:38,1,93.75,8|0,0:0|0:0,0:0:0:0:
138,125,48021,6,0,P|188:155|146:58,1,281.25,0|0,1:0|0:0,0:0:0:0:
50,102,48843,2,0,P|50:210|53:327,1,187.5,0|8,1:0|0:0,0:0:0:0:
160,365,49459,1,0,0:0:0:0:
160,365,49562,1,0,0:0:0:0:
160,365,49665,6,0,B|260:326|258:392|360:346,1,187.5,4|8,1:2|0:0,0:0:0:0:
396,251,50281,1,0,0:0:0:0:
396,251,50383,1,0,0:0:0:0:
396,251,50486,2,0,P|348:234|273:270,1,93.75,0|0,1:0|0:0,0:0:0:0:
343,352,50897,2,0,P|391:369|466:333,1,93.75,8|0,0:0|0:0,0:0:0:0:
512,278,51308,5,0,1:0:0:0:
469,163,51514,1,0,0:0:0:0:
469,163,51616,1,0,0:0:0:0:
469,163,51719,2,0,L|463:41,1,93.75,8|0,0:0|0:0,0:0:0:0:
373,21,52130,1,0,1:0:0:0:
314,112,52336,1,0,0:0:0:0:
226,52,52541,2,0,P|179:43|126:63,1,93.75,8|0,0:0|0:0,0:0:0:0:
169,219,52952,6,0,P|190:155|170:108,1,93.75,0|0,1:0|0:0,0:0:0:0:
52,35,53363,1,8,0:0:0:0:
11,169,53569,1,0,0:0:0:0:
11,169,53671,1,0,0:0:0:0:
11,169,53774,2,0,L|114:163,1,93.75,0|0,1:0|0:0,0:0:0:0:
215,262,54185,2,0,L|121:256,1,93.75,8|0,0:0|0:0,0:0:0:0:
24,280,54596,5,0,1:0:0:0:
24,280,55829,2,0,P|85:250|166:286,1,140.625,0|0,1:0|0:0,0:0:0:0:
182,307,56240,6,0,P|180:188|182:104,1,187.5,4|8,1:2|0:0,0:0:0:0:
300,94,56856,1,0,0:0:0:0:
300,94,56959,1,0,0:0:0:0:
300,94,57062,2,0,P|313:151|282:205,1,93.75,0|0,1:0|0:0,0:0:0:0:
181,119,57473,2,0,P|170:73|186:30,1,93.75,8|0,0:0|0:0,0:0:0:0:
300,94,57884,5,0,1:0:0:0:
266,215,58089,1,0,0:0:0:0:
266,215,58191,1,0,0:0:0:0:
266,215,58294,2,0,L|144:209,1,93.75,8|0,0:0|0:0,0:0:0:0:
78,128,58706,1,0,1:0:0:0:
101,260,58911,1,0,0:0:0:0:
160,125,59117,2,0,P|157:97|78:46,1,93.75,8|0,0:0|0:0,0:0:0:0:
0,112,59528,6,0,L|3:4,2,93.75,0|0|8,1:0|0:0|0:0,0:0:0:0:
82,186,60144,1,0,0:0:0:0:
82,186,60247,1,0,0:0:0:0:
82,186,60350,2,0,L|95:300,1,93.75,0|0,1:0|0:0,0:0:0:0:
184,358,60760,2,0,P|237:366|290:343,1,93.75,8|0,0:0|0:0,0:0:0:0:
375,243,61171,6,0,P|284:303|391:318,1,281.25,0|0,1:0|0:0,0:0:0:0:
457,230,61993,2,0,P|456:136|454:42,1,187.5,0|8,1:0|0:0,0:0:0:0:
349,98,62610,1,0,0:0:0:0:
349,98,62713,1,0,0:0:0:0:
349,98,62815,6,0,B|276:98|276:98|237:68|237:68|135:71,1,187.5,4|8,1:2|0:0,0:0:0:0:
24,159,63432,1,0,0:0:0:0:
24,159,63534,1,0,0:0:0:0:
24,159,63637,2,0,P|72:176|147:140,1,93.75,0|0,1:0|0:0,0:0:0:0:
171,69,64048,2,0,P|123:52|48:88,1,93.75,8|0,0:0|0:0,0:0:0:0:
24,159,64459,5,0,1:0:0:0:
118,261,64665,1,0,0:0:0:0:
118,261,64767,1,0,0:0:0:0:
118,261,64870,2,0,L|111:160,1,93.75,8|0,0:0|0:0,0:0:0:0:
255,105,65281,1,0,1:0:0:0:
236,219,65486,1,0,0:0:0:0:
174,111,65692,2,0,P|195:47|228:28,1,93.75,8|0,0:0|0:0,0:0:0:0:
348,110,66103,6,0,L|233:103,1,93.75,4|0,1:2|0:0,0:0:0:0:
153,212,66514,1,8,0:0:0:0:
293,276,66719,1,0,0:0:0:0:
293,276,66822,1,0,0:0:0:0:
293,276,66925,2,0,P|316:215|303:175,1,93.75,0|0,1:0|0:0,0:0:0:0:
174,111,67336,1,8,0:0:0:0:
153,212,67541,1,0,0:0:0:0:
153,212,67644,1,0,0:0:0:0:
153,212,67747,6,0,L|141:333,1,93.75,0|0,1:0|0:0,0:0:0:0:
248,151,68158,2,0,P|260:112|241:57,2,93.75,0|0|2,0:0|0:0|0:0,0:0:0:0:
350,172,68774,1,0,0:0:0:0:
367,278,68980,2,0,L|239:293,1,93.75,2|0,0:0|0:0,0:0:0:0:
253,300,69288,1,0,0:0:0:0:
230,311,69391,6,0,P|163:304|126:184,1,187.5,4|8,1:2|0:0,0:0:0:0:
196,96,70007,1,0,0:0:0:0:
196,96,70109,1,0,0:0:0:0:
196,96,70212,2,0,L|103:91,1,93.75,0|0,1:0|0:0,0:0:0:0:
209,221,70623,2,0,L|302:216,1,93.75,8|0,0:0|0:0,0:0:0:0:
432,140,71034,6,0,L|424:325,1,140.625,0|0,1:0|0:0,0:0:0:0:
420,322,71445,2,0,P|330:327|304:308,1,93.75,8|0,0:0|0:0,0:0:0:0:
209,221,71856,1,0,1:0:0:0:
98,300,72062,2,0,L|-3:305,2,93.75,0|8|0,0:0|0:0|0:0,0:0:0:0:
216,355,72678,6,0,B|231:271|231:271|203:207,1,140.625,2|0,1:2|0:0,0:0:0:0:
192,183,73089,2,0,L|210:81,1,93.75,8|0,0:0|0:0,0:0:0:0:
375,169,73500,2,0,P|310:174|271:149,1,93.75,0|0,1:0|0:0,0:0:0:0:
302,32,73911,2,0,P|367:27|406:52,1,93.75,8|0,0:0|0:0,0:0:0:0:
486,156,74322,6,0,L|491:214,3,46.875,0|0|0|0,1:0|0:0|0:0|0:0,0:0:0:0:
469,238,74733,2,0,L|463:299,3,46.875,8|0|0|0,0:0|0:0|0:0|0:0,0:0:0:0:
486,326,75144,1,0,1:0:0:0:
349,373,75350,1,0,0:0:0:0:
349,373,75453,1,0,0:0:0:0:
349,373,75556,2,0,B|281:377|281:377|233:361,1,93.75,8|0,0:0|0:0,0:0:0:0:
245,361,75864,1,0,0:0:0:0:
234,351,75967,6,0,B|195:252|274:254|234:135,1,187.5,4|8,1:2|0:0,0:0:0:0:
144,71,76582,1,0,0:0:0:0:
144,71,76684,1,0,0:0:0:0:
144,71,76787,2,0,L|237:66,1,93.75,0|0,1:0|0:0,0:0:0:0:
410,132,77198,2,0,P|352:133|318:115,1,93.75,8|0,0:0|0:0,0:0:0:0:
493,55,77610,6,0,P|489:138|482:236,1,140.625,0|0,1:0|0:0,0:0:0:0:
465,240,78021,2,0,P|397:252|358:234,1,93.75,8|0,0:0|0:0,0:0:0:0:
258,177,78432,1,0,1:0:0:0:
145,262,78637,2,0,L|139:163,2,93.75,0|8|0,0:0|0:0|0:0,0:0:0:0:
251,332,79254,6,0,P|312:363|432:321,1,187.5,2|8,1:2|0:0,0:0:0:0:
355,207,79870,2,0,P|296:256|378:249,1,187.5,0|0,0:0|0:0,0:0:0:0:
476,227,80486,1,8,0:0:0:0:
399,376,80692,1,0,0:0:0:0:
399,376,80795,1,0,0:0:0:0:
399,376,80897,6,0,L|287:368,1,93.75,0|0,1:0|0:0,0:0:0:0:
163,292,81308,2,0,L|275:284,1,93.75,8|0,0:0|0:0,0:0:0:0:
336,161,81719,1,0,1:0:0:0:
318,330,81925,1,0,0:0:0:0:
318,335,82028,1,0,0:0:0:0:
317,340,82130,1,8,0:0:0:0:
409,223,82336,1,0,0:0:0:0:
256,285,82541,6,0,P|205:271|204:142,1,187.5,4|8,1:2|0:0,0:0:0:0:
285,92,83158,1,0,0:0:0:0:
285,92,83260,1,0,0:0:0:0:
285,92,83363,2,0,L|385:88,1,93.75,0|0,1:0|0:0,0:0:0:0:
463,205,83774,2,0,L|362:200,1,93.75,8|0,0:0|0:0,0:0:0:0:
352,199,84082,1,0,0:0:0:0:
334,199,84185,6,0,P|291:213|193:158,1,140.625,0|0,1:0|0:0,0:0:0:0:
184,144,84596,2,0,L|173:261,1,93.75,8|0,0:0|0:0,0:0:0:0:
159,373,85007,1,0,0:0:0:0:
287,320,85213,2,0,P|334:313|386:335,2,93.75,0|8|0,0:0|0:0|0:0,0:0:0:0:
159,373,85829,6,0,L|50:382,2,93.75,0|0|0,1:0|0:0|0:0,0:0:0:0:
203,291,86445,1,0,0:0:0:0:
203,291,86651,2,0,P|210:237|182:192,1,93.75
121,149,87062,2,0,P|102:106|111:61,1,93.75
138,57,87370,1,0,0:0:0:0:
161,56,87473,6,0,P|209:76|272:47,1,93.75,0|0,0:0|0:0,0:0:0:0:
354,15,87884,1,0,0:0:0:0:
428,104,88089,1,0,0:0:0:0:
428,104,88192,1,0,1:0:0:0:
428,104,88295,2,0,L|422:158,3,46.875,0|0|0|0,1:0|0:0|0:0|1:0,0:0:0:0:
441,190,88706,2,0,L|303:174,1,93.75,0|0,1:0|0:0,0:0:0:0:
328,177,89014,1,0,1:0:0:0:
301,175,89117,6,0,B|238:167|195:204|195:204|191:292,1,187.5,4|8,1:2|0:0,0:0:0:0:
97,327,89733,1,0,0:0:0:0:
97,327,89836,1,0,0:0:0:0:
97,327,89939,2,0,L|102:226,1,93.75,0|0,1:0|0:0,0:0:0:0:
3,118,90350,2,0,P|6:183|42:217,1,93.75,8|0,0:0|0:0,0:3:0:0:
93,44,90760,6,0,B|86:143|86:143|112:116|145:107,1,140.625,0|0,1:0|0:0,0:0:0:0:
149,111,91171,2,0,L|243:117,1,93.75,8|0,0:0|0:0,0:0:0:0:
318,198,91582,1,0,1:0:0:0:
438,112,91788,2,0,P|441:167|439:208,2,93.75,0|8|0,0:0|0:0|0:0,0:0:0:0:
348,25,92404,6,0,P|293:46|237:34,1,93.75,0|0,1:0|0:0,0:0:0:0:
87,103,92815,2,0,P|144:90|185:105,1,93.75,0|0,1:0|1:0,0:0:0:0:
274,221,93226,1,0,1:0:0:0:
261,34,93432,1,0,1:0:0:0:
194,179,93637,1,0,1:0:0:0:
352,180,93843,1,0,1:0:0:0:
352,180,93945,1,0,0:0:0:0:
352,180,94048,6,0,L|411:176,3,46.875,0|0|0|0,1:0|1:0|1:0|1:0,0:0:0:0:
430,202,94459,2,0,L|501:209,3,46.875,0|0|0|0,1:0|1:0|1:0|1:0,0:0:0:0:
502,171,94870,6,0,L|499:101,3,46.875
497,100,95281,1,0,1:0:0:0:
408,33,95486,1,8,0:0:0:0:
309,89,95692,6,0,P|275:81|223:104,1,75,4|0,1:2|0:0,0:0:0:0:
237,92,96000,1,0,0:0:0:0:
237,92,96103,1,8,0:0:0:0:
171,146,96308,1,0,0:0:0:0:
212,218,96514,2,0,P|215:260|191:301,2,75,0|0|8,1:0|0:0|0:0,0:0:0:0:
49,247,97336,6,0,L|54:91,1,150,0|8,1:0|0:0,0:0:0:0:
95,25,97952,1,0,0:0:0:0:
177,50,98158,2,0,P|227:70|327:13,1,150,0|8,1:0|0:0,0:0:0:0:
313,36,98980,6,0,L|310:116,1,75,0|0,1:0|0:0,0:0:0:0:
310,110,99288,1,0,0:0:0:0:
310,110,99391,1,8,0:0:0:0:
242,157,99596,1,0,0:0:0:0:
180,106,99802,2,0,P|134:96|96:107,2,75,0|0|8,1:0|0:0|0:0,0:0:0:0:
281,236,100623,6,0,P|219:240|187:226,1,75,0|0,1:0|0:0,0:0:0:0:
150,187,101034,1,8,0:0:0:0:
75,197,101240,1,0,0:0:0:0:
43,264,101445,2,0,L|42:309,3,37.5,0|0|0|0,1:0|0:0|0:0|0:0,0:0:0:0:
28,336,101856,2,0,P|91:328|127:340,1,75,8|0,0:0|0:0,0:0:0:0:
176,355,102267,6,0,L|282:349,1,75,4|0,1:2|0:0,0:0:0:0:
250,350,102576,1,0,0:0:0:0:
250,350,102678,1,8,0:0:0:0:
306,288,102884,1,0,0:0:0:0:
250,222,103089,2,0,P|238:185|245:145,2,75,0|0|8,1:0|0:0|0:0,0:0:0:0:
322,105,103911,6,0,L|153:110,1,150,0|8,1:0|0:0,0:0:0:0:
100,57,104528,1,0,0:0:0:0:
44,124,104733,2,0,L|34:285,1,150,0|8,1:0|0:0,0:0:0:0:
34,273,105555,6,0,P|76:262|117:276,1,75,0|0,1:0|0:0,0:0:0:0:
105,269,105863,1,0,0:0:0:0:
105,269,105966,1,8,0:0:0:0:
174,329,106171,1,0,0:0:0:0:
241,272,106377,2,0,L|244:192,2,75,0|0|8,1:0|0:0|0:0,0:0:0:0:
379,383,107199,6,0,L|373:256,1,112.5,0|0,1:0|0:0,0:0:0:0:
373,270,107610,1,0,0:0:0:0:
320,211,107815,1,0,0:0:0:0:
255,256,108021,2,0,P|178:256|133:213,1,112.5
150,237,108432,1,0,0:0:0:0:
103,175,108637,1,0,0:0:0:0:
103,324,108843,5,2,0:0:0:0:
