osu file format v14

[General]
AudioFilename: audio.mp3
AudioLeadIn: 0
PreviewTime: 68980
Countdown: 0
SampleSet: Soft
StackLeniency: 0.7
Mode: 0
LetterboxInBreaks: 0
EpilepsyWarning: 1
WidescreenStoryboard: 1

[Editor]
Bookmarks: 13500,26651,82541,85829,89117,95692,108843
DistanceSpacing: 0.7
BeatDivisor: 4
GridSize: 4
TimelineZoom: 2.3

[Metadata]
Title:Greening
TitleUnicode:Greening
Artist:Nekomata Master
ArtistUnicode:猫叉Master
Creator:Ultima Fox
Version:Serenity
Source:pop'n music 12 いろは
Tags:Raindrops グリーニング Plaudible Hobbes2 Naoyuki Sato portable 19 TUNE STREET
BeatmapID:1229987
BeatmapSetID:581012

[Difficulty]
HPDrainRate:5.8
CircleSize:4
OverallDifficulty:8
ApproachRate:9.3
SliderMultiplier:2
SliderTickRate:1

[Events]
//Background and Video events
0,0,"Pixiv.Id.4041406.full.1005536.jpg",0,0
//Break Periods
//Storyboard Layer 0 (Background)
//Storyboard Layer 1 (Fail)
//Storyboard Layer 2 (Pass)
//Storyboard Layer 3 (Foreground)
//Storyboard Sound Samples

[TimingPoints]
350,410.958904109589,4,2,2,39,1,0
350,-133.333333333333,4,2,2,39,0,0
13500,-80,4,2,1,68,0,1
14322,-71.4285714285714,4,2,1,68,0,1
14630,-80,4,2,1,68,0,1
17199,-90.9090909090909,4,2,1,68,0,1
17610,-80,4,2,1,68,0,1
26240,-100,4,2,1,68,0,0
41445,-133.333333333333,4,2,1,68,0,0
43089,-100,4,2,1,68,0,0
55418,-133.333333333333,4,2,1,68,0,0
56240,-100,4,2,1,68,0,0
67747,-133.333333333333,4,2,1,68,0,0
68569,-133.333333333333,4,2,2,68,0,0
69185,-133.333333333333,4,2,1,68,0,0
69391,-80,4,2,1,68,0,1
73089,-90.9090909090909,4,2,1,68,0,1
73500,-80,4,2,1,68,0,1
85829,-133.333333333333,4,2,1,68,0,0
89117,-80,4,2,1,68,0,1
95692,-100,4,2,1,68,0,0
107199,-133.333333333333,4,2,1,68,0,0

[Colours]
Combo1 : 167,133,194
Combo2 : 125,255,165
Combo3 : 255,108,255
Combo4 : 0,219,0

[HitObjects]
108,298,350,6,0,L|196:308,1,75.0000028610231
350,234,658,1,0,0:0:0:0:
350,234,760,2,0,L|262:244,1,75.0000028610231
100,173,1171,6,0,L|188:183,1,75.0000028610231
342,109,1480,1,0,0:0:0:0:
342,109,1582,2,0,L|254:119,1,75.0000028610231
440,70,1993,6,0,P|447:123|430:177,1,75.0000028610231
263,191,2302,1,0,0:0:0:0:
263,191,2404,2,0,P|259:153|266:117,1,75.0000028610231
380,265,2815,5,0,0:0:0:0:
246,303,3021,1,0,0:0:0:0:
382,276,3226,5,0,0:0:0:0:
243,291,3432,1,0,0:0:0:0:
447,151,3637,6,0,P|457:210|450:248,1,75.0000028610231
455,224,3945,1,0,0:0:0:0:
455,224,4048,1,0,0:0:0:0:
309,132,4254,1,0,0:0:0:0:
404,36,4459,6,0,L|496:27,1,75.0000028610231
478,28,4767,1,0,0:0:0:0:
478,28,4870,1,0,0:0:0:0:
345,207,5076,1,0,0:0:0:0:
222,106,5281,6,0,L|218:7,1,75.0000028610231
345,207,5692,1,0,0:0:0:0:
343,244,5795,1,0,0:0:0:0:
341,281,5897,1,0,0:0:0:0:
197,337,6103,5,0,0:0:0:0:
197,337,6206,2,0,P|148:308|103:310,1,75.0000028610231
46,187,6514,2,0,P|64:218|80:231,1,37.5000014305115
129,116,6719,2,0,P|126:145|132:174,1,37.5000014305115
252,139,6925,5,0,0:0:0:0:
238,120,7028,1,0,0:0:0:0:
217,127,7131,1,0,0:0:0:0:
217,150,7233,1,0,0:0:0:0:
238,157,7336,1,2,0:0:0:0:
378,203,7541,6,0,P|381:178|379:142,1,37.5000014305115
304,272,7747,5,0,0:0:0:0:
317,290,7850,1,0,0:0:0:0:
334,303,7952,1,0,0:0:0:0:
355,309,8055,1,0,0:0:0:0:
377,312,8158,1,2,0:0:0:0:
417,157,8363,6,0,L|368:168,1,37.5000014305115
301,87,8569,5,0,0:0:0:0:
279,82,8671,1,0,0:0:0:0:
256,79,8774,1,0,0:0:0:0:
234,86,8877,1,0,0:0:0:0:
216,100,8980,2,0,L|220:169,1,37.5000014305115,2|0,0:0|0:0,0:0:0:0:
145,166,9185,2,0,L|143:129,1,37.5000014305115
66,166,9391,5,0,0:0:0:0:
64,188,9493,1,0,0:0:0:0:
64,212,9596,1,0,0:0:0:0:
64,236,9698,1,0,0:0:0:0:
64,260,9802,1,2,0:0:0:0:
195,295,10007,5,0,0:0:0:0:
195,295,10110,1,0,0:0:0:0:
195,295,10213,2,0,P|239:276|292:282,1,75.0000028610231
380,326,10521,1,0,0:0:0:0:
380,326,10623,2,0,P|431:341|475:332,1,75.0000028610231,2|0,0:0|0:0,0:0:0:0:
438,199,11034,5,0,0:0:0:0:
303,340,11240,2,0,L|310:396,2,37.5000014305115,0|0|2,0:0|0:0|0:0,0:0:0:0:
183,220,11651,2,0,L|189:159,1,37.5000014305115
328,134,11856,6,0,P|360:125|388:125,1,37.5000014305115
292,206,12062,2,0,P|301:238|301:266,1,37.5000014305115
222,173,12267,2,0,P|190:182|162:182,1,37.5000014305115
255,100,12473,2,0,P|246:68|246:40,1,37.5000014305115
228,249,12678,6,0,P|222:270|199:304,1,37.5000014305115
180,108,12884,2,0,P|159:102|125:79,1,37.5000014305115
321,58,13089,2,0,P|327:37|350:3,1,37.5000014305115
369,201,13295,2,0,P|390:207|424:230,1,37.5000014305115
85,232,13500,6,0,P|74:179|89:91,1,125,4|0,1:2|0:0,0:0:0:0:
198,78,13808,1,0,0:0:0:0:
198,78,13911,2,0,P|231:87|297:79,1,62.5,8|0,0:0|0:0,0:0:0:0:
404,165,14117,2,0,P|354:153|308:165,1,62.5
325,260,14322,6,0,P|375:285|340:243,1,139.999995727539,0|0,1:0|0:0,0:0:0:0:
216,238,14630,1,0,0:0:0:0:
216,238,14733,2,0,L|214:326,1,62.5,8|0,0:0|0:0,0:0:0:0:
78,353,14939,2,0,L|76:290,1,62.5
40,142,15144,6,0,P|97:170|181:145,1,125,0|0,1:0|0:0,0:0:0:0:
278,153,15452,1,0,0:0:0:0:
202,71,15555,2,0,P|250:43|347:76,1,125,8|0,0:0|0:0,0:0:0:0:
399,167,15863,1,0,0:0:0:0:
399,167,15966,2,0,L|392:255,1,62.5,0|0,1:0|0:0,0:0:0:0:
285,345,16171,6,0,L|246:334,2,31.25
429,317,16377,2,0,P|479:305|519:305,1,62.5,8|0,0:0|0:0,0:0:0:0:
304,250,16582,2,0,P|298:202|309:144,1,62.5
172,87,16788,6,0,P|177:156|168:198,1,62.5,2|0,1:2|0:0,0:0:0:0:
82,237,16993,1,0,0:0:0:0:
48,135,17096,1,0,0:0:0:0:
168,238,17199,2,0,P|142:305|32:315,1,165.000005035401,8|0,0:0|0:0,0:0:0:0:
177,148,17610,6,0,L|266:157,1,62.5,0|0,1:0|0:0,0:0:0:0:
416,115,17815,2,0,L|327:124,1,62.5
199,239,18021,2,0,L|339:254,1,125,8|0,0:0|0:0,0:0:0:0:
416,115,18329,5,0,0:0:0:0:
416,115,18432,2,0,P|409:68|420:18,1,62.5,0|0,1:0|0:0,0:0:0:0:
344,166,18637,2,0,P|321:124|314:73,1,62.5
224,257,18843,6,0,P|231:210|220:160,1,62.5,8|0,0:0|0:0,0:0:0:0:
296,308,19048,2,0,P|318:266|325:215,1,62.5
464,348,19254,6,0,P|457:301|468:251,1,62.5,0|0,1:0|0:0,0:0:0:0:
432,49,19459,2,0,P|437:80|436:112,1,62.5
512,160,19665,2,0,P|460:200|376:188,1,125,8|0,0:0|0:0,0:0:0:0:
280,164,19973,1,0,0:0:0:0:
264,148,20076,6,0,P|197:122|123:168,1,125,4|0,1:2|0:0,0:0:0:0:
186,278,20384,1,0,0:0:0:0:
186,278,20486,2,0,P|198:250|194:190,1,62.5,8|0,0:0|0:0,0:0:0:0:
54,123,20692,2,0,P|54:167|98:227,1,62.5
219,31,20897,6,0,L|79:37,1,125,0|0,1:0|0:0,0:0:0:0:
201,140,21206,1,0,0:0:0:0:
201,140,21308,2,0,L|307:152,1,62.5,8|0,0:0|0:0,0:0:0:0:
355,30,21514,2,0,P|344:68|354:124,1,62.5
448,260,21719,6,0,P|391:199|322:194,1,125,0|0,1:0|0:0,0:0:0:0:
206,205,22028,1,0,0:0:0:0:
291,275,22130,2,0,P|236:318|165:310,1,125,8|0,0:0|0:0,0:0:0:0:
94,236,22439,5,0,0:0:0:0:
94,236,22541,2,0,P|99:208|94:150,1,62.5,0|0,1:0|0:0,0:0:0:0:
185,58,22747,2,0,L|188:112,2,31.25
286,145,22952,2,0,P|278:193|285:242,1,62.5,8|0,0:0|0:0,0:0:0:0:
385,288,23158,2,0,L|457:283,1,62.5
512,127,23363,6,0,P|438:141|363:114,1,125,2|0,1:2|0:0,0:0:0:0:
254,31,23671,1,0,0:0:0:0:
254,31,23774,2,0,L|266:110,1,62.5,8|0,0:0|0:0,0:0:0:0:
142,152,23980,2,0,L|130:231,1,62.5
217,305,24185,6,0,P|271:339|346:325,1,125,0|0,1:0|0:0,0:0:0:0:
292,242,24493,1,0,0:0:0:0:
292,242,24596,1,8,0:0:0:0:
123,296,24802,2,0,L|134:379,1,62.5
221,178,25007,5,0,0:0:0:0:
26,192,25213,1,0,0:0:0:0:
26,192,25315,1,0,0:0:0:0:
26,192,25418,1,0,0:0:0:0:
221,178,25623,1,0,0:0:0:0:
113,67,25829,5,0,0:0:0:0:
119,270,26034,1,0,0:0:0:0:
125,280,26103,1,0,0:0:0:0:
134,288,26171,1,0,0:0:0:0:
140,295,26240,2,0,L|268:287,1,100
439,128,26651,6,0,P|373:127|315:97,1,100,4|0,1:2|0:0,0:0:0:0:
243,20,26959,1,0,0:0:0:0:
243,20,27062,2,0,P|251:66|246:101,1,50,8|0,0:0|0:0,0:0:0:0:
143,156,27267,2,0,P|143:192|154:231,1,50
263,276,27473,6,0,B|313:295|315:253|402:296,1,100,0|0,1:0|0:0,0:0:0:0:
433,155,27781,1,0,0:0:0:0:
433,155,27884,2,0,B|383:174|381:132|294:175,1,100,8|0,0:0|0:0,0:0:0:0:
263,276,28192,5,0,0:0:0:0:
263,276,28295,2,0,P|259:300|260:325,1,50
122,278,28500,2,0,P|122:241|111:203,1,50
71,92,28706,2,0,P|117:131|194:128,1,100,8|0,0:0|0:0,0:0:0:0:
284,55,29014,5,0,0:0:0:0:
284,55,29117,2,0,L|267:194,1,100,0|0,1:0|0:0,0:0:0:0:
349,292,29425,1,0,0:0:0:0:
349,292,29528,2,0,P|388:301|411:301,1,50,8|0,0:0|0:0,0:0:0:0:
453,153,29733,2,0,P|428:155|404:162,1,50
266,251,29939,6,0,P|204:272|141:249,1,100,0|0,1:0|0:0,0:0:0:0:
171,266,30247,1,0,0:0:0:0:
171,266,30349,1,8,0:0:0:0:
196,117,30555,1,0,0:0:0:0:
355,174,30760,6,0,L|355:282,1,100,0|0,1:0|0:0,0:0:0:0:
484,309,31069,1,0,0:0:0:0:
484,309,31171,2,0,L|484:209,1,100,8|0,0:0|0:0,0:0:0:0:
504,47,31480,5,0,0:0:0:0:
504,47,31582,2,0,P|442:79|368:66,1,100,0|0,1:0|0:0,0:0:0:0:
290,134,31891,1,0,0:0:0:0:
290,134,31993,2,0,P|249:107|173:106,1,100,8|0,0:0|0:0,0:0:0:0:
84,208,32404,6,0,P|91:248|90:274,1,50,0|0,1:0|0:0,0:0:0:0:
194,359,32610,2,0,L|200:307,3,33.3333333333333,0|0|0|8,0:0|0:0|0:0|0:0,0:0:0:0:
342,226,33021,2,0,P|300:240|252:233,1,50,0|0,1:0|0:0,0:0:0:0:
162,170,33226,5,0,1:0:0:0:
292,77,33432,2,0,L|290:165,1,50
103,311,33637,2,0,P|95:243|79:195,1,100,8|0,0:0|0:0,0:0:0:0:
1,85,33945,5,0,0:0:0:0:
1,85,34048,2,0,L|139:93,1,100,0|0,1:0|0:0,0:0:0:0:
179,218,34356,1,0,0:0:0:0:
179,218,34459,2,0,L|317:210,1,100,8|0,0:0|0:0,0:0:0:0:
401,94,34767,5,0,0:0:0:0:
401,94,34870,2,0,P|392:165|421:222,1,100,0|0,1:0|0:0,0:0:0:0:
313,340,35178,1,0,0:0:0:0:
313,340,35281,2,0,P|323:291|318:250,1,50,8|0,0:0|0:0,0:0:0:0:
168,169,35486,2,0,P|170:193|178:217,1,50
304,78,35692,6,0,L|174:66,1,100,0|0,1:0|0:0,0:0:0:0:
79,166,36000,1,0,0:0:0:0:
79,166,36103,2,0,P|89:238|120:292,1,100,8|0,0:0|0:0,0:0:0:0:
267,173,36514,5,0,1:0:0:0:
115,63,36719,1,0,0:0:0:0:
91,70,36822,1,0,0:0:0:0:
67,77,36925,1,8,0:0:0:0:
195,265,37130,1,0,0:0:0:0:
336,124,37336,6,0,P|346:60|341:3,1,100,0|0,1:0|0:0,0:0:0:0:
467,167,37644,1,0,0:0:0:0:
467,167,37747,2,0,P|478:230|500:281,1,100,8|0,0:0|0:0,0:0:0:0:
333,259,38158,5,0,1:0:0:0:
235,214,38363,1,0,0:0:0:0:
215,316,38569,1,0,0:0:0:0:
122,256,38774,1,0,0:0:0:0:
312,170,38980,5,0,0:0:0:0:
309,361,39185,1,0,0:0:0:0:
309,361,39254,1,0,0:0:0:0:
309,361,39322,1,0,0:0:0:0:
309,361,39391,1,0,0:0:0:0:
157,166,39596,1,0,1:0:0:0:
384,240,39802,6,0,L|500:232,1,100,0|0,1:0|0:0,0:0:0:0:
271,121,40213,1,8,0:0:0:0:
234,287,40418,2,0,L|246:352,1,50
366,159,40623,6,0,L|369:39,1,100,0|0,1:0|0:0,0:0:0:0:
191,182,41034,1,8,0:0:0:0:
331,312,41240,2,0,L|406:313,1,50
276,108,41445,5,0,0:0:0:0:
208,259,41651,2,0,L|217:310,1,37.5000014305115
113,208,41856,1,0,0:0:0:0:
293,217,42062,6,0,L|302:268,1,37.5000014305115
198,166,42267,2,0,L|204:129,1,37.5000014305115
323,211,42473,2,0,L|332:262,1,37.5000014305115
208,369,42678,2,0,P|217:309|198:248,1,112.500004291535
116,216,43089,6,0,P|56:228|-24:212,1,100,4|0,1:2|0:0,0:0:0:0:
183,98,43500,1,8,0:0:0:0:
294,191,43706,2,0,L|292:256,3,33.3333333333333,0|0|0|0,0:0|0:0|0:0|1:0,0:0:0:0:
411,75,44117,2,0,P|416:107|418:144,1,50
492,213,44322,2,0,P|484:273|493:331,1,100,8|0,0:0|0:0,0:0:0:0:
361,258,44630,5,0,0:0:0:0:
361,258,44733,2,0,P|314:237|247:262,1,100,0|0,1:0|0:0,0:0:0:0:
305,334,45041,1,0,0:0:0:0:
305,334,45144,1,8,0:0:0:0:
424,193,45350,1,0,0:0:0:0:
186,130,45555,6,0,L|190:258,1,100,0|0,1:0|0:0,0:0:0:0:
343,96,45966,1,8,0:0:0:0:
188,10,46171,5,0,0:0:0:0:
188,10,46274,1,0,0:0:0:0:
188,10,46377,2,0,P|130:30|67:24,1,100,0|0,1:0|0:0,0:0:0:0:
0,204,46788,2,0,P|63:189|120:202,1,100,8|0,0:0|0:0,0:0:0:0:
193,285,47096,5,0,0:0:0:0:
193,285,47199,2,0,L|185:386,1,100,0|0,1:0|0:0,0:0:0:0:
261,173,47610,1,8,0:0:0:0:
91,288,47815,1,0,0:0:0:0:
316,247,48021,6,0,L|445:256,1,100,0|0,1:0|0:0,0:0:0:0:
281,79,48432,2,0,P|257:139|277:207,1,100,8|0,0:0|0:0,0:0:0:0:
356,64,48843,5,0,1:0:0:0:
352,40,48945,1,0,0:0:0:0:
340,20,49048,1,0,0:0:0:0:
320,8,49151,1,0,0:0:0:0:
296,4,49254,1,8,0:0:0:0:
160,132,49459,2,0,L|168:192,1,50
212,48,49665,6,0,P|156:32|108:48,1,100,4|0,1:2|0:0,0:0:0:0:
116,42,49973,1,0,0:0:0:0:
116,42,50076,1,8,0:0:0:0:
250,217,50281,6,0,L|304:212,3,33.3333333333333,0|0|0|0,0:0|0:0|0:0|1:0,0:0:0:0:
66,150,50692,1,0,0:0:0:0:
212,48,50897,1,8,0:0:0:0:
152,212,51103,2,0,P|160:256|176:280,1,50
264,332,51308,6,0,P|324:312|388:328,1,100,0|0,1:0|0:0,0:0:0:0:
504,360,51617,1,0,0:0:0:0:
504,360,51719,2,0,P|460:304|460:244,1,100,8|0,0:0|0:0,0:0:0:0:
500,120,52130,5,0,1:0:0:0:
384,224,52336,2,0,P|340:236|300:224,1,50
236,180,52541,2,0,L|240:68,1,100,8|0,0:0|0:0,0:0:0:0:
384,224,52952,5,0,1:0:0:0:
272,312,53158,2,0,L|252:240,1,50
468,184,53363,2,0,P|476:244|452:292,1,100,8|0,0:0|0:0,0:0:0:0:
316,384,53774,5,0,1:0:0:0:
244,176,53980,1,0,0:0:0:0:
268,180,54082,1,0,0:0:0:0:
292,184,54185,1,8,0:0:0:0:
168,320,54391,2,0,L|144:232,1,50
301,84,54596,6,0,L|289:208,1,100,0|0,1:0|0:0,0:0:0:0:
224,64,55007,1,0,0:0:0:0:
360,24,55213,1,0,0:0:0:0:
204,140,55418,6,0,L|136:136,1,37.5000014305115
152,224,55623,2,0,L|224:220,1,37.5000014305115
120,64,55829,6,0,P|88:108|96:176,1,112.500004291535,0|0,1:0|0:0,0:0:0:0:
272,324,56240,6,0,L|276:200,1,100,4|0,1:2|0:0,0:0:0:0:
384,108,56651,1,8,0:0:0:0:
468,232,56856,5,0,0:0:0:0:
468,232,56925,1,0,0:0:0:0:
468,232,56993,1,0,0:0:0:0:
468,232,57062,2,0,P|416:264|344:248,1,100,0|0,1:0|0:0,0:0:0:0:
300,140,57370,1,0,0:0:0:0:
300,140,57473,2,0,L|304:32,1,100,8|0,0:0|0:0,0:0:0:0:
148,192,57884,5,0,1:0:0:0:
268,308,58089,1,0,0:0:0:0:
292,308,58192,1,0,0:0:0:0:
316,304,58295,1,8,0:0:0:0:
176,104,58500,1,0,0:0:0:0:
172,316,58706,5,0,1:0:0:0:
260,168,58911,1,0,0:0:0:0:
260,168,59014,1,0,0:0:0:0:
260,168,59117,1,8,0:0:0:0:
276,380,59322,1,0,0:0:0:0:
136,220,59528,6,0,P|128:160|144:112,1,100,0|0,1:0|0:0,0:0:0:0:
264,64,59836,1,0,0:0:0:0:
264,64,59939,2,0,L|384:72,1,100,8|0,0:0|0:0,0:0:0:0:
464,224,60349,6,0,P|392:228|336:244,1,100,0|0,1:0|0:0,0:0:0:0:
256,360,60658,1,0,0:0:0:0:
256,360,60760,2,0,P|264:296|256:248,1,100,8|0,0:0|0:0,0:0:0:0:
132,144,61171,5,0,1:0:0:0:
56,276,61377,1,0,0:0:0:0:
32,288,61480,1,0,0:0:0:0:
8,292,61582,1,8,0:0:0:0:
212,104,61788,2,0,P|220:148|216:176,1,50
152,280,61993,5,0,1:0:0:0:
180,260,62096,1,0,0:0:0:0:
212,248,62199,1,0,0:0:0:0:
248,244,62302,1,0,0:0:0:0:
280,252,62404,2,0,L|292:368,1,100,8|0,0:0|0:0,0:0:0:0:
424,260,62713,5,0,0:0:0:0:
424,260,62815,2,0,P|420:196|432:124,1,100,4|0,1:2|0:0,0:0:0:0:
352,40,63226,1,8,0:0:0:0:
252,112,63432,5,0,0:0:0:0:
252,112,63501,1,0,0:0:0:0:
252,112,63569,1,0,0:0:0:0:
252,112,63637,2,0,P|176:124|140:112,1,100,0|0,1:0|0:0,0:0:0:0:
48,32,63945,1,0,0:0:0:0:
48,32,64048,2,0,L|64:148,1,100,8|0,0:0|0:0,0:0:0:0:
212,224,64459,5,0,1:0:0:0:
153,41,64665,1,0,0:0:0:0:
178,37,64767,1,0,0:0:0:0:
206,32,64870,1,8,0:0:0:0:
104,216,65076,1,0,0:0:0:0:
288,164,65281,6,0,P|344:160|404:176,1,100,0|0,1:0|0:0,0:0:0:0:
456,264,65589,1,0,0:0:0:0:
456,264,65692,2,0,L|448:384,1,100,8|0,0:0|0:0,0:0:0:0:
244,248,66103,5,4,1:2:0:0:
384,88,66308,1,0,0:0:0:0:
340,300,66514,1,8,0:0:0:0:
204,164,66719,2,0,L|196:92,1,50
80,52,66925,6,0,L|72:164,1,100,0|0,1:0|0:0,0:0:0:0:
72,151,67233,1,0,0:0:0:0:
72,151,67336,1,8,0:0:0:0:
180,272,67541,5,0,0:0:0:0:
204,248,67644,1,0,0:0:0:0:
232,236,67747,2,0,P|284:236|328:252,1,75.0000028610231,0|0,1:0|0:0,0:0:0:0:
432,336,68055,1,0,0:0:0:0:
432,336,68158,2,0,P|420:288|428:236,1,75.0000028610231
508,152,68569,5,2,0:0:0:0:
328,316,68774,1,0,0:0:0:0:
380,156,68980,1,2,0:0:0:0:
408,384,69185,1,0,1:0:0:0:
264,188,69391,6,0,P|196:172|128:216,1,125,4|0,1:2|0:0,0:0:0:0:
340,256,69699,1,0,0:0:0:0:
340,256,69802,2,0,P|360:208|356:152,1,62.5,8|0,0:0|0:0,0:0:0:0:
256,36,70007,2,0,P|256:80|280:132,1,62.5
456,176,70213,6,0,P|424:116|336:108,1,125,0|0,1:0|0:0,0:0:0:0:
260,192,70521,1,0,0:0:0:0:
260,192,70623,2,0,P|264:244|252:284,1,62.5,8|0,0:0|0:0,0:0:0:0:
116,344,70829,2,0,P|104:292|116:228,1,62.5
180,128,71034,6,0,P|232:88|308:104,1,125,0|0,1:0|0:0,0:0:0:0:
424,128,71343,1,0,0:0:0:0:
352,192,71445,2,0,P|404:232|480:216,1,125,8|0,0:0|0:0,0:0:0:0:
512,96,71754,5,0,0:0:0:0:
512,96,71856,2,0,L|500:20,1,62.5,0|0,1:0|0:0,0:0:0:0:
352,192,72062,2,0,L|348:252,2,41.6666666666667
268,104,72267,2,0,P|220:92|180:100,1,62.5,8|0,0:0|0:0,0:0:0:0:
108,172,72473,2,0,L|120:248,1,62.5
248,344,72678,6,0,P|248:300|268:232,1,62.5,2|0,1:2|0:0,0:0:0:0:
352,192,72884,1,0,0:0:0:0:
368,324,72986,1,0,0:0:0:0:
260,184,73089,2,0,P|284:128|420:128,1,165.000005035401,8|0,0:0|0:0,0:0:0:0:
452,212,73500,6,0,P|452:244|464:300,1,62.5,0|0,1:0|0:0,0:0:0:0:
280,364,73706,2,0,P|284:333|284:301,1,62.5
247,136,73911,2,0,P|303:184|387:184,1,125,8|0,0:0|0:0,0:0:0:0:
161,102,74219,5,0,0:0:0:0:
161,102,74322,2,0,P|157:142|173:198,1,62.5,0|0,1:0|0:0,0:0:0:0:
62,149,74528,2,0,P|72:195|94:240,1,62.5
209,232,74733,6,0,P|213:272|197:328,1,62.5,8|0,0:0|0:0,0:0:0:0:
308,279,74939,2,0,P|298:325|276:370,1,62.5
116,355,75144,6,0,P|109:299|120:250,1,62.5,0|0,1:0|0:0,0:0:0:0:
232,133,75350,1,0,0:0:0:0:
239,142,75452,1,0,0:0:0:0:
249,149,75555,2,0,P|308:170|376:155,1,125,8|0,0:0|0:0,0:0:0:0:
199,70,75863,5,0,0:0:0:0:
172,82,75966,2,0,P|146:148|178:228,1,125,4|0,1:2|0:0,0:0:0:0:
280,315,76274,1,0,0:0:0:0:
280,315,76377,2,0,P|326:309|395:321,1,62.5,8|0,0:0|0:0,0:0:0:0:
430,165,76582,2,0,P|398:164|368:159,1,62.5
217,85,76788,6,0,P|249:140|238:226,1,125,0|0,1:0|0:0,0:0:0:0:
153,309,77096,1,0,0:0:0:0:
153,309,77199,2,0,P|110:298|68:300,1,62.5,8|0,0:0|0:0,0:0:0:0:
248,199,77404,2,0,P|301:192|329:177,1,62.5
484,292,77610,6,0,P|408:264|344:296,1,125,0|0,1:0|0:0,0:0:0:0:
249,287,77918,1,0,0:0:0:0:
315,357,78021,2,0,P|239:385|175:353,1,125,8|0,0:0|0:0,0:0:0:0:
120,264,78329,5,0,0:0:0:0:
120,264,78432,2,0,P|128:228|120:160,1,62.5,0|0,1:0|0:0,0:0:0:0:
69,102,78637,2,0,L|7:94,1,62.5
176,44,78843,2,0,P|232:36|272:12,1,62.5,8|0,0:0|0:0,0:0:0:0:
310,108,79048,2,0,P|350:112|390:132,1,62.5
318,228,79254,6,0,L|306:360,1,125,2|0,1:2|0:0,0:0:0:0:
144,304,79562,1,0,0:0:0:0:
144,304,79665,2,0,P|140:268|128:224,1,62.5,8|0,0:0|0:0,0:0:0:0:
220,172,79870,1,0,0:0:0:0:
176,380,80076,6,0,P|124:388|64:304,1,125,0|0,1:0|0:0,0:0:0:0:
144,304,80384,1,0,0:0:0:0:
144,304,80486,1,8,0:0:0:0:
300,232,80692,2,0,P|304:272|320:312,1,62.5
400,172,80897,5,0,1:0:0:0:
192,176,81103,1,0,0:0:0:0:
192,176,81206,1,0,0:0:0:0:
192,176,81308,1,8,0:0:0:0:
404,272,81514,1,0,0:0:0:0:
257,57,81719,6,0,L|185:52,1,62.5,0|0,1:0|0:0,0:0:0:0:
57,121,81925,1,0,0:0:0:0:
57,121,81993,1,0,0:0:0:0:
57,121,82062,1,0,0:0:0:0:
57,121,82130,2,0,P|105:113|141:117,1,62.5,8|0,0:0|0:0,0:0:0:0:
192,176,82336,1,0,0:0:0:0:
272,344,82541,6,0,P|272:260|296:200,1,125,4|0,1:2|0:0,0:0:0:0:
392,124,82850,1,0,0:0:0:0:
392,124,82952,2,0,P|344:144|284:132,1,62.5,8|0,0:0|0:0,0:0:0:0:
204,144,83158,2,0,L|196:68,1,62.5
84,164,83363,6,0,L|80:300,1,125,0|0,1:0|0:0,0:0:0:0:
80,288,83671,1,0,0:0:0:0:
80,288,83774,1,8,0:0:0:0:
230,347,83980,2,0,P|274:343|294:335,2,41.6666666666667
292,256,84185,6,0,P|344:280|352:376,1,125,0|0,1:0|0:0,0:0:0:0:
200,256,84493,1,0,0:0:0:0:
200,256,84596,2,0,L|208:168,1,62.5,8|0,0:0|0:0,0:0:0:0:
80,120,84802,2,0,P|84:160|80:216,1,62.5
92,292,85007,1,0,0:0:0:0:
180,92,85213,5,0,0:0:0:0:
176,344,85418,1,8,0:0:0:0:
83,182,85623,1,0,0:0:0:0:
312,240,85829,6,0,P|324:288|320:336,1,75.0000028610231,0|0,1:0|0:0,0:0:0:0:
208,248,86240,6,0,P|160:260|112:256,1,75.0000028610231
200,144,86651,6,0,P|188:96|192:48,1,75.0000028610231
304,136,87062,6,0,P|352:124|400:128,1,75.0000028610231
448,200,87336,5,0,0:0:0:0:
448,200,87404,1,0,0:0:0:0:
448,200,87473,2,0,L|444:284,1,75.0000028610231
300,363,87884,2,0,P|295:313|285:284,1,75.0000028610231
158,225,88192,5,0,1:0:0:0:
106,307,88295,2,0,P|155:321|209:304,1,75.0000028610231,0|0,1:0|0:0,0:0:0:0:
182,149,88603,5,0,1:0:0:0:
79,159,88706,2,0,L|70:257,1,75.0000028610231,0|0,1:0|0:0,0:0:0:0:
188,133,89014,5,0,1:0:0:0:
230,26,89117,2,0,P|165:16|97:65,1,125,4|0,3:2|3:0,3:0:0:0:
248,202,89425,1,0,0:0:0:0:
248,202,89528,2,0,L|335:192,1,62.5,8|0,0:0|0:0,0:0:0:0:
397,323,89733,2,0,P|361:313|298:315,1,62.5
195,384,89939,6,0,P|195:287|154:238,1,125,0|0,1:0|0:0,0:0:0:0:
71,227,90247,1,0,0:0:0:0:
71,227,90350,2,0,L|-12:240,1,62.5,8|0,0:0|0:0,0:0:0:0:
64,122,90555,2,0,L|155:134,1,62.5
231,161,90760,6,0,P|285:126|362:151,1,125,0|0,1:0|0:0,0:0:0:0:
439,168,91069,1,0,0:0:0:0:
369,232,91171,2,0,P|423:267|500:242,1,125,8|0,0:0|0:0,0:0:0:0:
507,114,91480,5,0,0:0:0:0:
507,114,91582,2,0,P|500:50|508:26,1,62.5,0|0,1:0|0:0,0:0:0:0:
398,109,91788,6,0,P|315:135|288:128,1,62.5
194,156,91993,2,0,P|258:214|265:241,1,62.5,8|0,0:0|0:0,0:0:0:0:
336,309,92199,2,0,P|354:224|374:204,1,62.5
339,42,92404,5,0,1:0:0:0:
115,255,92610,1,0,1:0:0:0:
410,196,92815,5,0,1:0:0:0:
125,91,93021,1,0,1:0:0:0:
298,354,93226,5,0,1:0:0:0:
231,57,93432,1,0,1:0:0:0:
153,347,93637,5,0,1:0:0:0:
375,169,93843,1,0,1:0:0:0:
152,234,94048,6,0,L|40:217,1,62.5,0|0,1:0|1:0,0:0:0:0:
220,118,94254,2,0,L|281:127,1,62.5,0|0,1:0|1:0,0:0:0:0:
265,306,94459,6,0,P|253:253|263:209,1,62.5,0|0,1:0|1:0,0:0:0:0:
93,53,94665,2,0,P|105:106|95:150,1,62.5,0|0,1:0|1:0,0:0:0:0:
192,216,94870,5,0,1:0:0:0:
150,216,94973,1,0,1:0:0:0:
135,177,95076,1,0,1:0:0:0:
168,150,95178,1,0,1:0:0:0:
202,175,95281,1,0,1:0:0:0:
344,229,95486,1,8,0:0:0:0:
298,62,95692,6,0,P|245:78|185:77,1,100,4|0,1:2|0:0,0:0:0:0:
200,79,96000,1,0,0:0:0:0:
200,79,96103,1,8,0:0:0:0:
59,55,96308,1,0,0:0:0:0:
136,196,96514,6,0,P|197:184|263:192,1,100,0|0,1:0|0:0,0:0:0:0:
234,185,96822,1,0,0:0:0:0:
234,185,96925,1,8,0:0:0:0:
375,245,97130,1,0,0:0:0:0:
318,102,97336,5,0,1:0:0:0:
258,280,97541,1,0,0:0:0:0:
262,294,97644,1,0,0:0:0:0:
266,308,97747,1,8,0:0:0:0:
391,157,97952,1,0,0:0:0:0:
219,103,98158,6,0,L|107:98,1,100,0|0,1:0|0:0,0:0:0:0:
119,98,98466,1,0,0:0:0:0:
119,98,98569,1,8,0:0:0:0:
72,226,98774,1,0,0:0:0:0:
291,278,98980,6,0,P|276:220|288:154,1,100,0|0,1:0|0:0,0:0:0:0:
279,180,99288,1,0,0:0:0:0:
279,180,99391,1,8,0:0:0:0:
400,213,99596,1,0,0:0:0:0:
320,369,99802,6,0,L|194:360,1,100,0|0,1:0|0:0,0:0:0:0:
220,361,100110,1,0,0:0:0:0:
220,361,100213,1,8,0:0:0:0:
274,159,100418,1,0,0:0:0:0:
416,297,100623,5,0,1:0:0:0:
223,223,100829,1,0,0:0:0:0:
208,225,100932,1,0,0:0:0:0:
193,227,101034,1,8,0:0:0:0:
347,100,101240,2,0,P|351:141|342:177,1,50
206,115,101445,6,0,P|202:74|211:38,1,50,0|0,1:0|0:0,0:0:0:0:
382,100,101651,2,0,P|384:126|378:178,1,50
266,193,101856,1,8,0:0:0:0:
286,31,102062,1,0,0:0:0:0:
84,122,102267,6,0,L|91:230,1,100,4|0,1:2|0:0,0:0:0:0:
90,221,102576,1,0,0:0:0:0:
90,221,102678,1,8,0:0:0:0:
202,328,102884,1,0,0:0:0:0:
289,229,103089,6,0,P|342:223|400:252,1,100,0|0,1:0|0:0,0:0:0:0:
384,239,103397,1,0,0:0:0:0:
384,239,103500,1,8,0:0:0:0:
324,341,103706,1,0,0:0:0:0:
207,235,103911,6,0,B|218:186|195:188|215:96,1,100,0|0,1:0|0:0,0:0:0:0:
208,135,104219,1,0,0:0:0:0:
208,135,104322,1,8,0:0:0:0:
326,92,104528,1,0,0:0:0:0:
300,273,104733,5,0,1:0:0:0:
132,203,104939,1,0,0:0:0:0:
117,203,105041,1,0,0:0:0:0:
102,204,105144,1,8,0:0:0:0:
198,338,105349,1,0,0:0:0:0:
325,191,105555,6,0,P|330:133|319:63,1,100,0|0,1:0|0:0,0:0:0:0:
325,91,105863,1,0,0:0:0:0:
325,91,105966,1,8,0:0:0:0:
216,20,106171,1,0,0:0:0:0:
108,104,106377,6,0,P|103:153|108:203,1,100,0|0,1:0|0:0,0:0:0:0:
108,203,106685,1,0,0:0:0:0:
108,203,106788,1,8,0:0:0:0:
228,296,106993,1,0,0:0:0:0:
325,191,107199,6,0,L|428:200,1,75.0000028610231,0|0,1:0|0:0,0:0:0:0:
399,197,107507,1,0,0:0:0:0:
399,197,107610,1,0,0:0:0:0:
476,148,107815,1,0,0:0:0:0:
480,236,108021,6,0,P|472:296|484:340,1,75.0000028610231
474,309,108329,1,0,0:0:0:0:
474,309,108432,1,0,0:0:0:0:
368,284,108637,1,0,0:0:0:0:
476,148,108843,5,2,0:0:0:0:
