osu file format v14

[General]
AudioFilename: audio.mp3
AudioLeadIn: 0
PreviewTime: 68980
Countdown: 0
SampleSet: Soft
StackLeniency: 0.7
Mode: 0
LetterboxInBreaks: 0
EpilepsyWarning: 1
WidescreenStoryboard: 1

[Editor]
Bookmarks: 13500,26651,82541,85829,89117,95692,108843
DistanceSpacing: 1.2
BeatDivisor: 4
GridSize: 4
TimelineZoom: 1.6

[Metadata]
Title:Greening
TitleUnicode:Greening
Artist:Nekomata Master
ArtistUnicode:猫叉Master
Creator:Ultima Fox
Version:Advanced
Source:pop'n music 12 いろは
Tags:Raindrops グリーニング Plaudible Hobbes2 Naoyuki Sato portable 19 TUNE STREET
BeatmapID:1331163
BeatmapSetID:581012

[Difficulty]
HPDrainRate:4
CircleSize:3.5
OverallDifficulty:5
ApproachRate:5
SliderMultiplier:1.4
SliderTickRate:1

[Events]
//Background and Video events
0,0,"Pixiv.Id.4041406.full.1005536.jpg",0,0
//Break Periods
//Storyboard Layer 0 (Background)
//Storyboard Layer 1 (Fail)
//Storyboard Layer 2 (Pass)
//Storyboard Layer 3 (Foreground)
//Storyboard Sound Samples

[TimingPoints]
350,410.958904109589,4,2,2,39,1,0
350,-100,4,2,2,39,0,0
13500,-83.3333333333333,4,2,1,68,0,1
25007,-111.111111111111,4,2,1,68,0,1
26651,-100,4,2,1,68,0,0
39802,-111.111111111111,4,2,1,68,0,0
42678,-100,4,2,1,68,0,0
67747,-111.111111111111,4,2,1,68,0,0
68569,-111.111111111111,4,2,2,68,0,0
69185,-83.3333333333333,4,2,1,68,0,0
69391,-83.3333333333333,4,2,1,68,0,1
85829,-111.111111111111,4,2,1,68,0,0
89117,-83.3333333333333,4,2,1,68,0,1
95692,-100,4,2,1,68,0,0

[Colours]
Combo1 : 167,133,194
Combo2 : 125,255,165
Combo3 : 255,108,255
Combo4 : 0,219,0

[HitObjects]
140,255,350,6,0,B|211:238|212:282|303:258,1,140,0|0,0:0|0:0,0:0:0:0:
404,152,1171,2,0,B|333:169|332:125|241:149,1,140,0|0,0:0|0:0,0:0:0:0:
122,54,1993,2,0,P|143:106|128:204,1,140,0|0,0:0|0:0,0:0:0:0:
154,270,2610,1,0,0:0:0:0:
229,234,2815,2,0,P|280:226|312:229,2,70,0|0|0,0:0|0:0|0:0,0:0:0:0:
380,308,3637,6,0,P|417:258|397:169,1,140,0|0,0:0|0:0,0:0:0:0:
357,116,4254,1,0,0:0:0:0:
275,136,4459,2,0,P|227:147|132:137,1,140,0|0,0:0|0:0,0:0:0:0:
45,280,5281,6,0,P|114:270|182:282,1,140,0|0,0:0|0:0,0:0:0:0:
244,339,5897,1,0,0:0:0:0:
280,264,6103,2,0,L|275:130,2,105,0|0|0,0:0|0:0|0:0,0:0:0:0:
351,308,6925,6,0,P|409:293|480:312,1,105,0|0,0:0|0:0,0:0:0:0:
488,322,7336,1,2,0:0:0:0:
413,173,7747,2,0,P|355:188|284:169,1,105,0|0,0:0|0:0,0:0:0:0:
276,159,8158,1,2,0:0:0:0:
125,83,8569,6,0,L|111:256,1,140,0|2,0:0|0:0,0:0:0:0:
152,297,9185,1,0,0:0:0:0:
217,243,9391,2,0,P|264:236|320:248,1,105,0|0,0:0|0:0,0:0:0:0:
353,272,9802,1,2,0:0:0:0:
449,134,10213,6,0,P|402:141|346:129,1,105,0|0,0:0|0:0,0:0:0:0:
313,105,10623,2,0,L|305:24,1,70,2|0,0:0|0:0,0:0:0:0:
224,14,11034,2,0,L|179:25,4,35,0|0|0|0|2,0:0|0:0|0:0|0:0|0:0,0:0:0:0:
256,192,11856,12,0,13089,0:0:0:0:
83,198,13500,6,0,P|125:148|240:153,1,167.999994873047,4|8,1:2|0:0,0:0:0:0:
276,228,14117,1,0,0:0:0:0:
347,157,14322,2,0,L|336:61,2,83.9999974365235,0|0|8,1:0|0:0|0:0,0:0:0:0:
504,284,15144,6,0,P|441:256|363:284,1,125.999996154785,0|0,1:0|0:0,0:0:0:0:
345,296,15555,2,0,L|340:385,1,83.9999974365235,8|0,0:0|0:0,0:0:0:0:
239,378,15966,2,0,L|234:294,1,83.9999974365235,0|0,1:0|0:0,0:0:0:0:
288,208,16377,1,8,0:0:0:0:
141,346,16788,6,0,P|88:371|12:345,1,125.999996154785,2|0,1:2|0:0,0:0:0:0:
6,308,17199,2,0,L|6:224,1,83.9999974365235,8|0,0:0|0:0,0:0:0:0:
80,156,17610,1,0,1:0:0:0:
254,257,18021,2,0,L|248:361,1,83.9999974365235,8|0,0:0|0:0,0:0:0:0:
345,371,18432,6,0,P|397:373|474:295,1,167.999994873047,0|8,1:0|0:0,0:0:0:0:
403,105,19254,2,0,B|321:80|322:133|220:104,1,167.999994873047,0|8,1:0|0:0,0:0:0:0:
154,50,19870,1,0,0:0:0:0:
134,150,20076,6,0,P|149:232|117:319,1,167.999994873047,4|8,1:2|0:0,0:0:0:0:
198,377,20692,1,0,0:0:0:0:
261,299,20897,2,0,P|304:285|357:292,2,83.9999974365235,0|0|8,1:0|0:0|0:0,0:0:0:0:
105,169,21719,6,0,P|177:197|244:168,1,125.999996154785,0|0,1:0|0:0,0:0:0:0:
253,145,22130,2,0,L|248:56,1,83.9999974365235,8|0,0:0|0:0,0:0:0:0:
349,63,22541,2,0,L|344:146,1,83.9999974365235,0|0,1:0|0:0,0:0:0:0:
300,238,22952,1,8,0:0:0:0:
485,316,23363,6,0,P|469:229|489:132,1,167.999994873047,2|8,1:2|0:0,0:0:0:0:
300,238,24185,2,0,L|186:241,1,83.9999974365235,0|0,1:0|0:0,0:0:0:0:
204,340,24596,2,0,L|287:337,1,83.9999974365235,8|0,0:0|0:0,0:0:0:0:
373,369,25007,6,0,P|412:357|507:365,1,125.999996154785
510,210,25829,2,0,P|454:197|386:202,1,125.999996154785
220,224,26651,6,0,P|183:188|207:86,1,140,4|8,1:2|0:0,0:0:0:0:
356,119,27473,2,0,L|352:288,1,140,0|8,1:0|0:0,0:0:0:0:
292,317,28089,1,0,0:0:0:0:
229,260,28295,6,0,P|177:248|89:284,1,140,0|8,0:0|0:0,0:0:0:0:
55,116,29117,2,0,P|118:144|187:133,1,140,0|8,1:0|0:0,0:0:0:0:
241,69,29733,1,0,0:0:0:0:
300,128,29939,6,0,P|298:230|310:280,1,140,0|8,1:0|0:0,0:0:0:0:
431,378,30760,2,0,P|465:375|499:366,2,70,0|0|8,1:0|0:0|0:0,0:0:0:0:
305,266,31582,6,0,P|256:288|163:273,1,140,0|8,1:0|0:0,0:0:0:0:
69,144,32404,2,0,L|62:67,1,70,0|0,1:0|0:0,0:0:0:0:
146,75,32815,2,0,L|152:144,1,70,8|0,0:0|1:0,0:0:0:0:
116,220,33226,6,0,P|46:232|-8:192,1,140,0|8,1:0|0:0,0:0:0:0:
76,47,34048,2,0,L|234:62,1,140,0|8,1:0|0:0,0:0:0:0:
294,29,34665,1,0,0:0:0:0:
298,112,34870,6,0,P|302:197|297:261,1,140,0|8,1:0|0:0,0:0:0:0:
168,358,35692,1,0,1:0:0:0:
138,192,36103,1,8,0:0:0:0:
297,250,36514,6,0,L|445:243,1,140,0|8,1:0|0:0,0:0:0:0:
382,84,37336,2,0,L|242:90,1,140,0|8,1:0|0:0,0:0:0:0:
161,238,38158,6,0,P|156:302|158:330,2,70,0|0|0,1:0|0:0|0:0,0:0:0:0:
1,185,38980,2,0,P|6:249|4:277,1,70
83,222,39391,2,0,P|83:187|87:152,1,70
151,98,39802,6,0,P|203:108|289:105,1,125.999996154785,0|8,1:0|0:0,0:0:0:0:
396,12,40623,1,0,1:0:0:0:
452,152,41034,2,0,P|444:192|444:228,1,62.9999980773926,8|0,0:0|0:0,0:0:0:0:
495,269,41445,6,0,P|459:249|359:257,1,125.999996154785
248,331,42267,2,0,P|204:343|164:339,1,62.9999980773926
112,302,42678,2,0,L|108:190,1,105
124,156,43089,6,0,P|196:124|280:148,1,140,4|8,1:2|0:0,0:0:0:0:
311,199,43706,1,0,0:0:0:0:
340,120,43911,2,0,L|338:23,2,70,0|0|8,1:0|0:0|0:0,0:0:0:0:
499,173,44733,6,0,L|493:324,1,140,0|8,1:0|0:0,0:0:0:0:
331,358,45555,2,0,P|324:309|325:269,1,70,0|0,1:0|0:0,0:0:0:0:
338,204,45966,1,8,0:0:0:0:
148,245,46377,6,0,P|164:296|163:391,2,140,0|8|0,1:0|0:0|1:0,0:0:0:0:
18,141,47610,2,0,P|59:152|103:150,1,70,8|0,0:0|0:0,0:0:0:0:
167,165,48021,6,0,P|212:124|314:137,1,140,0|8,1:0|0:0,0:0:0:0:
393,253,48843,2,0,L|388:332,2,70,0|0|8,1:0|0:0|0:0,0:0:0:0:
507,129,49665,6,0,P|452:153|352:128,1,140,4|8,1:2|0:0,0:0:0:0:
321,76,50281,1,0,0:0:0:0:
279,148,50486,2,0,P|283:199|281:239,2,70,0|0|8,1:0|0:0|0:0,0:0:0:0:
150,39,51308,6,0,P|93:37|29:114,1,140,0|8,1:0|0:0,0:0:0:0:
137,223,52130,2,0,P|203:222|230:218,1,70,0|0,1:0|0:0,0:0:0:0:
255,152,52541,1,8,0:0:0:0:
353,287,52952,6,0,L|355:367,2,70,0|0|8,1:0|0:0|0:0,0:0:0:0:
459,156,53774,2,0,P|407:193|318:168,1,140,0|8,1:0|0:0,0:0:0:0:
318,98,54391,2,0,P|352:94|385:106,1,70,0|0,0:0|1:0,0:0:0:0:
384,108,55829,2,0,P|381:164|390:245,1,105,0|0,1:0|0:0,0:0:0:0:
396,252,56240,6,0,P|337:231|247:275,1,140,4|8,1:2|0:0,0:0:0:0:
212,320,56856,1,0,0:0:0:0:
158,258,57062,2,0,P|159:199|146:113,1,140,0|8,1:0|0:0,0:0:0:0:
295,38,57884,6,0,P|284:107|284:177,1,140,0|8,1:0|0:0,0:0:0:0:
350,229,58500,1,0,0:0:0:0:
406,166,58706,2,0,P|458:159|487:162,2,70,0|0|8,1:0|0:0|0:0,0:0:0:0:
265,258,59528,6,0,P|191:283|109:243,2,140,0|8|0,1:0|0:0|1:0,0:0:0:0:
348,111,60760,2,0,P|351:53|342:14,1,70,8|0,0:0|0:0,0:0:0:0:
265,29,61171,6,0,L|118:33,1,140,0|8,1:0|0:0,0:0:0:0:
25,168,61993,2,0,P|33:213|32:248,2,70,0|0|8,1:0|0:0|0:0,0:0:0:0:
193,164,62815,6,0,P|236:136|337:168,1,140,4|8,1:2|0:0,0:0:0:0:
364,223,63432,1,0,0:0:0:0:
409,152,63637,2,0,P|406:99|412:55,2,70,0|0|8,1:0|0:0|0:0,0:0:0:0:
262,235,64459,6,0,L|267:380,1,140,0|8,1:0|0:0,0:0:0:0:
113,305,65281,2,0,P|125:254|127:212,1,70,0|0,1:0|0:0,0:0:0:0:
93,159,65692,1,8,0:0:0:0:
34,316,66103,6,0,P|61:368|151:375,1,140,4|8,1:2|0:0,0:0:0:0:
272,281,66925,2,0,B|247:176|306:177|272:54,1,210,0|0,1:0|0:0,0:0:0:0:
208,25,67747,6,0,P|131:9|83:28,1,125.999996154785,0|0,1:0|0:0,0:0:0:0:
92,176,68569,2,0,P|169:192|217:173,1,125.999996154785,2|2,0:0|0:0,0:0:0:0:
278,100,69185,1,0,1:0:0:0:
359,159,69391,6,0,L|356:340,1,167.999994873047,4|8,1:2|0:0,0:0:0:0:
270,380,70007,1,0,0:0:0:0:
215,294,70213,2,0,P|172:285|127:291,2,83.9999974365235,0|0|8,1:0|0:0|0:0,0:0:0:0:
359,159,71034,6,0,P|297:185|207:156,1,125.999996154785,0|0,1:0|0:0,0:0:0:0:
209,137,71445,2,0,L|215:26,1,83.9999974365235,8|0,0:0|0:0,0:0:0:0:
112,55,71856,2,0,L|116:138,1,83.9999974365235,0|0,1:0|0:0,0:0:0:0:
156,231,72267,1,8,0:0:0:0:
348,292,72678,6,0,B|410:271|415:321|503:282,1,125.999996154785,2|0,1:2|0:0,0:0:0:0:
499,250,73089,2,0,P|505:187|495:141,1,83.9999974365235,8|0,0:0|0:0,0:0:0:0:
427,99,73500,1,0,1:0:0:0:
268,223,73911,2,0,P|220:236|170:226,1,83.9999974365235,8|0,0:0|0:0,0:0:0:0:
102,175,74322,6,0,P|137:213|131:332,1,167.999994873047,0|8,1:0|0:0,0:0:0:0:
329,381,75144,2,0,P|314:319|362:204,1,167.999994873047,0|8,1:0|0:0,0:0:0:0:
429,166,75760,1,0,0:0:0:0:
344,110,75966,6,0,B|259:92|260:140|151:110,1,167.999994873047,4|8,1:2|0:0,0:0:0:0:
94,59,76582,1,0,0:0:0:0:
67,156,76788,2,0,L|72:251,2,83.9999974365235,0|0|8,1:0|0:0|0:0,0:0:0:0:
235,267,77610,6,0,P|281:242|375:273,1,125.999996154785,0|0,1:0|0:0,0:0:0:0:
386,289,78021,2,0,L|391:372,1,83.9999974365235,8|0,0:0|0:0,0:0:0:0:
492,376,78432,2,0,L|497:293,1,83.9999974365235,0|0,1:0|0:0,0:0:0:0:
446,204,78843,1,8,0:0:0:0:
300,344,79254,6,0,L|128:356,1,167.999994873047,2|8,1:2|0:0,0:0:0:0:
72,164,80076,2,0,L|188:173,1,83.9999974365235,0|0,1:0|0:0,0:0:0:0:
201,259,80486,2,8,L|85:268,1,83.9999974365235,8|0,0:0|0:0,0:0:0:0:
20,235,80897,6,0,P|-12:184|56:76,1,167.999994873047,0|8,1:0|0:0,0:0:0:0:
224,62,81719,2,0,P|273:68|334:52,1,83.9999974365235,0|0,1:0|0:0,0:0:0:0:
389,5,82130,1,8,0:0:0:0:
507,168,82541,6,0,P|448:142|354:192,1,167.999994873047,4|8,1:2|0:0,0:0:0:0:
316,275,83158,1,0,0:0:0:0:
242,206,83363,2,0,P|240:138|233:93,2,83.9999974365235,0|0|8,1:0|0:0|0:0,0:0:0:0:
56,285,84185,6,0,P|118:259|192:294,1,125.999996154785,0|0,1:0|0:0,0:0:0:0:
215,300,84596,2,0,L|207:384,1,83.9999974365235,8|0,0:0|0:0,0:0:0:0:
307,383,85007,2,0,L|299:299,1,83.9999974365235,0|0,0:0|0:0,0:0:0:0:
259,206,85418,1,8,0:0:0:0:
376,111,85829,6,0,B|439:97|438:137|528:112,2,125.999996154785,0|0|0,1:0|0:0|0:0,0:0:0:0:
256,17,87062,1,0,0:0:0:0:
132,104,87473,6,0,B|69:90|70:130|-20:105,2,125.999996154785,0|0|0,0:0|0:0|1:0,0:0:0:0:
256,17,88706,1,0,1:0:0:0:
376,111,89117,6,0,P|365:197|387:277,1,167.999994873047,4|8,3:2|0:0,0:0:0:0:
310,341,89733,1,0,0:0:0:0:
238,269,89939,2,0,P|181:253|152:256,2,83.9999974365235,0|0|8,1:0|0:0|0:0,0:0:0:0:
367,114,90760,6,0,P|291:149|218:128,1,125.999996154785,0|0,1:0|0:0,0:0:0:0:
222,102,91171,2,0,L|211:11,1,83.9999974365235,8|0,0:0|0:0,0:0:0:0:
110,18,91582,2,0,L|99:101,1,83.9999974365235,0|0,1:0|0:0,0:0:0:0:
158,183,91993,1,8,0:0:0:0:
343,261,92404,6,0,L|334:354,2,83.9999974365235,0|0|0,1:0|0:0|1:0,0:0:0:0:
504,156,93226,2,0,L|513:249,2,83.9999974365235,0|0|0,1:0|1:0|1:0,0:0:0:0:
318,74,94048,6,0,B|235:54|236:97|144:77,2,167.999994873047,0|0|0,1:0|1:0|1:0,0:0:0:0:
396,138,95076,1,0,1:0:0:0:
321,205,95281,2,0,P|317:256|326:298,1,83.9999974365235,0|8,1:0|0:0,0:0:0:0:
391,336,95692,6,0,B|255:287|257:374|109:329,1,280,4|0,1:2|1:0,0:0:0:0:
20,192,96925,1,8,0:0:0:0:
163,104,97336,6,0,P|180:160|174:251,1,140,0|8,1:0|0:0,0:0:0:0:
307,341,98158,2,0,P|302:271|320:204,1,140,0|8,1:0|0:0,0:0:0:0:
443,88,98980,6,0,P|362:101|277:77,1,140,0|8,1:0|0:0,0:0:0:0:
247,28,99596,1,0,0:0:0:0:
191,90,99802,2,0,P|192:194|171:259,1,140,0|8,1:0|0:0,0:0:0:0:
77,358,100623,6,0,P|159:337|237:357,1,140,0|8,1:0|0:0,0:0:0:0:
345,242,101445,2,0,P|388:255|450:247,1,70,0|0,1:0|0:0,0:0:0:0:
479,203,101856,2,0,P|489:110|487:77,1,105,8|0,0:0|0:0,0:0:0:0:
480,57,102267,5,4,1:2:0:0:
332,136,102678,2,0,P|240:160|180:140,2,140,8|0|8,0:0|1:0|0:0,0:0:0:0:
256,288,103911,2,0,P|176:272|96:292,1,140,0|8,1:0|0:0,0:0:0:0:
4,160,104733,1,0,1:0:0:0:
108,28,105144,1,8,0:0:0:0:
208,164,105555,6,0,P|272:180|360:152,1,140,0|8,1:0|0:0,0:0:0:0:
472,56,106377,2,0,P|460:124|488:208,1,140,0|8,1:0|0:0,0:0:0:0:
256,192,107199,12,2,108843,0:0:0:0:
