osu file format v14

[General]
AudioFilename: 19.. Master+ - Funny shuffle.mp3
AudioLeadIn: 0
PreviewTime: 46719
Countdown: 0
SampleSet: None
StackLeniency: 0.7
Mode: 2
LetterboxInBreaks: 0
WidescreenStoryboard: 1

[Editor]
Bookmarks: 66719
DistanceSpacing: 1
BeatDivisor: 12
GridSize: 4
TimelineZoom: 1.8

[Metadata]
Title:Funny shuffle
TitleUnicode:Funny shuffle
Artist:Nekomata Master
ArtistUnicode:猫叉Master+
Creator:Spectator
Version:Overdose
Source:beatmania IIDX 21 spada
Tags:
BeatmapID:654687
BeatmapSetID:290641

[Difficulty]
HPDrainRate:7
CircleSize:4
OverallDifficulty:9.5
ApproachRate:9.5
SliderMultiplier:2.4
SliderTickRate:2

[Events]
//Background and Video events
0,0,"Konachan.com - 193198 forest nobody original otukimi scenic stairs torii tree.jpg",0,0
//Break Periods
//Storyboard Layer 0 (Background)
//Storyboard Layer 1 (Fail)
//Storyboard Layer 2 (Pass)
//Storyboard Layer 3 (Foreground)
//Storyboard Sound Samples

[TimingPoints]
806,521.739130434783,4,3,0,40,1,0
2371,-100,4,3,0,15,0,0
2632,-100,4,3,0,40,0,0
4979,-100,4,3,0,50,0,0
8110,-100,4,3,0,55,0,0
8632,-100,4,1,0,60,0,0
9153,-100,4,1,0,50,0,0
9414,-76.9230769230769,4,3,0,70,0,0
16458,-66.6666666666667,4,3,0,70,0,0
24806,-76.9230769230769,4,3,0,50,0,0
25849,-76.9230769230769,4,3,0,70,0,0
46719,-66.6666666666667,4,3,0,75,0,1
50436,-66.6666666666667,4,2,0,5,0,1
50892,-66.6666666666667,4,3,0,75,0,1
63414,-66.6666666666667,4,2,0,60,0,0
71762,-66.6666666666667,4,3,0,70,0,1
78023,-66.6666666666667,4,3,0,70,0,1
79066,-66.6666666666667,4,3,0,70,0,1
80110,-76.9230769230769,4,3,0,70,0,0
88458,-76.9230769230769,4,3,0,70,0,0
92632,-76.9230769230769,4,3,0,70,0,0
101762,-76.9230769230769,4,2,0,5,0,0
101849,-76.9230769230769,4,3,0,35,0,0

[Colours]
Combo1 : 145,175,232
Combo2 : 209,209,165
Combo3 : 255,182,147
Combo4 : 249,138,155

[HitObjects]
195,316,806,6,0,L|70:311,1,120,0|0,0:0|0:0,0:0:0:0:
317,316,1327,2,0,L|442:311,1,120,0|0,0:0|0:0,0:0:0:0:
70,204,1849,2,0,P|41:142|85:88,1,120,0|0,0:0|0:0,0:0:0:0:
442,204,2371,2,0,P|471:142|427:88,1,120,0|0,1:0|0:0,0:0:0:0:
122,320,2892,6,0,L|243:315,1,120,0|0,0:0|0:0,0:0:0:0:
390,64,3414,2,0,L|269:69,1,120,0|0,0:0|0:0,0:0:0:0:
128,231,3849,1,0,0:0:0:0:
77,205,3936,2,0,P|71:149|84:62,1,120,0|0,0:0|0:0,0:0:0:0:
271,172,4458,2,0,L|383:167,1,80,2|0,0:0|0:0,0:0:0:0:
201,59,4719,1,0,0:0:0:0:
85,303,4979,6,0,L|75:150,1,120,2|0,1:1|2:0,0:0:0:0:
265,212,5501,2,0,L|277:69,1,120,8|0,1:0|2:0,0:0:0:0:
454,325,6023,2,0,L|298:311,1,120,0|0,3:3|0:0,0:0:0:0:
170,274,6458,1,0,0:0:0:0:
103,341,6545,2,0,P|79:293|86:240,1,80,0|0,0:0|0:0,0:0:0:0:
257,248,6806,1,0,0:0:0:0:
434,161,7066,5,2,1:0:0:0:
253,78,7327,1,0,0:0:0:0:
69,219,7588,1,0,0:0:0:0:
250,302,7849,1,0,0:0:0:0:
466,137,8110,2,0,L|258:107,1,200,0|0,0:0|0:0,0:0:0:0:
45,89,8632,5,4,1:2:0:0:
213,154,8892,1,4,1:2:0:0:
420,228,9153,6,0,L|423:200,10,20,0|0|0|0|0|0|0|0|0|0|0,0:0|0:0|0:0|0:0|0:0|0:0|3:0|0:0|0:0|0:0|0:0,0:0:0:0:
189,331,9675,6,0,L|79:320,1,103.999995239258,0|0,0:0|0:0,0:0:0:0:
316,123,9936,2,0,L|433:105,1,103.999995239258,0|0,0:0|0:0,0:0:0:0:
494,39,10197,2,0,L|367:19,1,103.999995239258,0|0,0:0|0:0,0:0:0:0:
171,252,10458,6,0,L|167:182,1,51.999997619629,0|0,0:0|0:0,0:0:0:0:
237,142,10632,1,0,0:0:0:0:
435,328,10719,2,0,L|456:217,1,103.999995239258,4|0,0:0|0:0,0:0:0:0:
278,180,10979,2,0,L|252:55,1,103.999995239258,4|0,0:0|0:0,0:0:0:0:
467,193,11240,6,0,L|356:174,1,103.999995239258,0|0,0:0|0:0,0:0:0:0:
276,119,11501,2,0,L|391:103,1,103.999995239258,0|0,0:0|0:0,0:0:0:0:
469,91,11762,6,0,L|479:54,10,25.9999988098145,4|0|0|0|0|0|2|0|0|0|0,1:2|0:0|0:0|0:0|0:0|0:0|1:0|0:0|0:0|0:0|0:0,0:0:0:0:
184,336,12284,5,0,0:0:0:0:
162,321,12327,1,0,0:0:0:0:
144,301,12371,1,0,0:0:0:0:
132,278,12414,1,0,0:0:0:0:
126,252,12458,1,0,0:0:0:0:
125,226,12501,1,0,0:0:0:0:
129,200,12545,1,0,0:0:0:0:
140,177,12588,1,0,0:0:0:0:
158,158,12632,1,0,0:0:0:0:
179,143,12675,1,0,0:0:0:0:
203,133,12719,1,0,0:0:0:0:
434,329,12806,6,0,L|449:222,1,77.9999964294435,0|2,0:0|0:2,0:0:0:0:
173,151,13066,2,0,L|158:44,1,77.9999964294435,2|2,0:2|0:2,0:0:0:0:
399,178,13327,6,0,L|275:161,1,103.999995239258,0|0,1:0|0:0,0:0:0:0:
204,309,13588,2,0,L|199:245,1,51.999997619629,0|0,0:0|0:0,0:0:0:0:
262,191,13762,1,0,0:0:0:0:
483,93,13849,6,0,L|357:72,1,103.999995239258,0|0,0:0|0:0,0:0:0:0:
297,159,14110,2,0,L|291:92,1,51.999997619629,0|0,0:0|0:0,0:0:0:0:
363,217,14284,1,0,0:0:0:0:
168,290,14371,6,0,L|39:260,1,103.999995239258,0|0,0:0|0:0,0:0:0:0:
247,195,14632,2,0,L|318:202,2,51.999997619629,0|0|0,0:0|0:0|0:0,0:0:0:0:
59,146,14892,6,0,L|53:107,10,25.9999988098145,8|0|0|0|0|0|0|0|0|0|0,1:1|0:0|0:0|0:0|0:0|0:0|0:0|0:0|0:0|0:0|0:0,0:0:0:0:
292,288,15414,6,0,L|454:276,1,155.999992858887,0|2,1:0|2:0,0:0:0:0:
220,288,15936,2,0,L|58:276,1,155.999992858887,0|0,1:0|2:0,0:0:0:0:
258,187,16458,6,0,L|337:183,2,60.0000022888184,0|0|0,1:0|0:0|0:0,0:0:0:0:
93,74,16719,2,0,L|1:69,2,60.0000022888184,0|0|0,2:0|0:0|0:0,0:0:0:0:
399,344,16979,6,0,P|438:286|362:223,1,180.000006866455,2|0,2:0|0:0,0:0:0:0:
217,232,17306,1,0,0:0:0:0:
193,193,17371,1,0,0:0:0:0:
200,148,17436,1,0,0:0:0:0:
233,117,17501,6,0,L|363:109,1,120.000004577637,4|0,1:0|0:0,0:0:0:0:
420,229,17762,2,0,L|291:222,1,120.000004577637,2|0,2:0|0:0,0:0:0:0:
90,367,18023,2,0,L|80:248,1,120.000004577637,0|0,0:0|0:0,0:0:0:0:
326,209,18284,2,0,L|336:88,1,120.000004577637,0|0,0:0|0:0,0:0:0:0:
237,309,18545,6,0,P|179:270|162:199,1,120.000004577637,0|0,1:0|0:0,0:0:0:0:
321,215,18806,2,0,L|332:150,1,60.0000022888184,2|0,0:2|0:0,0:0:0:0:
266,81,18979,1,0,0:0:0:0:
81,149,19066,2,0,L|217:142,1,120.000004577637,0|0,0:0|0:0,0:0:0:0:
292,52,19327,2,0,L|157:41,1,120.000004577637,0|0,0:0|0:0,0:0:0:0:
71,305,19588,6,0,P|135:283|203:296,1,120.000004577637,0|0,1:0|0:0,0:0:0:0:
269,330,19849,2,0,P|331:339|396:313,1,120.000004577637,0|0,1:0|0:0,0:0:0:0:
469,285,20110,5,4,1:2:0:0:
486,261,20153,1,0,0:0:0:0:
497,232,20197,1,0,0:0:0:0:
500,202,20240,1,0,0:0:0:0:
494,172,20284,1,0,0:0:0:0:
482,144,20327,1,0,0:0:0:0:
464,119,20371,1,0,0:0:0:0:
440,100,20414,1,0,0:0:0:0:
411,89,20458,1,0,0:0:0:0:
381,84,20501,1,0,0:0:0:0:
350,84,20545,1,0,0:0:0:0:
43,285,20632,5,2,1:2:0:0:
26,261,20675,1,0,0:0:0:0:
15,232,20719,1,0,0:0:0:0:
12,202,20762,1,0,0:0:0:0:
18,172,20806,1,0,0:0:0:0:
30,144,20849,1,0,0:0:0:0:
48,119,20893,1,0,0:0:0:0:
72,100,20936,1,0,0:0:0:0:
101,89,20980,1,0,0:0:0:0:
131,84,21023,1,0,0:0:0:0:
162,84,21067,1,0,0:0:0:0:
385,182,21153,6,0,L|282:179,1,90.0000034332277,2|2,0:2|0:2,0:0:0:0:
79,276,21414,2,0,L|182:273,1,90.0000034332277,2|2,0:2|0:2,0:0:0:0:
415,318,21675,6,0,L|279:305,1,120.000004577637,0|0,0:0|0:0,0:0:0:0:
105,242,21936,1,0,0:0:0:0:
167,221,22023,1,0,0:0:0:0:
230,201,22110,1,0,0:0:0:0:
481,194,22197,6,0,P|501:138|425:78,1,120.000004577637,0|0,0:0|0:0,0:0:0:0:
314,109,22458,1,0,0:0:0:0:
252,88,22545,1,0,0:0:0:0:
189,68,22632,1,0,0:0:0:0:
31,194,22719,6,0,P|11:138|87:78,1,120.000004577637,0|0,1:0|0:0,0:0:0:0:
223,169,22979,2,0,L|289:162,2,60.0000022888184,0|0|0,0:0|0:0|0:0,0:0:0:0:
32,320,23240,6,0,L|21:281,10,30.0000011444092,0|0|0|0|0|0|0|0|0|0|0,0:0|0:0|0:0|0:0|0:0|0:0|0:0|0:0|0:0|0:0|0:0,0:0:0:0:
319,327,23762,6,0,L|396:318,1,60.0000022888184,4|4,0:3|0:3,0:0:0:0:
183,228,23936,2,0,L|120:215,1,60.0000022888184,4|10,0:3|0:3,0:0:0:0:
320,248,24284,6,0,L|260:254,1,60.0000022888184,4|4,0:3|0:3,0:0:0:0:
73,51,24458,2,0,L|131:63,1,60.0000022888184,4|10,0:3|0:3,0:0:0:0:
468,207,24806,1,0,1:0:0:0:
193,327,25849,6,0,L|91:306,1,103.999995239258,4|0,0:2|0:0,0:0:0:0:
315,329,26110,2,0,L|417:308,1,103.999995239258,4|0,0:3|0:0,0:0:0:0:
201,236,26371,2,0,L|116:172,1,103.999995239258,2|0,0:0|0:0,0:0:0:0:
311,236,26632,2,0,L|396:172,1,103.999995239258,2|0,1:1|2:0,0:0:0:0:
176,110,26892,2,0,L|167:4,1,103.999995239258,4|0,1:3|0:0,0:0:0:0:
336,110,27153,2,0,L|345:4,1,103.999995239258,4|0,1:3|0:0,0:0:0:0:
181,285,27414,2,0,P|122:265|72:285,1,103.999995239258,2|0,2:0|0:0,0:0:0:0:
7,178,27675,2,0,P|66:158|116:178,1,103.999995239258,2|0,2:0|0:0,0:0:0:0:
319,327,27936,6,0,L|421:306,1,103.999995239258,4|0,0:2|0:0,0:0:0:0:
197,329,28197,2,0,L|95:308,1,103.999995239258,4|0,0:3|0:0,0:0:0:0:
311,236,28458,2,0,L|396:172,1,103.999995239258,2|0,0:0|0:0,0:0:0:0:
201,236,28719,2,0,L|116:172,1,103.999995239258,2|0,1:1|2:0,0:0:0:0:
336,110,28979,2,0,L|345:4,1,103.999995239258,4|0,1:3|0:0,0:0:0:0:
176,110,29240,2,0,L|167:4,1,103.999995239258,4|0,1:3|0:0,0:0:0:0:
331,285,29501,2,0,P|390:265|440:285,1,103.999995239258,2|0,2:0|0:0,0:0:0:0:
505,178,29762,2,0,P|446:158|396:178,1,103.999995239258,2|0,2:0|0:0,0:0:0:0:
183,194,30023,6,0,L|72:172,1,103.999995239258,4|0,0:2|0:0,0:0:0:0:
329,194,30284,2,0,L|440:172,1,103.999995239258,4|0,0:3|0:0,0:0:0:0:
180,351,30545,2,0,L|112:263,1,103.999995239258,2|0,0:3|0:0,0:0:0:0:
331,351,30806,2,0,L|404:261,1,103.999995239258,2|0,1:1|0:0,0:0:0:0:
196,167,31066,2,0,P|148:153|87:162,1,103.999995239258,2|0,0:2|0:0,0:0:0:0:
9,71,31327,2,0,L|126:58,1,103.999995239258,2|0,0:2|0:0,0:0:0:0:
338,243,31588,2,0,L|352:93,1,103.999995239258,4|0,1:2|0:0,0:0:0:0:
116,291,31849,2,0,L|102:141,1,103.999995239258,0|0,0:0|0:0,0:0:0:0:
296,324,32110,5,4,1:3:0:0:
446,195,32371,2,0,L|356:178,1,77.9999964294435,2|2,2:0|2:0,0:0:0:0:
156,117,32632,2,0,L|257:100,1,77.9999964294435,4|2,0:2|0:0,0:0:0:0:
437,359,32892,2,0,L|448:267,1,77.9999964294435,0|0,2:0|2:0,0:0:0:0:
221,273,33153,6,0,P|148:272|41:287,1,155.999992858887,0|2,1:0|2:2,0:0:0:0:
181,153,33675,2,0,L|304:147,1,103.999995239258,4|0,0:2|0:0,0:0:0:0:
368,83,33936,2,0,L|250:73,1,103.999995239258,2|0,0:2|0:0,0:0:0:0:
88,344,34197,6,0,L|59:209,1,103.999995239258,4|0,1:2|0:0,0:0:0:0:
424,344,34458,2,0,L|453:209,1,103.999995239258,4|0,1:2|0:0,0:0:0:0:
119,170,34718,2,0,L|103:49,1,103.999995239258,2|0,3:3|0:0,0:0:0:0:
403,168,34979,2,0,L|419:47,1,103.999995239258,2|0,1:0|0:0,0:0:0:0:
165,342,35240,2,0,P|147:286|172:238,1,103.999995239258,4|0,0:0|0:0,0:0:0:0:
329,17,35501,2,0,P|347:73|322:121,1,103.999995239258,2|0,0:0|0:0,0:0:0:0:
248,151,35762,2,0,L|113:155,1,103.999995239258,4|0,1:2|0:0,0:0:0:0:
47,82,36023,2,0,L|177:76,1,103.999995239258,2|0,1:2|0:0,0:0:0:0:
424,344,36284,6,0,L|453:209,1,103.999995239258,4|0,1:2|0:0,0:0:0:0:
88,344,36545,2,0,L|59:209,1,103.999995239258,4|0,1:2|0:0,0:0:0:0:
393,170,36805,2,0,L|409:49,1,103.999995239258,2|0,3:3|0:0,0:0:0:0:
109,168,37066,2,0,L|93:47,1,103.999995239258,2|0,1:0|0:0,0:0:0:0:
347,342,37327,2,0,P|365:286|340:238,1,103.999995239258,4|0,0:0|0:0,0:0:0:0:
183,17,37588,2,0,P|165:73|190:121,1,103.999995239258,2|0,0:0|0:0,0:0:0:0:
273,150,37849,2,0,L|408:154,1,103.999995239258,4|0,1:2|0:0,0:0:0:0:
474,81,38110,2,0,L|344:75,1,103.999995239258,2|0,1:2|0:0,0:0:0:0:
88,344,38371,6,0,L|59:209,1,103.999995239258,4|0,1:2|0:0,0:0:0:0:
424,344,38632,2,0,L|453:209,1,103.999995239258,4|0,1:2|0:0,0:0:0:0:
119,170,38892,2,0,L|103:49,1,103.999995239258,2|0,3:3|0:0,0:0:0:0:
403,168,39153,2,0,L|419:47,1,103.999995239258,2|0,1:0|0:0,0:0:0:0:
165,342,39414,2,0,P|147:286|172:238,1,103.999995239258,4|0,0:0|0:0,0:0:0:0:
329,17,39675,2,0,P|347:73|322:121,1,103.999995239258,2|0,0:0|0:0,0:0:0:0:
244,179,39936,2,0,L|118:173,1,103.999995239258,4|0,1:2|0:0,0:0:0:0:
45,99,40197,2,0,L|161:105,1,103.999995239258,2|0,0:2|0:0,0:0:0:0:
331,314,40458,5,4,1:1:0:0:
463,192,40632,2,0,L|363:182,1,51.999997619629,0|2,0:0|1:3,0:0:0:0:
271,216,40892,1,0,0:0:0:0:
126,321,40979,2,0,L|60:328,2,51.999997619629,0|0|0,1:0|2:0|1:0,0:0:0:0:
276,181,41240,2,0,L|409:168,1,103.999995239258,2|0,3:3|0:0,0:0:0:0:
470,88,41501,6,0,L|334:88,1,103.999995239258,2|0,1:2|0:0,0:0:0:0:
201,113,41762,1,2,1:2:0:0:
33,266,41936,2,0,L|228:251,1,155.999992858887
369,300,42458,5,0,0:0:0:0:
447,345,42545,2,0,P|466:267|427:222,1,103.999995239258,2|0,1:2|0:0,0:0:0:0:
304,182,42806,1,2,1:2:0:0:
147,282,42979,2,0,L|128:87,1,155.999992858887,0|0,0:0|0:0,0:0:0:0:
339,259,43501,5,0,0:0:0:0:
414,208,43588,2,0,P|419:149|387:107,1,103.999995239258,2|2,1:2|2:2,0:0:0:0:
222,132,43849,1,2,1:2:0:0:
507,33,44023,1,4,1:2:0:0:
258,246,45588,6,0,L|170:226,1,51.999997619629,0|0,0:0|0:0,0:0:0:0:
60,317,45936,1,0,0:0:0:0:
258,246,46197,1,0,0:0:0:0:
60,317,46458,1,0,0:0:0:0:
443,308,46719,6,0,L|466:191,1,103.999995239258,4|0,1:0|0:0,0:0:0:0:
273,222,46979,1,2,0:2:0:0:
246,161,47066,1,0,0:0:0:0:
283,106,47153,1,0,0:0:0:0:
456,58,47240,2,0,L|315:40,1,120.000004577637,12|0,1:2|0:0,0:0:0:0:
122,343,47501,2,0,L|263:325,1,120.000004577637,2|0,2:2|0:0,0:0:0:0:
415,355,47762,6,0,P|439:298|345:229,1,180.000006866455,4|2,1:2|2:0,0:0:0:0:
182,203,48110,2,0,L|170:129,1,60.0000022888184,0|0,3:3|3:0,0:0:0:0:
348,125,48284,2,0,L|471:119,1,120.000004577637,12|0,2:0|0:0,0:0:0:0:
306,42,48545,2,0,L|186:48,1,120.000004577637,2|0,2:0|0:0,0:0:0:0:
36,345,48806,5,6,1:2:0:0:
241,242,49066,1,2,0:0:0:0:
27,115,49327,1,14,2:3:0:0:
244,26,49588,1,12,2:3:0:0:
438,289,49849,2,0,L|310:258,1,120.000004577637,2|0,1:2|0:0,0:0:0:0:
215,177,50110,2,0,L|346:150,1,120.000004577637,2|0,1:2|0:0,0:0:0:0:
422,309,50371,5,4,1:2:0:0:
438,289,50414,1,0,0:0:0:0:
450,265,50458,1,0,0:0:0:0:
457,239,50501,1,0,0:0:0:0:
460,212,50545,1,0,0:0:0:0:
458,186,50588,1,0,0:0:0:0:
449,161,50632,1,0,0:0:0:0:
436,136,50675,1,0,0:0:0:0:
418,117,50719,1,0,0:0:0:0:
396,102,50762,1,0,0:0:0:0:
370,95,50806,1,0,0:0:0:0:
142,325,50892,6,0,L|127:200,1,120.000004577637,4|0,1:2|0:0,0:0:0:0:
294,212,51153,1,2,2:2:0:0:
339,164,51240,1,0,2:0:0:0:
286,124,51327,1,0,0:0:0:0:
76,108,51414,2,0,L|211:103,1,120.000004577637,4|0,1:2|0:0,0:0:0:0:
280,35,51675,2,0,L|151:25,1,120.000004577637,0|0,3:3|0:0,0:0:0:0:
391,328,51936,6,0,P|417:265|316:200,1,180.000006866455,4|2,1:2|2:2,0:0:0:0:
175,199,52284,2,0,L|156:110,1,60.0000022888184,2|0,2:2|0:0,0:0:0:0:
345,103,52458,1,4,1:2:0:0:
460,23,52632,1,0,0:0:0:0:
295,306,52719,2,0,L|168:294,1,120.000004577637,2|0,0:0|0:0,0:0:0:0:
414,327,52979,6,0,P|445:251|331:213,1,180.000006866455,6|2,2:0|0:2,0:0:0:0:
214,255,53327,2,0,L|145:241,1,60.0000022888184,2|2,0:2|0:2,0:0:0:0:
9,121,53501,1,10,1:2:0:0:
189,33,53762,1,8,1:2:0:0:
362,222,54023,6,0,L|278:206,1,60.0000022888184,8|8,0:3|0:3,0:0:0:0:
104,182,54197,2,0,L|181:171,1,60.0000022888184,8|8,0:3|0:3,0:0:0:0:
378,96,54371,2,0,L|305:82,1,60.0000022888184,8|8,0:3|0:3,0:0:0:0:
112,308,54545,5,8,0:2:0:0:
85,293,54588,1,0,0:0:0:0:
65,268,54632,1,0,0:0:0:0:
53,239,54675,1,0,0:0:0:0:
47,208,54719,1,0,0:0:0:0:
50,176,54762,1,0,0:0:0:0:
62,147,54806,1,0,2:0:0:0:
82,124,54849,1,0,2:0:0:0:
107,105,54892,1,0,2:0:0:0:
135,92,54936,1,0,2:0:0:0:
165,87,54979,1,0,2:0:0:0:
405,337,55066,6,2,L|425:217,1,120.000004577637,4|0,1:2|0:0,0:0:0:0:
260,177,55327,1,2,0:2:0:0:
234,116,55414,1,2,0:2:0:0:
291,84,55501,1,2,0:2:0:0:
465,161,55588,2,0,P|402:146|339:164,1,120.000004577637,4|0,1:2|0:0,0:0:0:0:
161,293,55849,2,0,P|224:308|287:290,1,120.000004577637,2|0,2:2|0:0,0:0:0:0:
446,246,56110,1,4,1:2:0:0:
269,175,56371,6,0,L|202:164,2,60.0000022888184,2|2|2,2:0|2:0|2:0,0:0:0:0:
415,107,56632,1,4,1:2:0:0:
259,287,56806,1,0,0:0:0:0:
89,357,56892,2,0,P|138:344|211:361,1,120.000004577637,2|0,1:3|0:0,0:0:0:0:
458,354,57153,6,0,P|473:293|417:281,1,120.000004577637,4|0,1:2|0:0,0:0:0:0:
215,230,57414,2,0,P|200:169|256:157,1,120.000004577637,4|0,1:3|0:0,0:0:0:0:
310,113,57675,1,2,0:0:0:0:
480,110,57936,1,2,0:0:0:0:
106,304,58197,5,2,0:0:0:0:
59,266,58284,1,2,0:0:0:0:
40,209,58371,1,2,0:0:0:0:
51,150,58458,1,2,1:0:0:0:
92,107,58545,1,2,0:0:0:0:
148,86,58632,1,2,0:0:0:0:
392,171,58719,1,0,1:0:0:0:
266,245,58892,1,2,1:3:0:0:
77,208,58979,2,0,L|-19:201,2,60.0000022888184,2|10|10,1:3|0:0|0:0,0:0:0:0:
322,346,59240,6,0,L|464:338,1,120.000004577637,4|0,1:2|0:0,0:0:0:0:
280,248,59501,1,2,2:2:0:0:
263,190,59588,1,2,2:2:0:0:
298,141,59675,1,2,2:2:0:0:
473,230,59762,2,0,L|353:196,1,120.000004577637,12|0,1:2|0:0,0:0:0:0:
284,131,60023,2,0,L|404:97,1,120.000004577637,2|0,2:2|3:3,0:0:0:0:
177,326,60284,6,0,P|146:262|239:197,1,180.000006866455,12|2,1:2|2:2,0:0:0:0:
395,90,60632,2,0,L|292:78,1,60.0000022888184,2|2,2:2|2:2,0:0:0:0:
155,125,60806,2,0,L|13:110,1,120.000004577637,12|0,1:2|1:0,0:0:0:0:
357,259,61066,2,0,L|499:274,1,120.000004577637,0|0,1:0|1:0,0:0:0:0:
279,334,61327,5,14,2:0:0:0:
133,250,61588,2,0,L|205:248,2,60.0000022888184,0|0|0,0:0|0:0|0:0,0:0:0:0:
317,180,61849,2,0,L|336:103,2,60.0000022888184,0|2|2,1:2|0:0|0:0,0:0:0:0:
151,52,62110,2,0,L|78:56,2,60.0000022888184,2|2|2,0:0|0:0|0:0,0:0:0:0:
429,276,62371,5,4,1:0:0:0:
256,191,62632,1,0,1:0:0:0:
83,108,62892,1,8,1:0:0:0:
313,327,63153,1,2,3:3:0:0:
329,301,63197,1,2,3:3:0:0:
334,271,63240,1,2,3:3:0:0:
328,241,63284,1,2,3:3:0:0:
309,217,63327,1,2,3:3:0:0:
68,192,63414,5,4,1:2:0:0:
211,104,63675,2,0,P|138:86|67:104,1,120.000004577637,0|0,1:0|0:0,0:0:0:0:
157,171,63936,1,10,0:0:0:0:
378,160,64197,2,0,P|451:142|522:160,1,120.000004577637,0|0,1:0|0:0,0:0:0:0:
432,227,64458,1,10,0:0:0:0:
211,104,64719,2,0,P|138:86|67:104,1,120.000004577637,0|0,1:0|0:0,0:0:0:0:
157,171,64980,1,10,0:0:0:0:
323,273,65240,1,8,1:3:0:0:
125,365,65501,5,4,1:2:0:0:
456,283,65762,2,0,P|459:212|426:175,1,120.000004577637,0|0,1:0|0:0,0:0:0:0:
259,148,66023,1,10,0:0:0:0:
393,295,66284,2,0,P|396:224|363:187,1,120.000004577637,0|0,1:0|0:0,0:0:0:0:
196,160,66545,1,10,0:0:0:0:
322,169,66806,2,0,P|325:240|292:277,1,120.000004577637,0|0,1:0|0:0,0:0:0:0:
48,321,67067,1,10,0:0:0:0:
216,185,67327,1,12,1:3:0:0:
49,69,67588,5,12,1:2:0:0:
476,137,67849,2,0,L|344:125,1,120.000004577637,0|0,1:0|0:0,0:0:0:0:
420,69,68110,1,10,2:2:0:0:
228,289,68371,2,0,L|360:277,1,120.000004577637,0|0,1:0|0:0,0:0:0:0:
284,221,68632,1,10,0:0:0:0:
512,153,68892,2,0,L|380:141,1,120.000004577637,0|0,1:0|0:0,0:0:0:0:
456,85,69153,1,10,2:2:0:0:
285,205,69414,1,12,1:3:0:0:
452,335,69675,1,12,1:2:0:0:
117,320,69936,6,0,L|109:198,1,120.000004577637,0|0,1:0|0:0,0:0:0:0:
274,146,70197,1,10,0:0:0:0:
455,205,70458,2,0,L|463:83,1,120.000004577637,0|0,1:0|0:0,0:0:0:0:
305,42,70719,1,10,1:2:0:0:
78,349,70979,6,0,L|200:317,1,120.000004577637,2|0,1:0|1:0,0:0:0:0:
383,231,71240,1,4,1:3:0:0:
128,232,71414,2,0,P|101:158|184:167,1,180.000006866455,2|0,1:0|0:0,0:0:0:0:
393,103,71762,6,0,L|241:80,1,120.000004577637,4|0,0:0|0:0,0:0:0:0:
110,277,72023,1,2,2:0:0:0:
89,220,72110,1,2,2:0:0:0:
138,186,72197,1,2,2:0:0:0:
316,328,72284,6,0,P|346:271|268:246,1,120.000004577637,4|0,1:2|0:0,0:0:0:0:
138,186,72545,1,2,0:2:0:0:
130,126,72632,1,2,0:2:0:0:
122,66,72719,1,2,0:2:0:0:
335,162,72806,6,0,P|397:153|461:161,1,120.000004577637,0|0,1:0|0:0,0:0:0:0:
255,271,73066,2,0,L|180:260,2,60.0000022888184,2|2|2,0:2|0:2|0:2,0:0:0:0:
472,342,73327,6,0,P|467:270|393:220,1,120.000004577637,4|0,1:2|0:0,0:0:0:0:
244,189,73588,2,0,L|233:126,1,60.0000022888184,2|2,0:2|0:2,0:0:0:0:
310,103,73762,1,2,0:2:0:0:
466,230,73849,6,0,L|483:98,1,120.000004577637,0|0,1:0|0:0,0:0:0:0:
145,328,74110,1,2,0:2:0:0:
126,256,74197,1,2,0:2:0:0:
187,200,74284,1,2,0:2:0:0:
361,289,74371,1,4,1:2:0:0:
406,249,74458,1,2,0:2:0:0:
413,189,74545,1,2,0:2:0:0:
379,139,74632,2,0,L|244:120,1,120.000004577637,2|2,0:0|0:0,0:0:0:0:
61,331,74892,6,0,P|48:269|17:221,1,120.000004577637,0|0,1:0|0:0,0:0:0:0:
232,201,75153,1,0,0:0:0:0:
373,121,75414,2,0,P|439:136|358:77,1,300.000011444092,10|0,1:2|0:0,0:0:0:0:
176,303,75936,6,0,L|301:281,1,120.000004577637,0|0,0:0|0:0,0:0:0:0:
467,255,76197,2,0,L|475:172,1,60.0000022888184,0|0,0:0|0:0,0:0:0:0:
411,138,76371,1,0,0:0:0:0:
196,196,76458,6,0,P|135:168|46:188,1,120.000004577637,4|0,1:2|0:0,0:0:0:0:
268,88,76719,2,0,L|358:77,2,60.0000022888184,2|2|2,0:2|0:2|0:2,0:0:0:0:
45,346,76979,6,0,P|68:286|151:252,1,120.000004577637,0|0,1:0|0:0,0:0:0:0:
289,304,77240,1,0,0:0:0:0:
348,296,77327,1,0,0:0:0:0:
407,288,77414,1,0,0:0:0:0:
186,132,77501,6,0,L|67:149,1,120.000004577637,4|0,1:2|3:3,0:0:0:0:
384,61,77762,2,0,L|485:70,2,60.0000022888184,2|2|2,0:2|0:2|0:2,0:0:0:0:
140,317,78023,2,0,P|39:242|201:124,1,360.000013732911,2|0,1:2|0:0,0:0:0:0:
376,193,78806,1,0,1:0:0:0:
163,293,79066,5,2,0:0:0:0:
276,214,79240,2,0,L|282:134,1,60.0000022888184,0|2,0:0|0:0,0:0:0:0:
135,51,79501,2,0,L|131:111,1,60.0000022888184,0|2,0:0|0:0,0:0:0:0:
278,313,79762,1,4,0:0:0:0:
355,348,79849,2,0,P|384:283|322:253,1,120.000004577637,2|0,0:0|0:0,0:0:0:0:
61,337,80110,5,4,0:2:0:0:
263,246,80371,1,12,0:3:0:0:
61,337,80632,1,2,0:2:0:0:
263,246,80892,1,2,0:3:0:0:
61,337,81153,5,2,0:2:0:0:
27,297,81240,1,0,0:0:0:0:
13,246,81327,1,0,0:0:0:0:
23,195,81414,1,4,1:2:0:0:
60,159,81501,1,0,0:0:0:0:
110,147,81588,1,0,0:0:0:0:
263,246,81675,2,0,L|390:240,1,103.999995239258,0|0,1:0|0:0,0:0:0:0:
306,168,81936,2,0,L|191:175,1,103.999995239258,0|0,0:0|0:0,0:0:0:0:
451,337,82197,5,4,0:2:0:0:
249,246,82458,1,4,0:3:0:0:
451,337,82719,1,2,0:0:0:0:
249,246,82979,1,2,1:2:0:0:
453,191,83240,2,0,P|473:130|383:76,1,155.999992858887,4|4,1:3|1:3,0:0:0:0:
262,136,83675,1,0,1:0:0:0:
94,276,83762,2,0,L|86:149,1,103.999995239258,2|0,1:2|1:0,0:0:0:0:
166,137,84023,1,2,1:2:0:0:
358,260,84284,6,0,P|294:251|227:256,1,103.999995239258,4|0,1:2|0:0,0:0:0:0:
63,310,84545,2,0,L|44:238,2,51.999997619629,2|2|2,0:2|0:2|0:2,0:0:0:0:
229,119,84806,6,0,P|293:110|360:115,1,103.999995239258,12|0,1:2|0:0,0:0:0:0:
496,170,85067,2,0,L|515:98,2,51.999997619629,2|2|2,3:2|3:2|3:2,0:0:0:0:
318,301,85327,2,0,L|154:280,1,155.999992858887,4|2,1:3|0:2,0:0:0:0:
318,199,85675,2,0,L|384:184,1,51.999997619629,2|2,0:2|0:2,0:0:0:0:
200,109,85849,6,0,L|71:89,1,103.999995239258,12|0,1:2|0:0,0:0:0:0:
35,217,86110,2,0,L|164:197,1,103.999995239258,2|0,1:2|0:0,0:0:0:0:
376,331,86371,5,4,1:2:0:0:
193,208,86632,1,0,1:0:0:0:
391,127,86806,1,0,1:0:0:0:
227,293,86892,2,0,L|107:290,1,103.999995239258,12|0,1:2|1:0,0:0:0:0:
301,203,87153,2,0,L|421:200,1,103.999995239258,12|0,1:3|1:0,0:0:0:0:
171,122,87414,6,0,L|282:115,1,103.999995239258,6|0,1:3|1:0,0:0:0:0:
341,52,87675,1,2,1:1:0:0:
191,229,87849,1,0,1:0:0:0:
371,335,87936,2,0,L|391:218,1,103.999995239258,0|0,0:0|0:0,0:0:0:0:
197,137,88197,2,0,L|177:20,1,103.999995239258,4|0,1:2|0:0,0:0:0:0:
361,283,88458,6,0,L|483:264,1,103.999995239258,4|0,1:2|0:0,0:0:0:0:
404,193,88719,2,0,L|285:177,1,103.999995239258,0|0,0:0|0:0,0:0:0:0:
462,73,88979,1,8,1:0:0:0:
320,331,89153,2,0,L|306:261,1,51.999997619629,0|0,0:0|0:0,0:0:0:0:
460,164,89414,6,0,L|467:90,1,51.999997619629,0|4,0:0|1:3,0:0:0:0:
284,141,89675,1,0,0:0:0:0:
348,73,89762,2,0,L|221:61,1,103.999995239258,0|0,0:0|3:0,0:0:0:0:
71,311,90023,2,0,L|46:172,1,103.999995239258,8|0,1:0|1:0,0:0:0:0:
253,369,90284,2,0,L|278:230,1,103.999995239258,0|0,1:0|1:0,0:0:0:0:
102,94,90545,6,0,L|2:66,1,103.999995239258,4|0,1:2|0:0,0:0:0:0:
95,185,90806,2,0,L|195:157,1,103.999995239258,0|0,0:0|0:0,0:0:0:0:
413,260,91066,1,8,1:0:0:0:
273,321,91240,2,0,L|255:255,1,51.999997619629,0|0,0:0|0:0,0:0:0:0:
382,126,91501,2,0,L|400:60,1,51.999997619629,0|0,0:0|1:0,0:0:0:0:
248,164,91762,5,0,0:0:0:0:
214,124,91849,1,0,0:0:0:0:
210,72,91936,1,0,0:0:0:0:
247,36,92023,1,0,0:0:0:0:
405,231,92110,2,0,L|278:217,1,103.999995239258,10|0,1:0|1:0,0:0:0:0:
96,319,92371,2,0,L|223:305,1,103.999995239258,6|0,1:2|0:0,0:0:0:0:
401,354,92632,6,0,P|397:291|336:241,1,103.999995239258,2|0,1:2|0:0,0:0:0:0:
295,215,92892,2,0,L|212:208,2,51.999997619629,2|2|2,0:2|0:2|0:2,0:0:0:0:
487,198,93153,6,0,P|483:135|422:85,1,103.999995239258,4|0,1:2|0:0,0:0:0:0:
264,90,93413,2,0,L|181:83,2,51.999997619629,2|2|2,0:2|0:2|0:2,0:0:0:0:
416,236,93675,6,0,L|281:263,1,103.999995239258,4|0,1:2|0:0,0:0:0:0:
126,316,93936,2,0,L|108:227,1,51.999997619629,2|2,0:2|0:2,0:0:0:0:
172,207,94110,1,2,0:2:0:0:
388,353,94197,6,0,L|501:326,1,103.999995239258,0|0,1:0|1:0,0:0:0:0:
312,134,94458,2,0,L|199:107,1,103.999995239258,0|0,1:0|1:0,0:0:0:0:
41,300,94719,5,0,1:0:0:0:
181,360,94892,2,0,L|192:273,1,51.999997619629,0|0,0:0|1:0,0:0:0:0:
274,199,95153,1,0,0:0:0:0:
90,214,95240,2,0,L|66:83,1,103.999995239258,2|0,1:0|1:0,0:0:0:0:
251,364,95501,2,0,L|275:233,1,103.999995239258,2|2,0:2|0:2,0:0:0:0:
192,199,95762,5,2,1:0:0:0:
43,148,95936,2,0,L|32:88,1,51.999997619629,0|12,0:0|0:3,0:0:0:0:
417,271,96197,2,0,P|466:202|396:158,1,155.999992858887,6|2,0:2|0:1,0:0:0:0:
192,199,96806,5,2,1:0:0:0:
43,148,96980,2,0,L|32:88,1,51.999997619629,0|0,0:0|1:0,0:0:0:0:
417,271,97241,2,0,P|466:202|396:158,1,155.999992858887,4|2,0:2|1:1,0:0:0:0:
278,151,97762,5,0,0:0:0:0:
85,272,97849,2,0,L|66:146,1,103.999995239258,2|0,1:0|0:0,0:0:0:0:
251,61,98110,1,0,1:0:0:0:
137,349,98284,2,0,L|318:329,1,155.999992858887,4|4,1:2|0:2,0:0:0:0:
450,196,98806,5,4,1:3:0:0:
279,140,98892,2,0,L|148:119,1,103.999995239258,2|0,1:0|1:0,0:0:0:0:
246,58,99153,1,2,1:0:0:0:
496,37,99327,5,4,0:2:0:0:
256,192,99501,12,8,101892,0:0:0:0:
