osu file format v14

[General]
AudioFilename: audio.mp3
AudioLeadIn: 0
PreviewTime: 76831
Countdown: 0
SampleSet: Normal
StackLeniency: 0.7
Mode: 1
LetterboxInBreaks: 0
WidescreenStoryboard: 1

[Editor]
DistanceSpacing: 1.7
BeatDivisor: 4
GridSize: 4
TimelineZoom: 2.3

[Metadata]
Title:Following Flow
TitleUnicode:Following Flow
Artist:Nekomata Master
ArtistUnicode:猫叉Master
Creator:Chromoxx
Version:Muzukashii
Source:REFLEC BEAT colette -Spring-
Tags:rb naoyuki sato plus
BeatmapID:1254425
BeatmapSetID:586462

[Difficulty]
HPDrainRate:6
CircleSize:5
OverallDifficulty:5
ApproachRate:5
SliderMultiplier:1.4
SliderTickRate:1

[Events]
//Background and Video events
0,0,"bg.jpg",0,100
//Break Periods
//Storyboard Layer 0 (Background)
//Storyboard Layer 1 (Fail)
//Storyboard Layer 2 (Pass)
//Storyboard Layer 3 (Foreground)
//Storyboard Sound Samples

[TimingPoints]
417,342.857142857143,3,1,0,50,1,0
9588,-100,3,1,0,60,0,0
18074,-100,3,1,0,65,0,0
21845,-100,3,1,0,60,0,0
25017,-100,3,1,0,65,0,0
26302,-100,3,1,0,70,0,0
42588,-100,3,1,0,80,0,0
67445,-100,3,1,0,70,0,0
75588,-100,3,1,0,60,0,0
77559,-100,3,1,0,90,0,1
110474,-100,3,1,0,90,0,0
110645,-100,3,1,0,52,0,0
110902,-100,3,1,0,50,0,0
111074,-100,3,1,0,48,0,0
111245,-100,3,1,0,46,0,0
111417,-100,3,1,0,44,0,0
111588,-100,3,1,0,42,0,0
111759,-100,3,1,0,40,0,0
111931,-100,3,1,0,38,0,0
112102,-100,3,1,0,36,0,0
112274,-100,3,1,0,34,0,0
112445,-100,3,1,0,32,0,0
112617,-100,3,1,0,30,0,0
112788,-100,3,1,0,28,0,0
112959,-100,3,1,0,26,0,0
113131,-100,3,1,0,24,0,0
113302,-100,3,1,0,22,0,0
113474,-100,3,1,0,20,0,0
113645,-100,3,1,0,18,0,0
113817,-100,3,1,0,16,0,0
113988,-100,3,1,0,14,0,0
114159,-100,3,1,0,12,0,0
114331,-100,3,1,0,10,0,0
114502,-100,3,1,0,8,0,0

[HitObjects]
315,243,1102,5,0,0:0:0:0:
348,223,1359,1,8,0:0:0:0:
348,223,1445,1,8,0:0:0:0:
348,223,1788,1,0,0:0:0:0:
348,223,1959,1,0,0:0:0:0:
354,228,2302,1,0,0:0:0:0:
354,228,2474,1,8,0:0:0:0:
314,241,2988,1,8,0:0:0:0:
222,186,3331,1,8,0:0:0:0:
314,241,3502,1,0,0:0:0:0:
312,204,3845,1,0,0:0:0:0:
312,204,4017,1,0,0:0:0:0:
312,204,4188,1,0,0:0:0:0:
219,174,4531,1,8,0:0:0:0:
347,179,4874,1,0,0:0:0:0:
347,179,5045,1,8,0:0:0:0:
281,163,5388,1,0,0:0:0:0:
281,163,5559,1,0,0:0:0:0:
338,185,5902,1,8,0:0:0:0:
338,185,6074,1,0,0:0:0:0:
338,185,6159,1,0,0:0:0:0:
338,185,6245,1,0,0:0:0:0:
247,68,6588,1,8,0:0:0:0:
316,166,6931,1,0,0:0:0:0:
316,166,7102,1,8,0:0:0:0:
316,166,7445,1,8,0:0:0:0:
316,166,7617,1,0,0:0:0:0:
261,132,7959,1,8,0:0:0:0:
326,220,8045,1,8,0:0:0:0:
265,224,8131,1,8,0:0:0:0:
269,167,8302,1,0,0:0:0:0:
280,171,8645,1,8,0:0:0:0:
280,171,8988,1,0,0:0:0:0:
300,179,9159,1,0,0:0:0:0:
300,179,9245,1,0,0:0:0:0:
236,157,9331,1,0,0:0:0:0:
350,191,9674,1,12,0:0:0:0:
387,221,10017,1,0,0:0:0:0:
387,221,10188,1,8,0:0:0:0:
387,221,10359,1,0,0:0:0:0:
387,221,10702,1,8,0:0:0:0:
409,201,11045,1,0,0:0:0:0:
409,201,11217,1,8,0:0:0:0:
409,201,11388,1,8,0:0:0:0:
350,185,11731,1,0,0:0:0:0:
289,186,12074,1,0,0:0:0:0:
289,186,12245,1,0,0:0:0:0:
270,123,12417,1,8,0:0:0:0:
325,221,12759,1,0,0:0:0:0:
325,221,12931,1,8,0:0:0:0:
325,221,13102,1,8,0:0:0:0:
325,221,13274,1,0,0:0:0:0:
230,172,13617,1,8,0:0:0:0:
230,172,13788,1,0,0:0:0:0:
233,196,14131,1,8,0:0:0:0:
325,221,14302,1,0,0:0:0:0:
338,236,14388,1,0,0:0:0:0:
325,221,14474,1,0,0:0:0:0:
338,236,14817,1,8,0:0:0:0:
338,236,14988,1,0,0:0:0:0:
338,236,15159,1,0,0:0:0:0:
338,236,15331,1,8,0:0:0:0:
352,211,15502,1,0,0:0:0:0:
247,166,15845,1,0,0:0:0:0:
247,166,16017,1,8,0:0:0:0:
245,138,16188,1,0,0:0:0:0:
440,213,16531,1,8,0:0:0:0:
350,232,16702,1,0,0:0:0:0:
350,232,16874,1,8,0:0:0:0:
354,227,17217,1,0,0:0:0:0:
334,211,17388,1,8,0:0:0:0:
334,211,17559,1,8,0:0:0:0:
334,211,17731,1,8,0:0:0:0:
260,168,17902,1,0,0:0:0:0:
260,168,18417,1,8,0:0:0:0:
303,195,18931,1,0,0:0:0:0:
303,195,19102,1,0,0:0:0:0:
303,195,19274,1,8,0:0:0:0:
294,189,19445,1,0,0:0:0:0:
239,214,19788,1,0,0:0:0:0:
294,189,19959,1,8,0:0:0:0:
333,248,20302,1,0,0:0:0:0:
333,248,20474,1,0,0:0:0:0:
333,248,20645,1,8,0:0:0:0:
333,248,20988,1,0,0:0:0:0:
333,248,21331,1,8,0:0:0:0:
333,248,21502,1,8,0:0:0:0:
333,248,21674,1,0,0:0:0:0:
325,238,22017,1,8,0:0:0:0:
325,238,22188,1,0,0:0:0:0:
325,238,22359,1,0,0:0:0:0:
325,238,22531,1,8,0:0:0:0:
325,238,22874,1,0,0:0:0:0:
325,238,23045,1,8,0:0:0:0:
325,238,23217,1,0,0:0:0:0:
325,238,23388,1,0,0:0:0:0:
325,238,23559,1,8,0:0:0:0:
272,161,23902,1,0,0:0:0:0:
272,161,24074,1,8,0:0:0:0:
272,161,24245,1,0,0:0:0:0:
224,128,24417,1,8,0:0:0:0:
224,128,24588,1,8,0:0:0:0:
336,202,24759,1,0,0:0:0:0:
160,165,25102,2,8,L|220:162,10,35
336,174,26131,1,4,0:0:0:0:
344,108,26817,1,0,0:0:0:0:
344,108,26988,1,8,0:0:0:0:
344,108,27159,1,0,0:0:0:0:
276,180,27502,1,8,0:0:0:0:
276,180,27674,1,0,0:0:0:0:
276,180,27845,1,8,0:0:0:0:
300,118,28188,1,0,0:0:0:0:
300,118,28531,1,8,0:0:0:0:
300,118,28702,1,8,0:0:0:0:
300,118,28874,1,0,0:0:0:0:
308,138,29217,1,8,0:0:0:0:
377,161,29559,1,0,0:0:0:0:
377,161,29731,1,8,0:0:0:0:
377,161,29902,1,0,0:0:0:0:
377,161,30245,1,8,0:0:0:0:
315,136,30588,1,0,0:0:0:0:
315,136,30759,1,8,0:0:0:0:
247,120,30845,1,8,0:0:0:0:
315,136,30931,1,8,0:0:0:0:
247,120,31274,1,0,0:0:0:0:
252,120,31617,1,8,0:0:0:0:
252,120,31788,1,0,0:0:0:0:
252,120,31959,1,8,0:0:0:0:
312,178,32302,1,0,0:0:0:0:
312,178,32474,1,0,0:0:0:0:
312,178,32645,1,8,0:0:0:0:
263,151,32731,1,8,0:0:0:0:
312,178,32817,1,8,0:0:0:0:
312,178,32988,1,0,0:0:0:0:
159,168,33331,1,8,0:0:0:0:
259,166,33502,1,0,0:0:0:0:
259,166,33674,1,8,0:0:0:0:
314,205,33759,1,8,0:0:0:0:
259,166,33845,1,8,0:0:0:0:
314,205,34017,1,0,0:0:0:0:
249,157,34188,1,0,0:0:0:0:
277,181,34359,1,12,0:0:0:0:
118,158,34702,1,0,0:0:0:0:
310,182,34874,1,8,0:0:0:0:
310,182,35045,1,0,0:0:0:0:
310,182,35388,1,8,0:0:0:0:
197,152,35731,1,8,0:0:0:0:
310,182,35902,1,8,0:0:0:0:
197,152,36074,1,0,0:0:0:0:
159,138,36417,1,8,0:0:0:0:
176,173,36759,1,0,0:0:0:0:
232,168,36931,1,8,0:0:0:0:
232,168,37102,1,0,0:0:0:0:
176,173,37445,1,8,0:0:0:0:
171,171,37788,1,8,0:0:0:0:
176,173,37959,1,8,0:0:0:0:
210,152,38131,1,0,0:0:0:0:
259,193,38474,1,8,0:0:0:0:
318,209,38645,1,0,0:0:0:0:
318,209,38817,1,0,0:0:0:0:
318,209,38988,1,8,0:0:0:0:
240,170,39159,1,0,0:0:0:0:
245,157,39502,1,8,0:0:0:0:
272,153,39674,1,0,0:0:0:0:
236,114,39845,1,8,0:0:0:0:
236,114,40017,1,8,0:0:0:0:
254,123,40188,1,0,0:0:0:0:
319,264,40531,1,8,0:0:0:0:
302,251,40874,1,0,0:0:0:0:
241,140,41045,1,8,0:0:0:0:
241,140,41217,1,0,0:0:0:0:
302,199,41388,1,0,0:0:0:0:
247,152,41559,1,8,0:0:0:0:
290,173,41902,1,4,0:0:0:0:
290,173,42245,1,4,0:0:0:0:
269,152,42588,1,12,0:0:0:0:
379,193,42931,1,0,0:0:0:0:
379,193,43102,1,8,0:0:0:0:
288,190,43274,1,0,0:0:0:0:
379,193,43445,1,0,0:0:0:0:
272,127,43617,1,8,0:0:0:0:
300,200,43959,1,0,0:0:0:0:
215,206,44302,1,8,0:0:0:0:
300,200,44474,1,0,0:0:0:0:
300,200,44645,1,8,0:0:0:0:
193,193,44817,1,8,0:0:0:0:
261,158,44988,1,0,0:0:0:0:
261,158,45159,1,8,0:0:0:0:
312,128,45331,1,0,0:0:0:0:
312,128,45674,1,8,0:0:0:0:
218,117,45845,1,8,0:0:0:0:
312,128,46017,1,0,0:0:0:0:
335,158,46188,1,0,0:0:0:0:
355,186,46359,1,8,0:0:0:0:
318,171,46702,1,8,0:0:0:0:
286,188,47045,1,0,0:0:0:0:
286,188,47217,1,8,0:0:0:0:
358,162,47388,1,0,0:0:0:0:
248,108,47731,1,8,0:0:0:0:
248,108,47902,1,8,0:0:0:0:
312,100,48074,1,0,0:0:0:0:
312,100,48245,1,0,0:0:0:0:
312,100,48417,1,8,0:0:0:0:
248,248,48759,1,0,0:0:0:0:
268,240,48931,1,0,0:0:0:0:
268,144,49102,1,8,0:0:0:0:
268,240,49274,1,8,0:0:0:0:
252,160,49445,1,0,0:0:0:0:
332,192,49788,1,8,0:0:0:0:
304,144,50131,1,8,0:0:0:0:
304,144,50302,1,8,0:0:0:0:
376,152,50474,1,0,0:0:0:0:
376,152,50645,1,8,0:0:0:0:
376,152,50817,1,0,0:0:0:0:
272,240,51159,1,0,0:0:0:0:
360,268,51331,1,8,0:0:0:0:
320,256,51502,1,0,0:0:0:0:
320,256,51674,1,0,0:0:0:0:
320,256,51845,1,8,0:0:0:0:
316,288,52017,1,0,0:0:0:0:
268,176,52188,1,8,0:0:0:0:
268,176,52531,1,8,0:0:0:0:
232,264,52702,1,8,0:0:0:0:
288,160,52874,1,0,0:0:0:0:
288,160,53045,1,8,0:0:0:0:
296,164,53217,1,0,0:0:0:0:
248,128,53388,1,8,0:0:0:0:
284,220,53731,1,0,0:0:0:0:
264,236,53902,1,8,0:0:0:0:
264,236,54074,1,0,0:0:0:0:
264,236,54245,1,0,0:0:0:0:
296,232,54417,1,8,0:0:0:0:
328,220,54588,1,0,0:0:0:0:
216,180,54931,1,8,0:0:0:0:
316,208,55274,1,8,0:0:0:0:
316,208,55445,1,8,0:0:0:0:
328,216,55617,1,0,0:0:0:0:
392,208,55959,1,8,0:0:0:0:
392,208,56131,1,8,0:0:0:0:
368,208,56302,1,0,0:0:0:0:
368,208,56474,1,0,0:0:0:0:
368,208,56645,1,8,0:0:0:0:
320,224,56988,1,8,0:0:0:0:
328,228,57159,1,0,0:0:0:0:
320,224,57331,1,8,0:0:0:0:
320,224,57502,1,8,0:0:0:0:
320,220,57674,1,0,0:0:0:0:
320,216,57845,1,8,0:0:0:0:
292,212,58017,1,0,0:0:0:0:
336,232,58359,1,0,0:0:0:0:
336,232,58702,1,8,0:0:0:0:
352,232,58874,1,8,0:0:0:0:
288,148,59045,1,4,0:0:0:0:
312,196,59559,1,0,0:0:0:0:
360,176,60074,1,8,0:0:0:0:
360,176,60245,1,8,0:0:0:0:
312,224,60417,1,0,0:0:0:0:
312,224,60588,1,8,0:0:0:0:
312,224,60931,1,0,0:0:0:0:
232,136,61102,1,8,0:0:0:0:
272,160,61445,1,0,0:0:0:0:
272,160,61788,1,0,0:0:0:0:
272,160,62131,1,8,0:0:0:0:
272,160,62474,1,8,0:0:0:0:
272,160,62645,1,0,0:0:0:0:
272,224,62731,1,0,0:0:0:0:
224,260,62817,1,0,0:0:0:0:
256,164,62988,1,0,0:0:0:0:
240,164,63159,1,8,0:0:0:0:
300,164,63674,1,0,0:0:0:0:
304,176,64188,1,8,0:0:0:0:
304,176,64359,1,8,0:0:0:0:
364,184,64531,1,0,0:0:0:0:
364,184,64702,1,8,0:0:0:0:
344,180,64874,1,8,0:0:0:0:
344,180,64959,1,8,0:0:0:0:
340,172,65045,1,8,0:0:0:0:
340,172,65217,1,0,0:0:0:0:
348,252,65559,1,0,0:0:0:0:
348,252,65731,1,8,0:0:0:0:
132,192,65902,1,8,0:0:0:0:
208,236,66074,1,0,0:0:0:0:
160,212,66159,1,0,0:0:0:0:
208,236,66245,1,0,0:0:0:0:
384,236,66588,1,8,0:0:0:0:
384,236,66759,1,0,0:0:0:0:
384,236,66931,1,8,0:0:0:0:
384,236,67102,1,8,0:0:0:0:
344,140,67274,1,4,0:0:0:0:
436,232,68302,1,8,0:0:0:0:
244,248,68474,1,8,0:0:0:0:
436,232,68645,1,0,0:0:0:0:
376,208,68817,1,8,0:0:0:0:
376,208,69331,1,0,0:0:0:0:
376,208,70359,1,8,0:0:0:0:
368,240,70531,1,0,0:0:0:0:
368,240,70702,1,0,0:0:0:0:
368,240,70874,1,8,0:0:0:0:
344,228,71388,1,4,0:0:0:0:
300,200,72417,1,8,0:0:0:0:
300,208,73445,1,0,0:0:0:0:
300,208,73788,1,0,0:0:0:0:
300,208,74131,1,8,0:0:0:0:
300,208,74474,1,0,0:0:0:0:
384,220,74645,1,0,0:0:0:0:
384,220,74817,1,8,0:0:0:0:
384,220,74988,1,0,0:0:0:0:
328,216,75159,1,8,0:0:0:0:
328,216,75245,1,8,0:0:0:0:
308,216,75331,1,8,0:0:0:0:
308,216,75502,1,0,0:0:0:0:
344,188,76874,1,8,0:0:0:0:
344,188,77217,1,8,0:0:0:0:
384,180,77559,1,4,0:0:0:0:
316,168,77902,1,8,0:0:0:0:
320,160,78074,1,0,0:0:0:0:
320,160,78245,1,8,0:0:0:0:
320,160,78417,1,8,0:0:0:0:
320,160,78588,1,0,0:0:0:0:
320,160,78759,1,0,0:0:0:0:
320,160,78931,1,8,0:0:0:0:
348,220,79274,1,0,0:0:0:0:
348,220,79445,1,8,0:0:0:0:
348,220,79617,1,0,0:0:0:0:
348,220,79788,1,0,0:0:0:0:
348,220,79959,1,8,0:0:0:0:
348,220,80131,1,8,0:0:0:0:
348,220,80302,1,0,0:0:0:0:
344,220,80645,1,8,0:0:0:0:
328,228,80817,1,0,0:0:0:0:
324,232,80988,1,8,0:0:0:0:
252,140,81159,1,8,0:0:0:0:
324,232,81331,1,0,0:0:0:0:
324,248,81674,1,8,0:0:0:0:
384,292,82017,1,0,0:0:0:0:
260,28,82188,1,0,0:0:0:0:
412,112,82359,1,8,0:0:0:0:
356,104,82702,1,0,0:0:0:0:
356,104,82874,1,8,0:0:0:0:
356,104,83045,1,0,0:0:0:0:
316,108,83217,1,8,0:0:0:0:
316,108,83302,1,8,0:0:0:0:
316,108,83388,1,8,0:0:0:0:
316,108,83559,1,0,0:0:0:0:
316,108,83645,1,0,0:0:0:0:
316,108,83731,1,0,0:0:0:0:
368,140,84074,1,8,0:0:0:0:
368,140,84417,1,0,0:0:0:0:
260,156,84588,1,8,0:0:0:0:
260,156,84759,1,0,0:0:0:0:
260,156,85102,1,8,0:0:0:0:
272,156,85274,1,0,0:0:0:0:
240,116,85445,1,8,0:0:0:0:
272,240,85788,1,0,0:0:0:0:
272,240,86131,1,8,0:0:0:0:
272,240,86302,1,8,0:0:0:0:
272,240,86474,1,0,0:0:0:0:
272,240,86817,1,8,0:0:0:0:
384,200,87159,1,0,0:0:0:0:
384,200,87331,1,8,0:0:0:0:
384,200,87502,1,0,0:0:0:0:
356,204,87674,1,8,0:0:0:0:
356,204,87759,1,8,0:0:0:0:
352,220,87845,1,8,0:0:0:0:
236,168,88188,1,0,0:0:0:0:
256,224,88359,1,0,0:0:0:0:
364,220,88531,1,8,0:0:0:0:
364,220,88702,1,0,0:0:0:0:
364,220,88874,1,8,0:0:0:0:
356,232,89217,1,0,0:0:0:0:
356,232,89388,1,0,0:0:0:0:
248,212,89559,1,8,0:0:0:0:
288,148,89902,1,0,0:0:0:0:
280,124,90245,1,8,0:0:0:0:
280,124,90417,1,0,0:0:0:0:
280,124,90588,1,8,0:0:0:0:
352,168,90931,1,0,0:0:0:0:
352,168,91102,1,8,0:0:0:0:
328,244,91274,1,0,0:0:0:0:
352,168,91445,1,0,0:0:0:0:
328,244,91617,1,8,0:0:0:0:
372,228,91959,1,0,0:0:0:0:
372,228,92131,1,8,0:0:0:0:
356,224,92302,1,8,0:0:0:0:
280,288,92474,1,0,0:0:0:0:
280,288,92645,1,8,0:0:0:0:
348,248,92817,1,8,0:0:0:0:
280,288,92988,1,0,0:0:0:0:
424,260,93159,1,0,0:0:0:0:
208,272,93331,1,8,0:0:0:0:
208,288,93502,1,0,0:0:0:0:
204,288,93674,1,8,0:0:0:0:
304,232,94017,1,4,0:0:0:0:
264,176,94359,1,8,0:0:0:0:
264,176,94531,1,0,0:0:0:0:
296,112,94702,1,8,0:0:0:0:
296,112,94874,1,8,0:0:0:0:
296,112,95045,1,0,0:0:0:0:
296,112,95217,1,0,0:0:0:0:
296,112,95388,1,8,0:0:0:0:
296,112,95731,1,0,0:0:0:0:
296,112,95902,1,8,0:0:0:0:
296,112,96074,1,0,0:0:0:0:
296,112,96245,1,0,0:0:0:0:
296,112,96417,1,8,0:0:0:0:
296,112,96588,1,8,0:0:0:0:
296,112,96759,1,0,0:0:0:0:
312,196,97102,1,8,0:0:0:0:
312,196,97274,1,0,0:0:0:0:
312,196,97445,1,8,0:0:0:0:
272,224,97617,1,8,0:0:0:0:
272,224,97788,1,0,0:0:0:0:
324,248,98131,1,8,0:0:0:0:
384,292,98474,1,0,0:0:0:0:
260,28,98645,1,0,0:0:0:0:
412,112,98816,1,8,0:0:0:0:
356,104,99159,1,0,0:0:0:0:
356,104,99331,1,8,0:0:0:0:
356,104,99502,1,0,0:0:0:0:
316,108,99674,1,8,0:0:0:0:
316,108,99759,1,8,0:0:0:0:
316,108,99845,1,8,0:0:0:0:
316,108,100016,1,0,0:0:0:0:
316,108,100102,1,0,0:0:0:0:
316,108,100188,1,0,0:0:0:0:
368,140,100531,1,8,0:0:0:0:
368,140,100874,1,0,0:0:0:0:
260,156,101045,1,8,0:0:0:0:
260,156,101216,1,0,0:0:0:0:
260,156,101559,1,8,0:0:0:0:
272,156,101731,1,0,0:0:0:0:
240,116,101902,1,8,0:0:0:0:
272,240,102245,1,0,0:0:0:0:
272,240,102588,1,8,0:0:0:0:
272,240,102759,1,8,0:0:0:0:
272,240,102931,1,0,0:0:0:0:
272,240,103274,1,8,0:0:0:0:
384,200,103616,1,0,0:0:0:0:
384,200,103788,1,8,0:0:0:0:
384,200,103959,1,0,0:0:0:0:
356,204,104131,1,8,0:0:0:0:
356,204,104216,1,8,0:0:0:0:
352,220,104302,1,8,0:0:0:0:
236,168,104645,1,0,0:0:0:0:
256,224,104816,1,0,0:0:0:0:
364,220,104988,1,8,0:0:0:0:
364,220,105159,1,0,0:0:0:0:
364,220,105331,1,8,0:0:0:0:
356,232,105674,1,0,0:0:0:0:
356,232,105845,1,0,0:0:0:0:
248,212,106016,1,8,0:0:0:0:
288,148,106359,1,0,0:0:0:0:
280,124,106702,1,8,0:0:0:0:
280,124,106874,1,0,0:0:0:0:
280,124,107045,1,8,0:0:0:0:
352,168,107388,1,0,0:0:0:0:
352,168,107559,1,8,0:0:0:0:
328,244,107731,1,0,0:0:0:0:
352,168,107902,1,0,0:0:0:0:
328,244,108074,1,8,0:0:0:0:
356,232,108417,1,0,0:0:0:0:
260,220,108588,1,0,0:0:0:0:
260,220,108759,1,8,0:0:0:0:
260,220,108931,1,0,0:0:0:0:
228,176,109102,1,8,0:0:0:0:
244,204,109274,1,8,0:0:0:0:
228,176,109445,1,0,0:0:0:0:
256,212,109617,1,0,0:0:0:0:
256,212,109788,1,8,0:0:0:0:
300,216,109959,1,0,0:0:0:0:
304,212,110131,1,8,0:0:0:0:
300,208,110302,1,0,0:0:0:0:
264,196,110474,1,0,0:0:0:0:
256,192,110817,12,0,114589,0:0:0:0:
