osu file format v14

[General]
AudioFilename: audio.mp3
AudioLeadIn: 0
PreviewTime: 76831
Countdown: 0
SampleSet: Normal
StackLeniency: 0.7
Mode: 1
LetterboxInBreaks: 0
WidescreenStoryboard: 1

[Editor]
DistanceSpacing: 1.7
BeatDivisor: 4
GridSize: 4
TimelineZoom: 2.3

[Metadata]
Title:Following Flow
TitleUnicode:Following Flow
Artist:Nekomata Master
ArtistUnicode:猫叉Master
Creator:Chromoxx
Version:Kantan
Source:REFLEC BEAT colette -Spring-
Tags:rb naoyuki sato plus
BeatmapID:1272795
BeatmapSetID:586462

[Difficulty]
HPDrainRate:8
CircleSize:5
OverallDifficulty:4
ApproachRate:5
SliderMultiplier:1.4
SliderTickRate:1

[Events]
//Background and Video events
0,0,"bg.jpg",0,100
//Break Periods
//Storyboard Layer 0 (Background)
//Storyboard Layer 1 (Fail)
//Storyboard Layer 2 (Pass)
//Storyboard Layer 3 (Foreground)
//Storyboard Sound Samples

[TimingPoints]
417,342.857142857143,3,1,0,50,1,0
9588,-100,3,1,0,60,0,0
18074,-100,3,1,0,65,0,0
21845,-100,3,1,0,60,0,0
25017,-100,3,1,0,65,0,0
26302,-100,3,1,0,70,0,0
42588,-100,3,1,0,80,0,0
67445,-100,3,1,0,70,0,0
75588,-100,3,1,0,60,0,0
77559,-100,3,1,0,90,0,1
110474,-100,3,1,0,90,0,0
110645,-100,3,1,0,52,0,0
110902,-100,3,1,0,50,0,0
111074,-100,3,1,0,48,0,0
111245,-100,3,1,0,46,0,0
111417,-100,3,1,0,44,0,0
111588,-100,3,1,0,42,0,0
111759,-100,3,1,0,40,0,0
111931,-100,3,1,0,38,0,0
112102,-100,3,1,0,36,0,0
112274,-100,3,1,0,34,0,0
112445,-100,3,1,0,32,0,0
112617,-100,3,1,0,30,0,0
112788,-100,3,1,0,28,0,0
112959,-100,3,1,0,26,0,0
113131,-100,3,1,0,24,0,0
113302,-100,3,1,0,22,0,0
113474,-100,3,1,0,20,0,0
113645,-100,3,1,0,18,0,0
113817,-100,3,1,0,16,0,0
113988,-100,3,1,0,14,0,0
114159,-100,3,1,0,12,0,0
114331,-100,3,1,0,10,0,0
114502,-100,3,1,0,8,0,0

[HitObjects]
283,207,1445,5,8,0:0:0:0:
283,207,3502,1,0,0:0:0:0:
283,207,4531,1,8,0:0:0:0:
283,207,5045,1,8,0:0:0:0:
216,188,5559,1,0,0:0:0:0:
199,181,7617,1,8,0:0:0:0:
299,180,8645,1,0,0:0:0:0:
314,225,8988,1,8,0:0:0:0:
325,159,9331,1,8,0:0:0:0:
317,172,9674,1,4,0:0:0:0:
288,277,10702,1,8,0:0:0:0:
294,271,11217,1,8,0:0:0:0:
288,277,11731,1,0,0:0:0:0:
294,271,12759,1,8,0:0:0:0:
283,256,13274,1,0,0:0:0:0:
283,256,13788,1,0,0:0:0:0:
229,208,14817,1,8,0:0:0:0:
212,164,15331,1,8,0:0:0:0:
229,208,15845,1,0,0:0:0:0:
229,208,16874,1,0,0:0:0:0:
288,304,17217,1,0,0:0:0:0:
298,208,17559,1,8,0:0:0:0:
167,154,17902,1,4,0:0:0:0:
266,179,18931,1,0,0:0:0:0:
266,179,19959,1,8,0:0:0:0:
266,179,20645,1,0,0:0:0:0:
266,179,20988,1,0,0:0:0:0:
283,187,22017,1,8,0:0:0:0:
283,187,22359,1,0,0:0:0:0:
283,187,23045,1,8,0:0:0:0:
283,187,23388,1,0,0:0:0:0:
283,187,24074,1,8,0:0:0:0:
283,187,24417,1,0,0:0:0:0:
283,187,24759,1,0,0:0:0:0:
283,187,25102,1,8,0:0:0:0:
283,187,26131,1,4,0:0:0:0:
277,169,27159,1,8,0:0:0:0:
361,227,28188,1,0,0:0:0:0:
361,227,28531,1,8,0:0:0:0:
361,227,29217,1,8,0:0:0:0:
361,227,29559,1,0,0:0:0:0:
361,227,30245,1,8,0:0:0:0:
357,237,31274,1,0,0:0:0:0:
357,237,32302,1,8,0:0:0:0:
355,242,33331,1,0,0:0:0:0:
131,252,33674,1,0,0:0:0:0:
348,253,34017,1,8,0:0:0:0:
273,237,34359,1,8,0:0:0:0:
273,237,35388,1,0,0:0:0:0:
238,220,35731,1,8,0:0:0:0:
210,255,36417,1,0,0:0:0:0:
210,255,36759,1,0,0:0:0:0:
394,271,37445,1,8,0:0:0:0:
394,271,37788,1,8,0:0:0:0:
394,271,38474,1,0,0:0:0:0:
284,244,39502,1,8,0:0:0:0:
394,283,41559,1,8,0:0:0:0:
308,255,41902,1,4,0:0:0:0:
181,169,42245,1,4,0:0:0:0:
181,169,42588,1,12,0:0:0:0:
354,214,43617,1,0,0:0:0:0:
354,214,43959,1,0,0:0:0:0:
354,214,44302,1,8,0:0:0:0:
354,214,44645,1,0,0:0:0:0:
335,198,45674,1,8,0:0:0:0:
335,198,46017,1,8,0:0:0:0:
335,198,46359,1,0,0:0:0:0:
335,198,46702,1,8,0:0:0:0:
335,198,47731,1,0,0:0:0:0:
335,200,48759,1,8,0:0:0:0:
305,306,49788,1,0,0:0:0:0:
305,306,50131,1,0,0:0:0:0:
305,306,50474,1,8,0:0:0:0:
305,306,50817,1,8,0:0:0:0:
305,306,51845,1,0,0:0:0:0:
305,306,52188,1,0,0:0:0:0:
305,306,52531,1,8,0:0:0:0:
305,306,52874,1,0,0:0:0:0:
369,317,53217,1,8,0:0:0:0:
369,317,53902,1,8,0:0:0:0:
369,317,54245,1,8,0:0:0:0:
369,317,54588,1,0,0:0:0:0:
369,317,54931,1,8,0:0:0:0:
369,317,55959,1,0,0:0:0:0:
323,295,58017,1,0,0:0:0:0:
323,295,58359,1,0,0:0:0:0:
323,295,58702,1,8,0:0:0:0:
323,295,59045,1,4,0:0:0:0:
328,292,60074,1,12,0:0:0:0:
336,285,61102,1,4,0:0:0:0:
336,285,62131,1,8,0:0:0:0:
342,285,62645,1,0,0:0:0:0:
342,285,63159,1,12,0:0:0:0:
343,288,64188,1,4,0:0:0:0:
343,288,65217,1,12,0:0:0:0:
343,287,66245,1,0,0:0:0:0:
343,287,66759,1,8,0:0:0:0:
343,287,67274,1,4,0:0:0:0:
252,190,69331,1,12,0:0:0:0:
254,192,71388,1,4,0:0:0:0:
254,192,72417,1,8,0:0:0:0:
311,178,73445,1,0,0:0:0:0:
311,178,73788,1,0,0:0:0:0:
322,174,74474,1,0,0:0:0:0:
322,174,74817,1,8,0:0:0:0:
322,174,75159,1,8,0:0:0:0:
322,174,75502,1,0,0:0:0:0:
317,174,76874,1,8,0:0:0:0:
317,174,77217,1,8,0:0:0:0:
236,155,77559,1,4,0:0:0:0:
337,184,78588,1,8,0:0:0:0:
337,184,78931,1,0,0:0:0:0:
337,184,79617,1,8,0:0:0:0:
337,184,79959,1,8,0:0:0:0:
289,198,80302,1,0,0:0:0:0:
289,198,80645,1,0,0:0:0:0:
231,189,81674,1,8,0:0:0:0:
242,200,82702,1,0,0:0:0:0:
242,200,83045,1,8,0:0:0:0:
242,200,83388,1,8,0:0:0:0:
242,200,83731,1,0,0:0:0:0:
313,300,84417,1,0,0:0:0:0:
351,346,84759,1,0,0:0:0:0:
249,199,85102,1,8,0:0:0:0:
249,199,85788,1,0,0:0:0:0:
338,189,86817,1,8,0:0:0:0:
338,189,87845,1,0,0:0:0:0:
357,279,88531,1,0,0:0:0:0:
338,189,88874,1,8,0:0:0:0:
338,189,89217,1,8,0:0:0:0:
338,189,89902,1,0,0:0:0:0:
338,189,90931,1,8,0:0:0:0:
338,189,91959,1,0,0:0:0:0:
338,189,92302,1,8,0:0:0:0:
172,203,92645,1,0,0:0:0:0:
172,203,92988,1,8,0:0:0:0:
357,185,93674,1,8,0:0:0:0:
196,132,94017,1,4,0:0:0:0:
177,194,95045,1,8,0:0:0:0:
177,194,95388,1,0,0:0:0:0:
177,194,96074,1,8,0:0:0:0:
177,194,96417,1,8,0:0:0:0:
241,144,96759,1,0,0:0:0:0:
293,233,97102,1,0,0:0:0:0:
293,233,98131,1,8,0:0:0:0:
313,208,99159,1,0,0:0:0:0:
313,208,99502,1,8,0:0:0:0:
261,199,99845,1,8,0:0:0:0:
261,199,100188,1,0,0:0:0:0:
328,330,100874,1,0,0:0:0:0:
328,330,101217,1,0,0:0:0:0:
320,321,101559,1,8,0:0:0:0:
268,198,102245,1,0,0:0:0:0:
285,198,103274,1,8,0:0:0:0:
285,198,104302,1,0,0:0:0:0:
285,198,104988,1,0,0:0:0:0:
320,321,105331,1,8,0:0:0:0:
285,198,105674,1,8,0:0:0:0:
285,198,106359,1,0,0:0:0:0:
320,321,107388,1,8,0:0:0:0:
320,321,108417,1,0,0:0:0:0:
320,321,108759,1,0,0:0:0:0:
320,321,109102,1,8,0:0:0:0:
320,321,109445,1,0,0:0:0:0:
320,321,109959,1,8,0:0:0:0:
320,321,110474,1,0,0:0:0:0:
256,192,110817,12,0,114588,0:0:0:0:
