osu file format v14

[General]
AudioFilename: audio.mp3
AudioLeadIn: 0
PreviewTime: 76831
Countdown: 0
SampleSet: Normal
StackLeniency: 0.7
Mode: 1
LetterboxInBreaks: 0
WidescreenStoryboard: 0

[Editor]
DistanceSpacing: 1.7
BeatDivisor: 4
GridSize: 4
TimelineZoom: 2.3

[Metadata]
Title:Following Flow
TitleUnicode:Following Flow
Artist:Nekomata Master
ArtistUnicode:猫叉Master
Creator:Chromoxx
Version:Inner Oni
Source:REFLEC BEAT colette -Spring-
Tags:rb naoyuki sato plus
BeatmapID:1241994
BeatmapSetID:586462

[Difficulty]
HPDrainRate:6
CircleSize:5
OverallDifficulty:6
ApproachRate:5
SliderMultiplier:1.4
SliderTickRate:1

[Events]
//Background and Video events
0,0,"bg.jpg",0,100
//Break Periods
//Storyboard Layer 0 (Background)
//Storyboard Layer 1 (Fail)
//Storyboard Layer 2 (Pass)
//Storyboard Layer 3 (Foreground)
//Storyboard Sound Samples

[TimingPoints]
417,342.857142857143,3,1,0,50,1,0
9588,-100,3,1,0,60,0,0
18074,-100,3,1,0,65,0,0
21845,-100,3,1,0,60,0,0
25017,-100,3,1,0,65,0,0
26302,-100,3,1,0,70,0,0
41902,-125,3,1,0,70,0,0
42588,-100,3,1,0,80,0,0
58188,-125,3,1,0,80,0,0
58959,-111.111111111111,3,1,0,80,0,0
67445,-125,3,1,0,70,0,0
75159,-121.951219512195,3,1,0,70,0,0
75245,-119.047619047619,3,1,0,70,0,0
75331,-116.279069767442,3,1,0,70,0,0
75417,-113.636363636364,3,1,0,70,0,0
75502,-111.111111111111,3,1,0,70,0,0
75588,-111.111111111111,3,1,0,60,0,0
77559,-90.9090909090909,3,1,0,90,0,1
110474,-90.9090909090909,3,1,0,90,0,0
110645,-100,3,1,0,52,0,0
110902,-102.040816326531,3,1,0,50,0,0
111074,-104.166666666667,3,1,0,48,0,0
111245,-106.382978723404,3,1,0,46,0,0
111417,-108.695652173913,3,1,0,44,0,0
111588,-111.111111111111,3,1,0,42,0,0
111759,-113.636363636364,3,1,0,40,0,0
111931,-116.279069767442,3,1,0,38,0,0
112102,-119.047619047619,3,1,0,36,0,0
112274,-119.047619047619,3,1,0,34,0,0
112445,-121.951219512195,3,1,0,32,0,0
112617,-125,3,1,0,30,0,0
112788,-128.205128205128,3,1,0,28,0,0
112959,-131.578947368421,3,1,0,26,0,0
113131,-135.135135135135,3,1,0,24,0,0
113302,-138.888888888889,3,1,0,22,0,0
113474,-142.857142857143,3,1,0,20,0,0
113645,-147.058823529412,3,1,0,18,0,0
113817,-151.515151515152,3,1,0,16,0,0
113988,-156.25,3,1,0,14,0,0
114159,-161.290322580645,3,1,0,12,0,0
114331,-166.666666666667,3,1,0,10,0,0
114502,-172.413793103448,3,1,0,8,0,0

[HitObjects]
280,216,1102,5,0,0:0:0:0:
216,200,1359,1,0,0:0:0:0:
252,168,1445,1,8,0:0:0:0:
256,136,1788,1,0,0:0:0:0:
256,136,1959,1,8,0:0:0:0:
240,184,2131,1,0,0:0:0:0:
228,204,2302,1,8,0:0:0:0:
256,120,2474,1,8,0:0:0:0:
308,192,2817,1,0,0:0:0:0:
272,204,2988,1,8,0:0:0:0:
152,192,3159,1,8,0:0:0:0:
148,188,3331,1,0,0:0:0:0:
148,188,3502,1,0,0:0:0:0:
272,232,3845,1,0,0:0:0:0:
272,212,4017,1,8,0:0:0:0:
272,212,4188,1,8,0:0:0:0:
108,176,4359,1,0,0:0:0:0:
108,176,4531,1,8,0:0:0:0:
160,248,4702,1,0,0:0:0:0:
192,224,4874,1,0,0:0:0:0:
192,216,5045,1,8,0:0:0:0:
212,248,5388,1,8,0:0:0:0:
200,172,5559,1,0,0:0:0:0:
192,224,5902,1,8,0:0:0:0:
192,172,5988,1,8,0:0:0:0:
196,192,6074,1,0,0:0:0:0:
208,184,6159,1,0,0:0:0:0:
208,160,6245,1,8,0:0:0:0:
152,200,6331,1,8,0:0:0:0:
204,184,6417,1,0,0:0:0:0:
220,176,6588,1,8,0:0:0:0:
308,216,6931,1,0,0:0:0:0:
304,208,7102,1,8,0:0:0:0:
304,208,7274,1,8,0:0:0:0:
264,232,7445,1,0,0:0:0:0:
264,232,7617,1,0,0:0:0:0:
260,252,7959,1,8,0:0:0:0:
280,256,8045,1,8,0:0:0:0:
272,240,8131,1,0,0:0:0:0:
272,240,8217,1,0,0:0:0:0:
268,236,8302,1,8,0:0:0:0:
264,168,8474,1,0,0:0:0:0:
308,208,8645,1,0,0:0:0:0:
328,200,8817,1,0,0:0:0:0:
176,244,8902,1,0,0:0:0:0:
232,268,8988,1,8,0:0:0:0:
248,264,9074,1,8,0:0:0:0:
240,288,9159,1,0,0:0:0:0:
276,264,9331,1,8,0:0:0:0:
272,260,9502,1,8,0:0:0:0:
304,256,9674,1,4,0:0:0:0:
200,316,9931,1,0,0:0:0:0:
344,220,10017,1,8,0:0:0:0:
252,120,10188,1,0,0:0:0:0:
200,264,10359,1,8,0:0:0:0:
252,120,10445,1,0,0:0:0:0:
252,120,10531,1,0,0:0:0:0:
252,120,10702,1,8,0:0:0:0:
200,188,10874,1,0,0:0:0:0:
256,216,10959,1,0,0:0:0:0:
224,252,11045,1,0,0:0:0:0:
260,204,11217,1,8,0:0:0:0:
236,156,11388,1,0,0:0:0:0:
344,188,11474,1,0,0:0:0:0:
272,216,11559,1,8,0:0:0:0:
256,192,11731,1,0,0:0:0:0:
216,188,11988,1,0,0:0:0:0:
176,200,12074,1,8,0:0:0:0:
260,312,12245,1,0,0:0:0:0:
256,268,12417,1,8,0:0:0:0:
256,272,12588,1,0,0:0:0:0:
256,260,12674,1,0,0:0:0:0:
200,200,12759,1,8,0:0:0:0:
192,200,12931,1,0,0:0:0:0:
212,192,13017,1,0,0:0:0:0:
200,180,13102,1,0,0:0:0:0:
212,192,13274,1,8,0:0:0:0:
160,200,13445,1,0,0:0:0:0:
176,176,13617,1,8,0:0:0:0:
176,176,13702,1,8,0:0:0:0:
176,176,13788,1,0,0:0:0:0:
180,156,14131,1,8,0:0:0:0:
172,280,14217,1,8,0:0:0:0:
172,232,14302,1,0,0:0:0:0:
168,256,14388,1,0,0:0:0:0:
192,272,14474,1,8,0:0:0:0:
168,252,14559,1,8,0:0:0:0:
188,264,14645,1,0,0:0:0:0:
228,252,14817,1,8,0:0:0:0:
260,168,14988,1,0,0:0:0:0:
260,168,15074,1,0,0:0:0:0:
260,168,15159,1,0,0:0:0:0:
264,160,15331,1,8,0:0:0:0:
268,164,15502,1,0,0:0:0:0:
156,208,15588,1,0,0:0:0:0:
156,208,15674,1,8,0:0:0:0:
156,208,15845,1,0,0:0:0:0:
260,296,16017,1,8,0:0:0:0:
232,304,16102,1,0,0:0:0:0:
232,264,16188,1,8,0:0:0:0:
228,256,16274,1,8,0:0:0:0:
220,208,16359,1,0,0:0:0:0:
220,192,16531,1,8,0:0:0:0:
204,136,16702,1,0,0:0:0:0:
204,136,16788,1,0,0:0:0:0:
204,136,16874,1,8,0:0:0:0:
204,136,16959,1,8,0:0:0:0:
204,136,17045,1,0,0:0:0:0:
236,220,17217,1,8,0:0:0:0:
260,220,17388,1,0,0:0:0:0:
292,208,17474,1,0,0:0:0:0:
288,208,17559,1,8,0:0:0:0:
288,176,17731,1,8,0:0:0:0:
284,148,17902,1,4,0:0:0:0:
264,180,18245,1,8,0:0:0:0:
280,240,18417,1,0,0:0:0:0:
240,256,18502,1,0,0:0:0:0:
280,240,18588,1,0,0:0:0:0:
264,284,18759,1,8,0:0:0:0:
264,264,18931,1,0,0:0:0:0:
264,260,19102,1,0,0:0:0:0:
168,204,19274,1,8,0:0:0:0:
204,216,19445,1,0,0:0:0:0:
216,224,19531,1,0,0:0:0:0:
216,228,19617,1,8,0:0:0:0:
216,208,19788,1,8,0:0:0:0:
216,208,19959,1,0,0:0:0:0:
212,256,20302,1,8,0:0:0:0:
212,256,20474,1,0,0:0:0:0:
208,304,20559,1,0,0:0:0:0:
212,300,20645,1,8,0:0:0:0:
240,288,20817,1,0,0:0:0:0:
268,292,20988,1,8,0:0:0:0:
228,260,21159,1,0,0:0:0:0:
240,272,21245,1,0,0:0:0:0:
204,156,21331,1,0,0:0:0:0:
204,156,21502,1,0,0:0:0:0:
196,192,21674,1,8,0:0:0:0:
256,184,22017,1,0,0:0:0:0:
256,184,22188,1,0,0:0:0:0:
256,184,22359,1,0,0:0:0:0:
256,184,22531,1,8,0:0:0:0:
256,236,22702,1,0,0:0:0:0:
256,236,22874,1,0,0:0:0:0:
240,220,23045,1,8,0:0:0:0:
176,244,23217,1,0,0:0:0:0:
168,244,23302,1,0,0:0:0:0:
176,244,23388,1,0,0:0:0:0:
168,196,23559,1,8,0:0:0:0:
168,196,23731,1,8,0:0:0:0:
168,196,23902,1,0,0:0:0:0:
292,200,24074,1,8,0:0:0:0:
292,200,24245,1,0,0:0:0:0:
292,200,24331,1,0,0:0:0:0:
260,216,24417,1,8,0:0:0:0:
232,216,24588,1,0,0:0:0:0:
228,220,24759,1,8,0:0:0:0:
140,176,24845,1,8,0:0:0:0:
140,176,24931,1,0,0:0:0:0:
212,252,25102,1,8,0:0:0:0:
248,312,25188,1,0,0:0:0:0:
248,288,25274,1,8,0:0:0:0:
248,280,25359,1,0,0:0:0:0:
248,248,25445,1,0,0:0:0:0:
172,272,25531,1,8,0:0:0:0:
168,260,25617,1,8,0:0:0:0:
248,240,25702,1,0,0:0:0:0:
168,232,25788,1,8,0:0:0:0:
168,232,25874,1,8,0:0:0:0:
168,220,25959,1,8,0:0:0:0:
168,220,26045,1,8,0:0:0:0:
168,220,26131,1,0,0:0:0:0:
248,200,26388,1,0,0:0:0:0:
264,168,26474,1,8,0:0:0:0:
248,188,26645,1,0,0:0:0:0:
272,228,26817,1,8,0:0:0:0:
200,128,26931,1,0,0:0:0:0:
168,100,27045,1,8,0:0:0:0:
168,100,27159,1,0,0:0:0:0:
248,284,27331,1,0,0:0:0:0:
296,236,27417,1,0,0:0:0:0:
232,296,27502,1,8,0:0:0:0:
232,296,27674,1,0,0:0:0:0:
236,312,27845,1,8,0:0:0:0:
236,312,28017,1,8,0:0:0:0:
276,272,28188,1,0,0:0:0:0:
296,260,28359,1,0,0:0:0:0:
280,240,28445,1,0,0:0:0:0:
248,256,28531,1,8,0:0:0:0:
296,328,28702,1,0,0:0:0:0:
240,244,28874,1,8,0:0:0:0:
236,148,29045,1,8,0:0:0:0:
196,300,29217,1,0,0:0:0:0:
284,296,29388,1,0,0:0:0:0:
360,216,29559,1,8,0:0:0:0:
140,208,29645,1,0,0:0:0:0:
140,208,29731,1,0,0:0:0:0:
304,188,29902,1,8,0:0:0:0:
304,188,30074,1,8,0:0:0:0:
336,192,30245,1,0,0:0:0:0:
244,104,30502,1,0,0:0:0:0:
248,128,30588,1,8,0:0:0:0:
256,120,30674,1,8,0:0:0:0:
252,116,30759,1,0,0:0:0:0:
248,96,30931,1,8,0:0:0:0:
216,144,31045,1,0,0:0:0:0:
240,133,31159,1,8,0:0:0:0:
239,119,31274,1,0,0:0:0:0:
290,167,31617,1,8,0:0:0:0:
299,146,31788,1,0,0:0:0:0:
312,149,31874,1,0,0:0:0:0:
310,142,31959,1,8,0:0:0:0:
308,139,32131,1,0,0:0:0:0:
308,139,32302,1,0,0:0:0:0:
309,137,32474,1,0,0:0:0:0:
255,151,32559,1,0,0:0:0:0:
309,136,32645,1,8,0:0:0:0:
255,151,32731,1,8,0:0:0:0:
254,175,32817,1,0,0:0:0:0:
254,174,32902,1,0,0:0:0:0:
254,172,32988,1,8,0:0:0:0:
156,284,33159,1,8,0:0:0:0:
162,270,33245,1,8,0:0:0:0:
165,263,33331,1,0,0:0:0:0:
202,221,33502,1,0,0:0:0:0:
260,150,33674,1,8,0:0:0:0:
348,284,33759,1,0,0:0:0:0:
348,284,33845,1,0,0:0:0:0:
348,284,33931,1,8,0:0:0:0:
266,146,34017,1,8,0:0:0:0:
266,146,34188,1,8,0:0:0:0:
328,246,34359,1,4,0:0:0:0:
304,167,34531,1,0,0:0:0:0:
313,158,34617,1,0,0:0:0:0:
200,264,34702,1,0,0:0:0:0:
184,248,34874,1,8,0:0:0:0:
258,139,35045,1,0,0:0:0:0:
258,135,35159,1,0,0:0:0:0:
258,130,35274,1,8,0:0:0:0:
258,130,35388,1,0,0:0:0:0:
188,150,35559,1,0,0:0:0:0:
319,246,35645,1,0,0:0:0:0:
194,142,35731,1,8,0:0:0:0:
264,248,35902,1,0,0:0:0:0:
254,229,36074,1,8,0:0:0:0:
277,233,36245,1,8,0:0:0:0:
180,196,36417,1,0,0:0:0:0:
212,136,36588,1,8,0:0:0:0:
232,124,36674,1,8,0:0:0:0:
220,128,36759,1,0,0:0:0:0:
224,252,36931,1,8,0:0:0:0:
296,96,37102,1,0,0:0:0:0:
256,144,37274,1,0,0:0:0:0:
288,264,37445,1,8,0:0:0:0:
288,208,37617,1,0,0:0:0:0:
288,184,37702,1,0,0:0:0:0:
272,216,37788,1,8,0:0:0:0:
184,252,37959,1,8,0:0:0:0:
324,168,38131,1,0,0:0:0:0:
304,76,38245,1,8,0:0:0:0:
260,44,38359,1,8,0:0:0:0:
260,44,38474,1,0,0:0:0:0:
224,168,38645,1,0,0:0:0:0:
256,124,38731,1,0,0:0:0:0:
280,168,38817,1,0,0:0:0:0:
280,168,38988,1,8,0:0:0:0:
260,204,39159,1,0,0:0:0:0:
168,144,39331,1,0,0:0:0:0:
244,248,39502,1,8,0:0:0:0:
236,192,39674,1,0,0:0:0:0:
240,224,39759,1,0,0:0:0:0:
220,204,39845,1,8,0:0:0:0:
220,208,40017,1,8,0:0:0:0:
324,192,40188,1,0,0:0:0:0:
316,168,40359,1,8,0:0:0:0:
312,160,40531,1,0,0:0:0:0:
164,80,40702,1,0,0:0:0:0:
164,80,40788,1,0,0:0:0:0:
164,80,40874,1,0,0:0:0:0:
164,80,40959,1,0,0:0:0:0:
164,80,41045,1,8,0:0:0:0:
360,240,41217,1,0,0:0:0:0:
360,224,41388,1,8,0:0:0:0:
364,184,41474,1,8,0:0:0:0:
200,272,41559,1,0,0:0:0:0:
240,240,41902,1,4,0:0:0:0:
256,228,42245,1,12,0:0:0:0:
308,144,42588,1,4,0:0:0:0:
256,256,42845,1,0,0:0:0:0:
208,280,42931,1,0,0:0:0:0:
208,256,43102,1,8,0:0:0:0:
224,272,43274,1,0,0:0:0:0:
224,268,43388,1,0,0:0:0:0:
220,264,43502,1,8,0:0:0:0:
216,256,43617,1,0,0:0:0:0:
224,252,43788,1,8,0:0:0:0:
224,252,43874,1,8,0:0:0:0:
224,252,43959,1,0,0:0:0:0:
276,260,44131,1,0,0:0:0:0:
272,252,44302,1,8,0:0:0:0:
260,256,44474,1,0,0:0:0:0:
260,256,44559,1,0,0:0:0:0:
224,284,44645,1,0,0:0:0:0:
224,284,44817,1,8,0:0:0:0:
224,284,44988,1,0,0:0:0:0:
160,212,45074,1,0,0:0:0:0:
160,212,45159,1,8,0:0:0:0:
156,208,45331,1,0,0:0:0:0:
316,304,45502,1,8,0:0:0:0:
196,328,45588,1,0,0:0:0:0:
192,320,45674,1,8,0:0:0:0:
196,268,45845,1,0,0:0:0:0:
196,268,46017,1,8,0:0:0:0:
196,268,46188,1,8,0:0:0:0:
196,268,46359,1,0,0:0:0:0:
196,268,46445,1,0,0:0:0:0:
196,268,46531,1,8,0:0:0:0:
252,128,46702,1,0,0:0:0:0:
268,120,46874,1,8,0:0:0:0:
268,120,46959,1,8,0:0:0:0:
360,244,47045,1,0,0:0:0:0:
324,232,47217,1,8,0:0:0:0:
400,248,47388,1,0,0:0:0:0:
316,88,47502,1,8,0:0:0:0:
316,88,47617,1,8,0:0:0:0:
316,88,47731,1,0,0:0:0:0:
420,196,47902,1,8,0:0:0:0:
320,196,47988,1,8,0:0:0:0:
340,240,48074,1,0,0:0:0:0:
364,216,48245,1,0,0:0:0:0:
216,100,48417,1,8,0:0:0:0:
340,136,48588,1,0,0:0:0:0:
312,176,48674,1,0,0:0:0:0:
340,136,48759,1,0,0:0:0:0:
352,172,48931,1,8,0:0:0:0:
352,172,49102,1,0,0:0:0:0:
352,172,49188,1,0,0:0:0:0:
376,176,49274,1,8,0:0:0:0:
344,128,49445,1,0,0:0:0:0:
344,128,49617,1,0,0:0:0:0:
372,136,49788,1,8,0:0:0:0:
396,136,49959,1,0,0:0:0:0:
392,132,50045,1,0,0:0:0:0:
384,124,50131,1,8,0:0:0:0:
384,124,50302,1,8,0:0:0:0:
220,128,50474,1,0,0:0:0:0:
224,128,50645,1,8,0:0:0:0:
272,264,50817,1,4,0:0:0:0:
368,244,51074,1,0,0:0:0:0:
392,252,51159,1,0,0:0:0:0:
328,280,51331,1,8,0:0:0:0:
248,176,51502,1,0,0:0:0:0:
212,228,51617,1,0,0:0:0:0:
248,176,51731,1,8,0:0:0:0:
284,152,51845,1,0,0:0:0:0:
376,172,52017,1,8,0:0:0:0:
376,172,52102,1,8,0:0:0:0:
344,168,52188,1,0,0:0:0:0:
392,160,52359,1,0,0:0:0:0:
404,152,52531,1,8,0:0:0:0:
412,144,52702,1,0,0:0:0:0:
400,144,52788,1,0,0:0:0:0:
412,144,52874,1,0,0:0:0:0:
368,180,53045,1,8,0:0:0:0:
348,172,53217,1,0,0:0:0:0:
284,168,53302,1,0,0:0:0:0:
240,164,53388,1,8,0:0:0:0:
256,172,53559,1,0,0:0:0:0:
316,164,53731,1,8,0:0:0:0:
192,144,53817,1,0,0:0:0:0:
192,144,53902,1,8,0:0:0:0:
336,192,54074,1,0,0:0:0:0:
328,208,54159,1,0,0:0:0:0:
408,160,54245,1,8,0:0:0:0:
376,196,54417,1,8,0:0:0:0:
352,248,54588,1,0,0:0:0:0:
340,108,54702,1,0,0:0:0:0:
340,108,54817,1,8,0:0:0:0:
340,108,54931,1,8,0:0:0:0:
380,228,55102,1,0,0:0:0:0:
380,228,55188,1,0,0:0:0:0:
304,220,55274,1,0,0:0:0:0:
288,152,55445,1,8,0:0:0:0:
328,168,55617,1,0,0:0:0:0:
328,168,55788,1,0,0:0:0:0:
312,176,55959,1,8,0:0:0:0:
336,176,56045,1,0,0:0:0:0:
352,208,56131,1,0,0:0:0:0:
336,176,56302,1,8,0:0:0:0:
268,192,56474,1,0,0:0:0:0:
240,232,56559,1,0,0:0:0:0:
312,208,56645,1,8,0:0:0:0:
312,208,56817,1,0,0:0:0:0:
348,196,56988,1,8,0:0:0:0:
348,196,57074,1,8,0:0:0:0:
300,248,57159,1,0,0:0:0:0:
332,192,57331,1,8,0:0:0:0:
376,192,57502,1,8,0:0:0:0:
368,204,57674,1,0,0:0:0:0:
368,204,57845,1,8,0:0:0:0:
372,192,57931,1,8,0:0:0:0:
328,228,58017,1,0,0:0:0:0:
360,192,58359,1,0,0:0:0:0:
380,156,58702,1,8,0:0:0:0:
380,156,58874,1,8,0:0:0:0:
396,152,59045,1,4,0:0:0:0:
428,148,59388,1,8,0:0:0:0:
408,148,59559,1,4,0:0:0:0:
408,128,59902,1,0,0:0:0:0:
360,160,60074,1,12,0:0:0:0:
312,180,60245,1,0,0:0:0:0:
328,184,60417,1,0,0:0:0:0:
388,168,60588,1,8,0:0:0:0:
324,144,60759,1,8,0:0:0:0:
384,156,60931,1,0,0:0:0:0:
132,160,61102,1,12,0:0:0:0:
408,216,61445,1,0,0:0:0:0:
376,224,61617,1,0,0:0:0:0:
396,228,61788,1,8,0:0:0:0:
400,216,61874,1,8,0:0:0:0:
396,228,61959,1,0,0:0:0:0:
412,208,62131,1,8,0:0:0:0:
352,184,62302,1,0,0:0:0:0:
352,188,62388,1,0,0:0:0:0:
352,184,62474,1,0,0:0:0:0:
352,188,62645,1,8,0:0:0:0:
352,188,62731,1,8,0:0:0:0:
356,196,62817,1,0,0:0:0:0:
348,196,62902,1,8,0:0:0:0:
344,192,62988,1,0,0:0:0:0:
352,188,63159,1,12,0:0:0:0:
168,136,63502,1,8,0:0:0:0:
100,128,63674,1,4,0:0:0:0:
400,280,64017,1,0,0:0:0:0:
364,240,64188,1,12,0:0:0:0:
436,248,64359,1,8,0:0:0:0:
436,248,64531,1,0,0:0:0:0:
276,132,64702,1,8,0:0:0:0:
288,240,64874,1,0,0:0:0:0:
340,244,64959,1,8,0:0:0:0:
368,252,65045,1,8,0:0:0:0:
368,252,65131,1,8,0:0:0:0:
276,144,65217,1,0,0:0:0:0:
344,176,65388,1,8,0:0:0:0:
304,176,65474,1,8,0:0:0:0:
320,200,65559,1,0,0:0:0:0:
316,176,65731,1,8,0:0:0:0:
308,152,65902,1,0,0:0:0:0:
324,160,65988,1,8,0:0:0:0:
304,168,66074,1,8,0:0:0:0:
296,164,66159,1,0,0:0:0:0:
296,164,66245,1,0,0:0:0:0:
336,168,66417,1,0,0:0:0:0:
344,172,66502,1,0,0:0:0:0:
332,168,66588,1,8,0:0:0:0:
352,176,66759,1,0,0:0:0:0:
364,176,66931,1,8,0:0:0:0:
368,176,67102,1,8,0:0:0:0:
376,172,67274,1,4,0:0:0:0:
276,144,67788,1,0,0:0:0:0:
340,216,68302,1,12,0:0:0:0:
384,148,68474,1,0,0:0:0:0:
384,148,68645,1,0,0:0:0:0:
424,148,68817,1,8,0:0:0:0:
424,148,68988,1,8,0:0:0:0:
424,148,69159,1,0,0:0:0:0:
220,136,69331,1,12,0:0:0:0:
348,176,69845,1,0,0:0:0:0:
348,176,70017,1,8,0:0:0:0:
376,164,70359,1,12,0:0:0:0:
380,164,70531,1,0,0:0:0:0:
380,164,70702,1,0,0:0:0:0:
380,176,70874,1,8,0:0:0:0:
352,140,71388,1,4,0:0:0:0:
320,144,71731,1,8,0:0:0:0:
368,160,72074,1,0,0:0:0:0:
344,164,72245,1,0,0:0:0:0:
368,160,72417,1,12,0:0:0:0:
332,160,72759,1,0,0:0:0:0:
392,208,72931,1,0,0:0:0:0:
248,132,73445,1,4,0:0:0:0:
408,236,73788,1,8,0:0:0:0:
352,156,73959,1,0,0:0:0:0:
352,156,74131,1,8,0:0:0:0:
360,168,74474,1,0,0:0:0:0:
360,172,74645,1,0,0:0:0:0:
376,176,74817,1,8,0:0:0:0:
376,176,74988,1,0,0:0:0:0:
376,176,75159,1,8,0:0:0:0:
208,136,75245,1,8,0:0:0:0:
212,136,75331,1,8,0:0:0:0:
216,144,75417,1,8,0:0:0:0:
216,144,75502,1,0,0:0:0:0:
404,248,75674,1,0,0:0:0:0:
404,248,75845,1,8,0:0:0:0:
332,180,76017,1,8,0:0:0:0:
376,108,76074,1,8,0:0:0:0:
376,108,76131,1,8,0:0:0:0:
376,108,76188,1,0,0:0:0:0:
376,108,76359,1,0,0:0:0:0:
376,108,76417,1,8,0:0:0:0:
376,108,76474,1,8,0:0:0:0:
376,108,76531,1,0,0:0:0:0:
388,168,76702,1,0,0:0:0:0:
388,168,76788,1,0,0:0:0:0:
396,192,76874,1,8,0:0:0:0:
404,152,77045,1,0,0:0:0:0:
420,152,77217,1,8,0:0:0:0:
464,148,77559,1,4,0:0:0:0:
344,184,77731,1,8,0:0:0:0:
312,184,77817,1,8,0:0:0:0:
312,184,77902,1,0,0:0:0:0:
340,224,78074,1,0,0:0:0:0:
340,224,78159,1,0,0:0:0:0:
336,224,78245,1,8,0:0:0:0:
344,224,78417,1,0,0:0:0:0:
400,228,78588,1,8,0:0:0:0:
232,160,78674,1,8,0:0:0:0:
352,240,78759,1,0,0:0:0:0:
164,124,78845,1,0,0:0:0:0:
356,236,78931,1,8,0:0:0:0:
364,240,79102,1,0,0:0:0:0:
196,128,79274,1,8,0:0:0:0:
440,304,79445,1,8,0:0:0:0:
384,220,79617,1,0,0:0:0:0:
368,216,79702,1,0,0:0:0:0:
384,220,79788,1,0,0:0:0:0:
368,216,79959,1,8,0:0:0:0:
356,212,80131,1,0,0:0:0:0:
360,208,80217,1,0,0:0:0:0:
340,200,80302,1,8,0:0:0:0:
320,200,80474,1,8,0:0:0:0:
244,236,80645,1,0,0:0:0:0:
280,172,80817,1,0,0:0:0:0:
232,184,80902,1,0,0:0:0:0:
280,172,80988,1,8,0:0:0:0:
312,184,81074,1,8,0:0:0:0:
236,172,81159,1,0,0:0:0:0:
236,172,81331,1,8,0:0:0:0:
300,104,81445,1,0,0:0:0:0:
300,104,81559,1,0,0:0:0:0:
300,104,81674,1,8,0:0:0:0:
300,188,81845,1,0,0:0:0:0:
288,184,81931,1,0,0:0:0:0:
272,280,82017,1,8,0:0:0:0:
272,280,82188,1,8,0:0:0:0:
320,264,82359,1,0,0:0:0:0:
276,188,82445,1,0,0:0:0:0:
272,192,82531,1,0,0:0:0:0:
320,264,82702,1,8,0:0:0:0:
312,200,82874,1,8,0:0:0:0:
200,112,83045,1,0,0:0:0:0:
212,128,83217,1,8,0:0:0:0:
216,124,83274,1,8,0:0:0:0:
220,120,83331,1,8,0:0:0:0:
220,120,83388,1,0,0:0:0:0:
220,120,83559,1,0,0:0:0:0:
220,120,83617,1,8,0:0:0:0:
220,120,83674,1,8,0:0:0:0:
220,120,83731,1,0,0:0:0:0:
324,204,83902,1,8,0:0:0:0:
304,216,83988,1,8,0:0:0:0:
372,224,84074,1,8,0:0:0:0:
348,248,84245,1,0,0:0:0:0:
400,248,84417,1,8,0:0:0:0:
416,240,84588,1,8,0:0:0:0:
408,248,84759,1,0,0:0:0:0:
384,264,84931,1,0,0:0:0:0:
244,196,85017,1,0,0:0:0:0:
288,200,85102,1,8,0:0:0:0:
360,200,85274,1,8,0:0:0:0:
352,204,85445,1,0,0:0:0:0:
204,88,85559,1,8,0:0:0:0:
204,88,85674,1,0,0:0:0:0:
240,120,85788,1,0,0:0:0:0:
364,212,86131,1,8,0:0:0:0:
408,212,86302,1,0,0:0:0:0:
408,212,86388,1,0,0:0:0:0:
396,208,86474,1,0,0:0:0:0:
392,212,86645,1,8,0:0:0:0:
408,204,86817,1,0,0:0:0:0:
376,204,86902,1,0,0:0:0:0:
376,204,86988,1,8,0:0:0:0:
384,204,87074,1,0,0:0:0:0:
388,204,87159,1,8,0:0:0:0:
396,208,87331,1,8,0:0:0:0:
424,216,87502,1,0,0:0:0:0:
424,216,87674,1,8,0:0:0:0:
348,208,87759,1,8,0:0:0:0:
348,204,87845,1,0,0:0:0:0:
348,204,88017,1,8,0:0:0:0:
364,212,88188,1,0,0:0:0:0:
368,216,88274,1,0,0:0:0:0:
368,212,88359,1,0,0:0:0:0:
368,212,88531,1,8,0:0:0:0:
368,208,88702,1,8,0:0:0:0:
368,208,88874,1,0,0:0:0:0:
372,216,89045,1,0,0:0:0:0:
364,212,89131,1,0,0:0:0:0:
352,208,89217,1,8,0:0:0:0:
284,240,89388,1,8,0:0:0:0:
276,256,89559,1,0,0:0:0:0:
268,104,89674,1,0,0:0:0:0:
284,96,89788,1,8,0:0:0:0:
300,124,89902,1,0,0:0:0:0:
164,116,90245,1,8,0:0:0:0:
264,132,90417,1,0,0:0:0:0:
268,128,90502,1,0,0:0:0:0:
268,128,90588,1,0,0:0:0:0:
272,128,90759,1,8,0:0:0:0:
464,212,90931,1,0,0:0:0:0:
368,192,91017,1,0,0:0:0:0:
368,192,91102,1,8,0:0:0:0:
332,220,91274,1,0,0:0:0:0:
332,220,91445,1,8,0:0:0:0:
332,220,91531,1,8,0:0:0:0:
340,216,91617,1,0,0:0:0:0:
296,224,91702,1,0,0:0:0:0:
304,224,91788,1,8,0:0:0:0:
344,212,91959,1,0,0:0:0:0:
344,212,92131,1,8,0:0:0:0:
368,224,92302,1,0,0:0:0:0:
368,224,92474,1,8,0:0:0:0:
408,240,92645,1,0,0:0:0:0:
448,248,92759,1,8,0:0:0:0:
364,208,92874,1,0,0:0:0:0:
396,208,92988,1,8,0:0:0:0:
356,200,93102,1,0,0:0:0:0:
356,200,93217,1,0,0:0:0:0:
400,200,93331,1,8,0:0:0:0:
336,184,93417,1,8,0:0:0:0:
336,184,93502,1,0,0:0:0:0:
436,128,93588,1,0,0:0:0:0:
436,128,93674,1,8,0:0:0:0:
336,108,94017,1,4,0:0:0:0:
368,176,94188,1,8,0:0:0:0:
368,176,94274,1,8,0:0:0:0:
336,184,94359,1,0,0:0:0:0:
324,180,94531,1,0,0:0:0:0:
192,164,94617,1,0,0:0:0:0:
248,164,94702,1,8,0:0:0:0:
328,264,94874,1,0,0:0:0:0:
332,252,95045,1,8,0:0:0:0:
336,248,95131,1,8,0:0:0:0:
328,244,95217,1,0,0:0:0:0:
312,236,95302,1,0,0:0:0:0:
300,232,95388,1,8,0:0:0:0:
352,236,95559,1,0,0:0:0:0:
412,232,95645,1,0,0:0:0:0:
364,232,95731,1,8,0:0:0:0:
364,232,95902,1,8,0:0:0:0:
372,240,96074,1,0,0:0:0:0:
384,236,96159,1,0,0:0:0:0:
384,236,96245,1,0,0:0:0:0:
372,228,96417,1,8,0:0:0:0:
404,220,96588,1,0,0:0:0:0:
328,192,96674,1,0,0:0:0:0:
328,192,96759,1,8,0:0:0:0:
320,208,96845,1,8,0:0:0:0:
332,204,96931,1,0,0:0:0:0:
336,204,97102,1,8,0:0:0:0:
372,196,97274,1,0,0:0:0:0:
372,196,97359,1,0,0:0:0:0:
308,284,97445,1,8,0:0:0:0:
364,204,97617,1,0,0:0:0:0:
416,228,97788,1,8,0:0:0:0:
380,120,97902,1,0,0:0:0:0:
380,120,98017,1,0,0:0:0:0:
380,120,98131,1,8,0:0:0:0:
308,240,98302,1,0,0:0:0:0:
224,132,98388,1,0,0:0:0:0:
280,196,98474,1,8,0:0:0:0:
264,192,98645,1,8,0:0:0:0:
216,96,98817,1,0,0:0:0:0:
216,96,98902,1,0,0:0:0:0:
216,96,98988,1,0,0:0:0:0:
360,104,99159,1,8,0:0:0:0:
248,192,99331,1,8,0:0:0:0:
376,244,99502,1,0,0:0:0:0:
436,188,99674,1,8,0:0:0:0:
320,128,99731,1,8,0:0:0:0:
320,128,99788,1,8,0:0:0:0:
320,128,99845,1,0,0:0:0:0:
320,128,100017,1,0,0:0:0:0:
320,128,100074,1,8,0:0:0:0:
320,128,100131,1,8,0:0:0:0:
320,128,100188,1,0,0:0:0:0:
396,224,100359,1,8,0:0:0:0:
396,224,100445,1,8,0:0:0:0:
280,192,100531,1,8,0:0:0:0:
336,192,100702,1,0,0:0:0:0:
248,200,100874,1,8,0:0:0:0:
248,200,101045,1,8,0:0:0:0:
336,216,101217,1,0,0:0:0:0:
308,292,101388,1,0,0:0:0:0:
236,272,101474,1,0,0:0:0:0:
240,264,101559,1,8,0:0:0:0:
240,264,101731,1,8,0:0:0:0:
312,300,101902,1,0,0:0:0:0:
320,176,102017,1,8,0:0:0:0:
324,180,102131,1,8,0:0:0:0:
312,176,102245,1,0,0:0:0:0:
408,240,102588,1,8,0:0:0:0:
408,240,102759,1,0,0:0:0:0:
380,236,102845,1,0,0:0:0:0:
368,232,102931,1,8,0:0:0:0:
368,232,103102,1,0,0:0:0:0:
380,236,103274,1,8,0:0:0:0:
380,236,103359,1,8,0:0:0:0:
376,232,103445,1,0,0:0:0:0:
376,232,103531,1,0,0:0:0:0:
360,228,103617,1,8,0:0:0:0:
364,232,103788,1,8,0:0:0:0:
404,220,103959,1,0,0:0:0:0:
360,276,104131,1,8,0:0:0:0:
392,240,104217,1,8,0:0:0:0:
304,224,104302,1,0,0:0:0:0:
304,224,104474,1,0,0:0:0:0:
316,228,104559,1,0,0:0:0:0:
308,220,104645,1,8,0:0:0:0:
348,216,104817,1,8,0:0:0:0:
380,212,104988,1,0,0:0:0:0:
380,212,105074,1,0,0:0:0:0:
380,212,105159,1,0,0:0:0:0:
460,224,105331,1,8,0:0:0:0:
460,224,105502,1,0,0:0:0:0:
460,224,105674,1,8,0:0:0:0:
352,192,105759,1,8,0:0:0:0:
260,192,105845,1,8,0:0:0:0:
300,224,106017,1,0,0:0:0:0:
304,128,106131,1,8,0:0:0:0:
304,128,106245,1,8,0:0:0:0:
312,168,106359,1,0,0:0:0:0:
276,184,106531,1,0,0:0:0:0:
348,176,106617,1,0,0:0:0:0:
252,160,106702,1,8,0:0:0:0:
252,160,106874,1,0,0:0:0:0:
296,172,107045,1,8,0:0:0:0:
232,192,107131,1,0,0:0:0:0:
296,172,107217,1,8,0:0:0:0:
292,184,107388,1,0,0:0:0:0:
300,168,107559,1,8,0:0:0:0:
244,180,107645,1,8,0:0:0:0:
300,168,107731,1,8,0:0:0:0:
336,252,107902,1,0,0:0:0:0:
376,232,108074,1,8,0:0:0:0:
328,240,108159,1,8,0:0:0:0:
296,228,108245,1,0,0:0:0:0:
224,220,108331,1,8,0:0:0:0:
260,232,108417,1,0,0:0:0:0:
396,208,108588,1,0,0:0:0:0:
392,200,108674,1,0,0:0:0:0:
392,252,108759,1,8,0:0:0:0:
336,224,108931,1,8,0:0:0:0:
372,212,109102,1,0,0:0:0:0:
352,220,109188,1,0,0:0:0:0:
372,212,109274,1,0,0:0:0:0:
376,216,109445,1,8,0:0:0:0:
376,216,109531,1,8,0:0:0:0:
368,220,109617,1,0,0:0:0:0:
360,216,109702,1,0,0:0:0:0:
344,208,109788,1,8,0:0:0:0:
344,208,109959,1,0,0:0:0:0:
360,208,110131,1,8,0:0:0:0:
320,204,110217,1,8,0:0:0:0:
360,208,110302,1,8,0:0:0:0:
352,192,110474,1,4,0:0:0:0:
392,200,110817,1,8,0:0:0:0:
392,200,110988,1,0,0:0:0:0:
392,200,111159,1,8,0:0:0:0:
392,200,111331,1,0,0:0:0:0:
392,200,111502,1,8,0:0:0:0:
364,224,111674,1,0,0:0:0:0:
364,224,111845,1,8,0:0:0:0:
372,244,112017,1,0,0:0:0:0:
372,244,112188,1,8,0:0:0:0:
372,244,112359,1,0,0:0:0:0:
352,232,112531,1,8,0:0:0:0:
352,232,112702,1,0,0:0:0:0:
316,220,112874,1,8,0:0:0:0:
316,220,113045,1,0,0:0:0:0:
332,236,113217,1,8,0:0:0:0:
332,236,113388,1,0,0:0:0:0:
316,232,113559,1,8,0:0:0:0:
316,232,113731,1,0,0:0:0:0:
240,204,113902,1,8,0:0:0:0:
180,196,114074,1,0,0:0:0:0:
288,248,114245,1,8,0:0:0:0:
288,224,114417,1,0,0:0:0:0:
292,224,114588,1,8,0:0:0:0:
256,192,114759,12,0,117331,0:0:0:0:
