osu file format v14

[General]
AudioFilename: audio.mp3
AudioLeadIn: 0
PreviewTime: 76831
Countdown: 0
SampleSet: Normal
StackLeniency: 0.7
Mode: 1
LetterboxInBreaks: 0
WidescreenStoryboard: 1

[Editor]
DistanceSpacing: 1.7
BeatDivisor: 4
GridSize: 4
TimelineZoom: 2.3

[Metadata]
Title:Following Flow
TitleUnicode:Following Flow
Artist:Nekomata Master
ArtistUnicode:猫叉Master
Creator:Chromoxx
Version:Futsuu
Source:REFLEC BEAT colette -Spring-
Tags:rb naoyuki sato plus
BeatmapID:1272794
BeatmapSetID:586462

[Difficulty]
HPDrainRate:7
CircleSize:5
OverallDifficulty:4.5
ApproachRate:5
SliderMultiplier:1.4
SliderTickRate:1

[Events]
//Background and Video events
0,0,"bg.jpg",0,100
//Break Periods
//Storyboard Layer 0 (Background)
//Storyboard Layer 1 (Fail)
//Storyboard Layer 2 (Pass)
//Storyboard Layer 3 (Foreground)
//Storyboard Sound Samples

[TimingPoints]
417,342.857142857143,3,1,0,50,1,0
9588,-100,3,1,0,60,0,0
18074,-100,3,1,0,65,0,0
21845,-100,3,1,0,60,0,0
25017,-100,3,1,0,65,0,0
26302,-100,3,1,0,70,0,0
42588,-100,3,1,0,80,0,0
67445,-100,3,1,0,70,0,0
75588,-100,3,1,0,60,0,0
77559,-100,3,1,0,90,0,1
110474,-100,3,1,0,90,0,0
110645,-100,3,1,0,52,0,0
110902,-100,3,1,0,50,0,0
111074,-100,3,1,0,48,0,0
111245,-100,3,1,0,46,0,0
111417,-100,3,1,0,44,0,0
111588,-100,3,1,0,42,0,0
111759,-100,3,1,0,40,0,0
111931,-100,3,1,0,38,0,0
112102,-100,3,1,0,36,0,0
112274,-100,3,1,0,34,0,0
112445,-100,3,1,0,32,0,0
112617,-100,3,1,0,30,0,0
112788,-100,3,1,0,28,0,0
112959,-100,3,1,0,26,0,0
113131,-100,3,1,0,24,0,0
113302,-100,3,1,0,22,0,0
113474,-100,3,1,0,20,0,0
113645,-100,3,1,0,18,0,0
113817,-100,3,1,0,16,0,0
113988,-100,3,1,0,14,0,0
114159,-100,3,1,0,12,0,0
114331,-100,3,1,0,10,0,0
114502,-100,3,1,0,8,0,0

[HitObjects]
298,232,1102,5,0,0:0:0:0:
301,219,1445,1,8,0:0:0:0:
325,227,1959,1,0,0:0:0:0:
288,209,2302,1,8,0:0:0:0:
288,209,2474,1,8,0:0:0:0:
309,215,2988,1,8,0:0:0:0:
309,215,3502,1,0,0:0:0:0:
318,235,4531,1,8,0:0:0:0:
318,235,5045,1,8,0:0:0:0:
318,235,5559,1,0,0:0:0:0:
281,211,5902,1,8,0:0:0:0:
281,211,6074,1,0,0:0:0:0:
281,211,6245,1,0,0:0:0:0:
281,211,6588,1,8,0:0:0:0:
265,228,7617,1,0,0:0:0:0:
265,235,7959,1,8,0:0:0:0:
265,235,8131,1,0,0:0:0:0:
168,224,8302,1,8,0:0:0:0:
168,224,8645,1,0,0:0:0:0:
310,218,9674,1,12,0:0:0:0:
320,232,10017,1,0,0:0:0:0:
320,232,10359,1,0,0:0:0:0:
320,232,10702,1,8,0:0:0:0:
291,231,11045,1,0,0:0:0:0:
291,231,11217,1,8,0:0:0:0:
250,203,11388,1,0,0:0:0:0:
291,231,11731,1,8,0:0:0:0:
325,211,12417,1,0,0:0:0:0:
325,211,12759,1,8,0:0:0:0:
355,240,13102,1,0,0:0:0:0:
355,240,13274,1,8,0:0:0:0:
341,242,13445,1,8,0:0:0:0:
341,242,13788,1,0,0:0:0:0:
315,188,14131,1,8,0:0:0:0:
315,188,14302,1,0,0:0:0:0:
315,188,14474,1,0,0:0:0:0:
359,232,14817,1,8,0:0:0:0:
323,237,15331,1,8,0:0:0:0:
346,226,15845,1,0,0:0:0:0:
346,226,16017,1,8,0:0:0:0:
228,207,16188,1,0,0:0:0:0:
228,207,16531,1,0,0:0:0:0:
228,207,16874,1,8,0:0:0:0:
228,207,17217,1,0,0:0:0:0:
247,211,17388,1,8,0:0:0:0:
225,157,17559,1,8,0:0:0:0:
225,157,17902,1,4,0:0:0:0:
319,185,18931,1,0,0:0:0:0:
347,242,19445,1,8,0:0:0:0:
347,242,19959,1,0,0:0:0:0:
263,137,20988,1,8,0:0:0:0:
263,137,22017,1,0,0:0:0:0:
263,137,22359,1,0,0:0:0:0:
263,137,22702,1,0,0:0:0:0:
263,137,23045,1,8,0:0:0:0:
263,137,23388,1,0,0:0:0:0:
261,152,24074,1,8,0:0:0:0:
261,152,24417,1,8,0:0:0:0:
362,262,24588,1,8,0:0:0:0:
261,152,24759,1,0,0:0:0:0:
104,200,25102,2,0,L|167:192,10,35
321,281,26131,1,4,0:0:0:0:
225,260,27159,1,0,0:0:0:0:
184,309,27502,1,0,0:0:0:0:
298,254,27845,1,8,0:0:0:0:
317,246,28188,1,0,0:0:0:0:
291,188,28531,1,8,0:0:0:0:
20,253,28874,1,8,0:0:0:0:
229,267,29217,1,0,0:0:0:0:
229,267,29559,1,0,0:0:0:0:
229,267,29902,1,8,0:0:0:0:
229,267,30245,1,0,0:0:0:0:
192,194,31274,1,8,0:0:0:0:
284,224,32302,1,0,0:0:0:0:
291,262,32645,1,8,0:0:0:0:
335,262,32817,1,0,0:0:0:0:
335,262,32988,1,8,0:0:0:0:
332,268,33331,1,0,0:0:0:0:
332,268,33674,1,8,0:0:0:0:
332,268,34017,1,8,0:0:0:0:
388,257,34359,1,4,0:0:0:0:
274,228,35388,1,0,0:0:0:0:
274,228,35731,1,8,0:0:0:0:
316,202,36074,1,8,0:0:0:0:
316,202,36417,1,0,0:0:0:0:
316,202,36759,1,8,0:0:0:0:
316,202,36931,1,8,0:0:0:0:
304,183,37102,1,0,0:0:0:0:
304,183,37445,1,8,0:0:0:0:
305,182,37788,1,8,0:0:0:0:
304,183,38131,1,0,0:0:0:0:
304,183,38474,1,8,0:0:0:0:
275,249,39502,1,0,0:0:0:0:
275,249,40531,1,8,0:0:0:0:
345,247,40874,1,0,0:0:0:0:
345,247,41045,1,8,0:0:0:0:
345,247,41217,1,0,0:0:0:0:
345,247,41559,1,8,0:0:0:0:
407,230,41902,1,4,0:0:0:0:
407,230,42245,1,4,0:0:0:0:
407,230,42588,1,12,0:0:0:0:
272,185,43617,1,0,0:0:0:0:
256,244,43959,1,0,0:0:0:0:
272,185,44302,1,8,0:0:0:0:
272,185,44645,1,0,0:0:0:0:
284,223,44817,1,0,0:0:0:0:
256,244,44988,1,8,0:0:0:0:
256,244,45331,1,0,0:0:0:0:
265,146,45502,1,8,0:0:0:0:
265,146,45674,1,0,0:0:0:0:
341,240,46017,1,8,0:0:0:0:
277,237,46359,1,0,0:0:0:0:
277,237,46702,1,8,0:0:0:0:
293,330,47731,1,0,0:0:0:0:
247,209,48759,1,8,0:0:0:0:
270,262,49102,1,0,0:0:0:0:
270,262,49274,1,8,0:0:0:0:
171,209,49445,1,8,0:0:0:0:
184,206,49788,1,0,0:0:0:0:
238,224,50131,1,8,0:0:0:0:
159,213,50302,1,8,0:0:0:0:
159,213,50474,1,0,0:0:0:0:
270,262,50817,1,8,0:0:0:0:
317,214,51845,1,0,0:0:0:0:
317,214,52188,1,8,0:0:0:0:
317,214,52531,1,8,0:0:0:0:
308,210,52874,1,0,0:0:0:0:
308,210,53217,1,8,0:0:0:0:
308,210,53388,1,8,0:0:0:0:
308,210,53559,1,0,0:0:0:0:
316,207,53902,1,8,0:0:0:0:
316,207,54245,1,0,0:0:0:0:
247,208,54417,1,8,0:0:0:0:
240,197,54588,1,0,0:0:0:0:
240,197,54931,1,8,0:0:0:0:
240,197,55959,1,0,0:0:0:0:
352,178,56988,1,8,0:0:0:0:
308,234,57331,1,0,0:0:0:0:
308,234,57674,1,0,0:0:0:0:
308,234,57845,1,8,0:0:0:0:
258,212,58017,1,0,0:0:0:0:
258,212,58359,1,0,0:0:0:0:
253,202,58702,1,8,0:0:0:0:
253,202,58874,1,8,0:0:0:0:
244,194,59045,1,4,0:0:0:0:
268,196,59559,1,0,0:0:0:0:
347,213,60074,1,8,0:0:0:0:
307,208,60588,1,0,0:0:0:0:
307,208,61102,1,8,0:0:0:0:
307,208,62131,1,0,0:0:0:0:
307,208,63159,1,12,0:0:0:0:
271,233,63674,1,0,0:0:0:0:
271,233,64188,1,8,0:0:0:0:
271,233,64702,1,8,0:0:0:0:
273,179,65217,1,0,0:0:0:0:
240,261,66245,1,8,0:0:0:0:
228,237,66759,1,8,0:0:0:0:
318,225,67274,1,4,0:0:0:0:
288,232,68302,1,8,0:0:0:0:
290,237,68817,1,0,0:0:0:0:
272,236,69331,1,8,0:0:0:0:
280,237,70359,1,8,0:0:0:0:
280,237,71388,1,4,0:0:0:0:
280,237,72417,1,8,0:0:0:0:
280,237,73445,1,0,0:0:0:0:
280,237,73788,1,8,0:0:0:0:
280,237,74131,1,8,0:0:0:0:
280,237,74474,1,0,0:0:0:0:
322,305,74817,1,8,0:0:0:0:
322,305,74988,1,0,0:0:0:0:
322,305,75159,1,8,0:0:0:0:
297,178,75502,1,0,0:0:0:0:
279,178,76874,1,8,0:0:0:0:
279,178,77217,1,8,0:0:0:0:
279,178,77559,1,4,0:0:0:0:
280,194,77902,1,8,0:0:0:0:
280,194,78074,1,0,0:0:0:0:
282,173,78245,1,8,0:0:0:0:
307,220,78588,1,0,0:0:0:0:
282,173,78931,1,0,0:0:0:0:
282,173,79274,1,8,0:0:0:0:
291,282,79445,1,8,0:0:0:0:
282,173,79617,1,0,0:0:0:0:
282,173,79959,1,0,0:0:0:0:
282,173,80302,1,8,0:0:0:0:
282,173,80645,1,0,0:0:0:0:
292,278,81674,1,8,0:0:0:0:
272,265,82359,1,0,0:0:0:0:
272,265,82702,1,8,0:0:0:0:
272,265,83045,1,0,0:0:0:0:
272,265,83217,1,8,0:0:0:0:
272,265,83388,1,8,0:0:0:0:
272,265,83731,1,0,0:0:0:0:
346,219,84074,1,8,0:0:0:0:
272,265,84417,1,0,0:0:0:0:
369,224,84588,1,0,0:0:0:0:
344,278,84759,1,0,0:0:0:0:
272,265,85102,1,8,0:0:0:0:
272,265,85788,1,0,0:0:0:0:
224,181,86474,1,0,0:0:0:0:
270,250,86817,1,8,0:0:0:0:
245,250,87159,1,8,0:0:0:0:
248,256,87502,1,0,0:0:0:0:
282,238,87845,1,8,0:0:0:0:
295,239,88531,1,0,0:0:0:0:
331,195,88702,1,0,0:0:0:0:
295,239,88874,1,0,0:0:0:0:
295,239,89217,1,8,0:0:0:0:
295,239,89559,1,0,0:0:0:0:
295,239,89902,1,0,0:0:0:0:
295,239,90931,1,8,0:0:0:0:
295,239,91959,1,0,0:0:0:0:
295,239,92302,1,8,0:0:0:0:
283,243,92474,1,8,0:0:0:0:
274,242,92645,1,0,0:0:0:0:
272,240,92988,1,8,0:0:0:0:
272,240,93159,1,0,0:0:0:0:
210,187,93331,1,8,0:0:0:0:
232,176,93674,1,8,0:0:0:0:
189,193,94017,1,4,0:0:0:0:
280,194,94359,1,8,0:0:0:0:
280,194,94531,1,0,0:0:0:0:
282,173,94702,1,8,0:0:0:0:
307,220,95045,1,0,0:0:0:0:
282,173,95388,1,0,0:0:0:0:
282,173,95731,1,8,0:0:0:0:
291,282,95902,1,8,0:0:0:0:
282,173,96074,1,0,0:0:0:0:
282,173,96416,1,0,0:0:0:0:
282,173,96759,1,8,0:0:0:0:
282,173,97102,1,0,0:0:0:0:
292,278,98131,1,8,0:0:0:0:
272,265,98816,1,0,0:0:0:0:
272,265,99159,1,8,0:0:0:0:
272,265,99502,1,0,0:0:0:0:
272,265,99674,1,8,0:0:0:0:
272,265,99845,1,8,0:0:0:0:
272,265,100188,1,0,0:0:0:0:
346,219,100531,1,8,0:0:0:0:
272,265,100874,1,0,0:0:0:0:
279,204,101045,1,0,0:0:0:0:
344,278,101216,1,0,0:0:0:0:
272,265,101559,1,8,0:0:0:0:
272,265,102245,1,0,0:0:0:0:
224,181,102931,1,0,0:0:0:0:
270,250,103274,1,8,0:0:0:0:
245,250,103616,1,8,0:0:0:0:
248,256,103959,1,0,0:0:0:0:
282,238,104302,1,8,0:0:0:0:
295,239,104988,1,0,0:0:0:0:
280,208,105159,1,0,0:0:0:0:
295,239,105331,1,0,0:0:0:0:
295,239,105674,1,8,0:0:0:0:
295,239,106016,1,0,0:0:0:0:
295,239,106359,1,0,0:0:0:0:
295,239,107388,1,8,0:0:0:0:
295,239,108416,1,0,0:0:0:0:
295,239,108759,1,8,0:0:0:0:
283,243,108931,1,8,0:0:0:0:
274,242,109102,1,0,0:0:0:0:
272,240,109445,1,8,0:0:0:0:
210,187,109788,1,0,0:0:0:0:
272,240,109959,1,0,0:0:0:0:
295,239,110131,1,8,0:0:0:0:
189,193,110474,1,0,0:0:0:0:
256,192,110817,12,0,114588,0:0:0:0:
