osu file format v14

[General]
AudioFilename: audio.mp3
AudioLeadIn: 0
PreviewTime: 77559
Countdown: 0
SampleSet: Soft
StackLeniency: 0.7
Mode: 0
LetterboxInBreaks: 0
EpilepsyWarning: 1
WidescreenStoryboard: 1

[Editor]
Bookmarks: 59045
DistanceSpacing: 0.9
BeatDivisor: 6
GridSize: 32
TimelineZoom: 2.2

[Metadata]
Title:Following Flow
TitleUnicode:Following Flow
Artist:Nekomata Master
ArtistUnicode:猫叉Master
Creator:Beomsan
Version:Special
Source:REFLEC BEAT colette -Spring-
Tags:RB Naoyuki Sato plus follow slowly Beom Down Cellina
BeatmapID:1087690
BeatmapSetID:511699

[Difficulty]
HPDrainRate:6
CircleSize:5
OverallDifficulty:8
ApproachRate:9
SliderMultiplier:1.8
SliderTickRate:1

[Events]
//Background and Video events
0,0,"#333.png",0,0
//Break Periods
//Storyboard Layer 0 (Background)
//Storyboard Layer 1 (Fail)
//Storyboard Layer 2 (Pass)
//Storyboard Layer 3 (Foreground)
//Storyboard Sound Samples

[TimingPoints]
417,342.857142857143,3,1,0,100,1,0
1102,-153.846153846154,3,2,2,20,0,0
1445,-125,3,2,5,40,0,0
1617,-125,3,2,1,40,0,0
2474,-125,3,2,2,40,0,0
2645,-125,3,2,1,40,0,0
4531,-125,3,2,3,40,0,0
4702,-125,3,2,1,40,0,0
5388,-125,3,2,3,40,0,0
5902,-125,3,2,0,40,0,0
6588,-125,3,2,3,30,0,0
7617,-125,3,2,3,30,0,0
7959,-125,3,2,0,40,0,0
8645,-125,3,2,2,60,0,0
9674,-109.89010989011,3,2,10,60,0,0
9845,-109.89010989011,3,2,1,60,0,0
13788,-109.89010989011,3,2,2,60,0,0
14131,-109.89010989011,3,2,0,60,0,0
14817,-109.89010989011,3,2,1,60,0,0
15845,-109.89010989011,3,2,20,60,0,0
16017,-109.89010989011,3,2,1,60,0,0
17902,-109.89010989011,3,2,10,48,0,0
18245,-109.89010989011,3,2,1,48,0,0
20988,-109.89010989011,3,2,1,44,0,0
22017,-109.89010989011,3,2,1,39,0,0
23045,-109.89010989011,3,2,1,35,0,0
24074,-109.89010989011,3,2,1,30,0,0
25445,-109.89010989011,3,3,1,60,0,0
26131,-109.89010989011,3,2,20,80,0,0
26302,-109.89010989011,3,2,1,60,0,0
34359,-109.89010989011,3,2,20,60,0,0
34531,-109.89010989011,3,2,1,60,0,0
41559,-109.89010989011,3,2,2,60,0,0
41902,-109.89010989011,3,2,1,60,0,0
42588,-109.89010989011,3,2,10,60,0,0
42759,-109.89010989011,3,2,1,60,0,0
50817,-109.89010989011,3,2,20,60,0,0
50988,-109.89010989011,3,2,1,60,0,0
58017,-109.89010989011,3,2,30,60,0,0
58702,-109.89010989011,3,2,1,60,0,0
59045,-153.846153846154,3,2,10,80,0,0
59388,-153.846153846154,3,2,1,60,0,0
60074,-71.4285714285714,3,2,20,40,0,0
60159,-71.4285714285714,3,2,1,40,0,0
61102,-83.3333333333333,3,2,10,60,0,0
61359,-83.3333333333333,3,2,1,5,0,0
61445,-83.3333333333333,3,2,1,60,0,0
62645,-83.3333333333333,3,2,4,60,0,0
62988,-83.3333333333333,3,2,1,60,0,0
63159,-153.846153846154,3,2,10,80,0,0
63502,-153.846153846154,3,2,1,60,0,0
63674,-117.647058823529,3,2,1,60,0,0
64188,-71.4285714285714,3,2,1,40,0,0
65217,-83.3333333333333,3,2,20,80,0,0
65474,-83.3333333333333,3,2,1,60,0,0
65902,-133.333333333333,3,2,2,60,0,0
66245,-133.333333333333,3,2,1,60,0,0
67274,-153.846153846154,3,2,10,80,0,0
67617,-153.846153846154,3,2,1,60,0,0
68302,-71.4285714285714,3,2,1,40,0,0
69331,-83.3333333333333,3,2,20,80,0,0
69845,-83.3333333333333,3,2,1,60,0,0
71388,-83.3333333333333,3,2,20,80,0,0
71731,-83.3333333333333,3,2,1,60,0,0
73445,-83.3333333333333,3,2,20,60,0,0
73617,-83.3333333333333,3,2,1,60,0,0
74474,-83.3333333333333,3,2,20,60,0,0
74645,-83.3333333333333,3,2,1,60,0,0
74817,-83.3333333333333,3,2,10,60,0,0
74988,-83.3333333333333,3,2,1,60,0,0
75502,-153.846153846154,3,2,5,60,0,0
77559,-83.3333333333333,3,2,10,80,0,1
77731,-83.3333333333333,3,2,1,80,0,1
81159,-83.3333333333333,3,2,3,80,0,1
81331,-83.3333333333333,3,2,1,80,0,1
85788,-83.3333333333333,3,2,10,80,0,1
85959,-83.3333333333333,3,2,1,80,0,1
92645,-133.333333333333,3,2,1,60,0,1
92988,-133.333333333333,3,2,1,70,0,1
93331,-83.3333333333333,3,2,1,75,0,1
93674,-83.3333333333333,3,2,1,80,0,1
94017,-83.3333333333333,3,2,10,80,0,1
94188,-83.3333333333333,3,2,1,80,0,1
96417,-83.3333333333333,3,2,3,80,0,1
96588,-83.3333333333333,3,2,1,80,0,1
97617,-83.3333333333333,3,2,3,80,0,1
97788,-83.3333333333333,3,2,1,80,0,1
102245,-83.3333333333333,3,2,20,80,0,1
102417,-83.3333333333333,3,2,1,80,0,1
106702,-83.3333333333333,3,2,3,80,0,1
106874,-83.3333333333333,3,2,1,80,0,1
110474,-83.3333333333333,3,2,10,100,0,0
110559,-83.3333333333333,3,2,1,60,0,0
111502,-83.3333333333333,3,2,1,52,0,0
112531,-83.3333333333333,3,2,1,45,0,0
113559,-83.3333333333333,3,2,1,35,0,0
114502,-83.3333333333333,3,2,1,20,0,0
114588,-83.3333333333333,3,2,30,60,0,0

[Colours]
Combo1 : 96,175,255
Combo2 : 142,30,255

[HitObjects]
310,197,1102,6,0,B|301:177|297:155|297:155|287:175|286:204,1,87.749995983124,0|0,0:0|0:0,0:0:0:0:
343,262,1445,6,0,P|367:236|380:200,2,72,6|0|2,0:0|0:0|0:0,0:0:0:0:
270,266,1959,2,0,P|280:299|305:329,2,72,0|2|0,0:0|0:0|0:0,0:0:0:0:
193,163,2474,5,10,0:0:0:0:
155,223,2646,1,0,0:0:0:0:
199,279,2817,1,2,0:0:0:0:
257,195,2988,1,0,0:0:0:0:
198,91,3159,2,0,L|192:165,1,72,2|0,0:0|0:0,0:0:0:0:
92,261,3502,6,0,P|85:226|92:189,2,72,2|0|2,0:0|0:0|0:0,0:0:0:0:
134,319,4016,1,0,0:0:0:0:
83,371,4188,2,0,P|48:378|11:371,1,72,2|0,0:0|0:0,0:0:0:0:
134,319,4531,6,0,L|208:328,1,72,6|0,0:0|0:0,0:0:0:0:
280,338,4874,1,2,0:0:0:0:
177,256,5045,2,0,L|251:265,1,72,0|2,0:0|0:0,0:0:0:0:
323,271,5388,1,2,0:0:0:0:
184,180,5559,6,0,P|150:187|120:208,1,72,6|0,0:0|0:0,0:0:0:0:
253,80,5902,1,2,0:0:0:0:
252,106,5987,1,0,0:0:0:0:
256,133,6073,1,0,0:0:0:0:
264,159,6159,1,0,0:0:0:0:
276,183,6245,2,0,P|310:176|340:155,1,72,2|0,0:0|0:0,0:0:0:0:
425,319,6588,5,6,0:0:0:0:
425,208,6759,1,0,0:0:0:0:
359,297,6931,1,4,0:0:0:0:
465,263,7102,1,2,0:0:0:0:
359,229,7274,1,4,0:0:0:0:
425,319,7445,1,0,0:0:0:0:
425,208,7617,6,0,L|412:131,1,72,6|0,0:0|0:0,0:0:0:0:
304,27,7959,1,2,0:0:0:0:
291,50,8044,1,0,0:0:0:0:
282,76,8130,1,0,0:0:0:0:
279,103,8216,1,0,0:0:0:0:
279,130,8302,1,2,0:0:0:0:
344,162,8474,1,0,0:0:0:0:
283,199,8645,5,2,0:0:0:0:
290,270,8817,1,0,0:0:0:0:
289,281,8902,1,0,0:0:0:0:
289,292,8988,1,2,0:0:0:0:
213,216,9159,1,0,0:0:0:0:
213,205,9245,1,0,0:0:0:0:
212,194,9330,1,2,0:0:0:0:
214,290,9502,1,0,0:0:0:0:
173,136,9674,6,0,P|213:124|251:136,1,81.9000027493287,6|0,0:0|0:0,0:0:0:0:
141,208,10017,2,0,P|101:220|63:208,1,81.9000027493287,6|0,0:0|0:0,0:0:0:0:
103,150,10359,1,6,0:0:0:0:
142,280,10531,1,0,0:0:0:0:
103,150,10702,6,0,L|119:65,1,81.9000027493287,12|0,0:0|0:0,0:0:0:0:
180,125,11045,1,6,0:0:0:0:
25,142,11217,1,8,0:0:0:0:
180,125,11388,2,0,L|195:205,1,81.9000027493287,6|0,0:0|0:0,0:0:0:0:
283,63,11731,6,0,L|206:35,2,81.9000027493287,6|0|6,0:0|0:0|0:0,0:0:0:0:
296,143,12245,1,8,0:0:0:0:
372,172,12417,2,0,P|412:159|437:130,1,81.9000027493287,6|8,0:0|0:0,0:0:0:0:
296,143,12759,5,12,0:0:0:0:
371,101,12931,1,0,0:0:0:0:
323,235,13102,1,6,0:0:0:0:
371,101,13274,1,8,0:0:0:0:
323,235,13445,2,0,L|344:318,1,81.9000027493287,6|0,0:0|0:0,0:0:0:0:
263,295,13788,5,8,0:0:0:0:
245,215,13959,1,0,0:0:0:0:
183,269,14131,1,2,0:0:0:0:
153,274,14216,1,0,0:0:0:0:
123,266,14302,1,0,0:0:0:0:
100,247,14388,1,0,0:0:0:0:
87,219,14473,1,2,0:0:0:0:
159,200,14645,1,0,0:0:0:0:
145,344,14817,6,0,P|102:335|69:310,2,81.9000027493287,8|0|6,0:0|0:0|0:0,0:0:0:0:
194,274,15331,1,8,0:0:0:0:
192,125,15502,2,0,L|155:207,1,81.9000027493287,6|0,0:0|0:0,0:0:0:0:
109,133,15845,5,6,0:0:0:0:
238,203,16017,1,8,0:0:0:0:
76,199,16188,2,0,P|48:172|38:125,1,81.9000027493287,6|0,0:0|0:0,0:0:0:0:
117,261,16531,2,0,L|122:344,1,81.9000027493287,8|2,0:0|0:0,0:0:0:0:
272,324,16874,6,0,P|298:283|234:202,1,163.800005498657,14|6,0:0|0:0,0:0:0:0:
233,269,17388,1,8,0:0:0:0:
386,299,17559,5,8,0:0:0:0:
196,298,17731,1,8,0:0:0:0:
322,122,17902,6,0,B|321:73|291:44|291:44|308:80|286:120,1,163.800005498657,6|6,0:0|0:0,0:0:0:0:
383,62,18417,1,0,0:0:0:0:
224,154,18588,2,0,P|221:104|235:71,1,81.9000027493287,6|0,0:0|0:0,0:0:0:0:
288,187,18931,5,6,0:0:0:0:
228,226,19102,1,0,0:0:0:0:
346,226,19274,2,0,P|359:265|354:306,1,81.9000027493287,6|0,0:0|0:0,0:0:0:0:
219,304,19617,2,0,P|214:263|227:225,1,81.9000027493287,6|0,0:0|0:0,0:0:0:0:
223,143,19959,6,0,P|185:155|139:149,1,81.9000027493287,6|0,0:0|0:0,0:0:0:0:
70,117,20302,1,6,0:0:0:0:
178,79,20474,1,0,0:0:0:0:
70,117,20645,2,0,L|81:203,1,81.9000027493287,6|0,0:0|0:0,0:0:0:0:
178,79,20988,6,0,P|212:56|240:21,1,81.9000027493287,6|0,0:0|0:0,0:0:0:0:
106,40,21331,1,6,0:0:0:0:
202,165,21502,1,0,0:0:0:0:
106,40,21674,2,0,L|99:124,1,81.9000027493287,6|0,0:0|0:0,0:0:0:0:
30,242,22017,5,6,0:0:0:0:
142,256,22188,1,0,0:0:0:0:
60,180,22359,1,6,0:0:0:0:
83,293,22531,1,0,0:0:0:0:
129,188,22702,1,6,0:0:0:0:
83,293,22874,1,0,0:0:0:0:
215,198,23045,6,0,L|194:115,1,81.9000027493287,6|0,0:0|0:0,0:0:0:0:
317,23,23388,1,2,0:0:0:0:
292,101,23559,1,0,0:0:0:0:
339,168,23731,2,0,P|382:163|419:144,1,81.9000027493287,2|0,0:0|0:0,0:0:0:0:
291,229,24074,6,0,P|273:268|271:310,1,81.9000027493287,2|0,0:0|0:0,0:0:0:0:
284,379,24417,1,2,0:0:0:0:
407,285,24588,1,0,0:0:0:0:
284,379,24759,2,0,L|200:360,1,81.9000027493287,2|0,0:0|0:0,0:0:0:0:
81,285,25102,5,0,0:0:0:0:
73,265,25187,1,0,0:0:0:0:
68,246,25273,1,0,0:0:0:0:
65,225,25359,1,0,0:0:0:0:
79,161,25446,5,8,0:0:0:0:
86,141,25531,1,0,0:0:0:0:
91,122,25617,1,0,0:0:0:0:
95,101,25703,1,0,0:0:0:0:
74,40,25788,5,0,0:0:0:0:
81,37,25874,1,0,0:0:0:0:
88,34,25959,1,0,0:0:0:0:
95,30,26045,1,0,0:0:0:0:
160,60,26131,6,0,P|197:75|241:78,1,81.9000027493287,6|0,0:0|0:0,0:0:0:0:
311,65,26474,2,0,B|325:149|325:148,1,81.9000027493287,6|0,0:0|0:0,0:0:0:0:
355,228,26817,5,6,0:0:0:0:
353,244,26931,2,0,L|346:301,2,54.6000018328858,0|0|6,0:0|0:0|0:0,0:0:0:0:
440,242,27331,1,0,0:0:0:0:
270,288,27502,2,0,L|281:202,1,81.9000027493287,6|0,0:0|0:0,0:0:0:0:
207,195,27845,2,0,L|196:281,1,81.9000027493287,6|0,0:0|0:0,0:0:0:0:
169,298,28102,6,0,L|162:341,1,40.9500013746644,0|6,0:0|0:0,0:0:0:0:
66,237,28359,1,0,0:0:0:0:
66,237,28445,2,0,L|58:187,1,40.9500013746644,0|6,0:0|0:0,0:0:0:0:
77,103,28702,1,0,0:0:0:0:
144,56,28874,2,0,P|184:62|222:79,1,81.9000027493287,6|0,0:0|0:0,0:0:0:0:
221,78,29131,1,0,0:0:0:0:
221,78,29217,6,0,L|267:66,2,40.9500013746644,4|2|0,0:0|0:0|0:0,0:0:0:0:
195,199,29559,1,6,0:0:0:0:
285,280,29731,2,0,L|291:240,1,40.9500013746644,0|2,0:0|0:0,0:0:0:0:
202,281,29902,2,0,L|208:321,1,40.9500013746644,4|2,0:0|0:0,0:0:0:0:
296,210,30074,1,0,0:0:0:0:
135,245,30245,6,0,P|96:237|70:206,1,81.9000027493287,6|0,0:0|0:0,0:0:0:0:
69,205,30502,1,0,0:0:0:0:
69,205,30588,1,6,0:0:0:0:
137,102,30759,1,0,0:0:0:0:
234,180,30931,5,6,0:0:0:0:
249,174,31045,2,0,L|304:153,2,54.6000018328858,0|0|6,0:0|0:0|0:0,0:0:0:0:
137,102,31445,1,0,0:0:0:0:
194,43,31617,1,6,0:0:0:0:
267,78,31788,1,0,0:0:0:0:
137,102,31959,2,0,P|118:62|118:24,1,81.9000027493287,6|0,0:0|0:0,0:0:0:0:
117,25,32217,1,0,0:0:0:0:
117,25,32302,5,6,0:0:0:0:
102,181,32474,1,0,0:0:0:0:
88,180,32559,1,0,0:0:0:0:
74,179,32645,1,6,0:0:0:0:
150,259,32817,1,0,0:0:0:0:
164,258,32903,1,0,0:0:0:0:
178,257,32988,1,6,0:0:0:0:
236,137,33159,6,0,L|250:94,1,40.9500013746644,0|2,0:0|0:0,0:0:0:0:
307,151,33331,2,0,L|347:130,1,40.9500013746644,6|2,0:0|0:0,0:0:0:0:
353,210,33502,1,0,0:0:0:0:
353,210,33674,1,2,0:0:0:0:
427,275,33845,6,0,L|413:232,1,40.9500013746644,0|2,0:0|0:0,0:0:0:0:
356,289,34017,2,0,L|315:268,1,40.9500013746644,0|2,0:0|0:0,0:0:0:0:
310,348,34188,2,0,L|266:362,1,40.9500013746644,0|0,0:0|0:0,0:0:0:0:
446,353,34359,6,0,P|480:332|504:292,1,81.9000027493287,6|0,0:0|0:0,0:0:0:0:
459,151,34702,1,2,0:0:0:0:
356,289,34874,1,8,0:0:0:0:
352,183,35045,5,2,0:0:0:0:
346,168,35159,2,0,L|326:109,2,54.6000018328858,0|0|2,0:0|0:0|0:0,0:0:0:0:
432,238,35559,1,0,0:0:0:0:
380,64,35731,2,0,P|344:46|301:49,1,81.9000027493287,2|0,0:0|0:0,0:0:0:0:
239,105,36074,2,0,L|156:97,1,81.9000027493287,2|0,0:0|0:0,0:0:0:0:
157,97,36331,1,0,0:0:0:0:
157,97,36417,5,2,0:0:0:0:
207,246,36588,1,0,0:0:0:0:
207,246,36674,1,0,0:0:0:0:
207,246,36759,1,2,0:0:0:0:
273,84,36931,1,8,0:0:0:0:
336,135,37102,1,2,0:0:0:0:
417,127,37274,1,0,0:0:0:0:
417,127,37360,1,2,0:0:0:0:
417,127,37445,6,0,L|441:85,2,40.9500013746644,0|2|0,0:0|0:0|0:0,0:0:0:0:
333,223,37788,2,0,P|323:260|322:306,1,81.9000027493287,8|0,0:0|0:0,0:0:0:0:
321,303,38045,1,2,0:0:0:0:
321,303,38131,1,0,0:0:0:0:
248,348,38245,6,0,B|223:338|223:338|191:348,2,54.6000018328858,0|0|2,0:0|0:0|0:0,0:0:0:0:
131,303,38645,1,0,0:0:0:0:
131,303,38731,1,2,0:0:0:0:
131,303,38817,1,2,0:0:0:0:
104,112,38988,1,8,0:0:0:0:
167,60,39159,2,0,P|204:72|233:103,1,81.9000027493287,2|0,0:0|0:0,0:0:0:0:
361,217,39502,5,2,0:0:0:0:
367,147,39674,1,0,0:0:0:0:
304,119,39845,1,2,0:0:0:0:
291,231,40017,2,0,L|292:281,2,40.9500013746644,0|0|2,0:0|0:0|0:0,0:0:0:0:
256,170,40359,1,0,0:0:0:0:
242,169,40445,1,2,0:0:0:0:
228,168,40531,5,2,0:0:0:0:
143,70,40702,2,0,L|133:109,1,40.9500013746644,0|2,0:0|0:0,0:0:0:0:
80,164,40874,2,0,L|90:203,1,40.9500013746644,2|2,0:0|0:0,0:0:0:0:
114,274,41045,1,8,0:0:0:0:
68,95,41217,5,2,0:0:0:0:
20,276,41388,1,0,0:0:0:0:
22,296,41474,1,0,0:0:0:0:
25,316,41559,5,10,0:0:0:0:
28,336,41902,5,14,0:0:0:0:
31,356,42245,5,14,0:0:0:0:
80,141,42588,6,0,P|116:123|159:126,1,81.9000027493287,6|0,0:0|0:0,0:0:0:0:
232,161,42931,1,6,0:0:0:0:
187,311,43102,1,8,0:0:0:0:
232,161,43274,1,6,0:0:0:0:
187,311,43388,6,0,L|190:368,2,54.6000018328858,0|0|6,0:0|0:0|0:0,0:0:0:0:
130,193,43788,1,0,0:0:0:0:
246,239,43959,2,0,P|288:229|323:210,1,81.9000027493287,6|0,0:0|0:0,0:0:0:0:
130,193,44302,2,0,P|88:203|53:222,1,81.9000027493287,14|0,0:0|0:0,0:0:0:0:
54,221,44559,1,0,0:0:0:0:
54,221,44645,5,6,0:0:0:0:
169,264,44817,1,0,0:0:0:0:
209,150,44988,1,6,0:0:0:0:
203,339,45159,1,8,0:0:0:0:
209,150,45331,1,4,0:0:0:0:
203,339,45502,1,8,0:0:0:0:
272,229,45674,6,0,P|309:248|350:249,1,81.9000027493287,6|0,0:0|0:0,0:0:0:0:
419,207,46017,2,0,P|437:170|439:129,1,81.9000027493287,6|0,0:0|0:0,0:0:0:0:
262,75,46359,2,0,L|238:155,1,81.9000027493287,12|0,0:0|0:0,0:0:0:0:
228,166,46617,1,0,0:0:0:0:
215,175,46702,6,0,P|175:170|139:144,1,81.9000027493287,6|0,0:0|0:0,0:0:0:0:
99,76,47045,1,6,0:0:0:0:
256,95,47217,1,8,0:0:0:0:
99,76,47388,1,6,0:0:0:0:
256,95,47502,6,0,L|309:115,2,54.6000018328858,0|0|6,0:0|0:0|0:0,0:0:0:0:
211,32,47902,1,0,0:0:0:0:
175,106,48074,1,6,0:0:0:0:
99,76,48245,1,0,0:0:0:0:
50,261,48417,2,0,L|31:175,1,81.9000027493287,12|0,0:0|0:0,0:0:0:0:
157,280,48759,6,0,L|139:359,1,81.9000027493287,6|0,0:0|0:0,0:0:0:0:
117,204,49102,1,6,0:0:0:0:
268,317,49274,1,8,0:0:0:0:
117,204,49445,2,2,P|160:193|195:203,1,81.9000027493287,6|0,0:0|0:0,0:0:0:0:
195,203,49702,1,0,0:0:0:0:
195,203,49788,5,6,0:0:0:0:
234,213,49874,1,0,0:0:0:0:
273,202,49959,1,0,0:0:0:0:
235,139,50131,1,6,0:0:0:0:
268,325,50302,1,8,0:0:0:0:
235,139,50474,1,6,0:0:0:0:
268,325,50645,1,8,0:0:0:0:
348,153,50817,6,0,P|343:106|325:73,1,81.9000027493287,6|0,0:0|0:0,0:0:0:0:
273,14,51159,1,6,0:0:0:0:
143,149,51331,1,8,0:0:0:0:
132,57,51502,1,6,0:0:0:0:
63,136,51617,6,0,L|14:114,2,54.6000018328858,0|0|6,0:0|0:0|0:0,0:0:0:0:
73,229,52017,1,0,0:0:0:0:
180,169,52188,2,0,L|194:249,1,81.9000027493287,6|0,0:0|0:0,0:0:0:0:
18,321,52531,2,0,B|-6:310|-6:310|57:292,1,81.9000027493287,14|0,0:0|0:0,0:0:0:0:
102,153,52874,6,0,L|21:132,1,81.9000027493287,6|0,0:0|0:0,0:0:0:0:
87,71,53217,1,6,0:0:0:0:
151,253,53388,1,8,0:0:0:0:
87,71,53559,2,0,P|120:52|162:43,1,81.9000027493287,6|0,0:0|0:0,0:0:0:0:
350,136,53902,6,0,B|337:230|337:230|319:206,1,122.850004123993,14|0,0:0|0:0,0:0:0:0:
331,67,54245,2,0,P|370:68|405:91,1,81.9000027493287,6|8,0:0|0:0,0:0:0:0:
279,119,54588,1,6,0:0:0:0:
418,158,54702,6,0,L|477:144,2,54.6000018328858,0|0|2,0:0|0:0|0:0,0:0:0:0:
279,119,55102,1,0,0:0:0:0:
315,304,55274,1,6,0:0:0:0:
279,119,55445,1,8,0:0:0:0:
215,225,55617,6,0,P|174:222|140:200,1,81.9000027493287,6|0,0:0|0:0,0:0:0:0:
89,87,55959,2,0,L|66:165,1,81.9000027493287,6|0,0:0|0:0,0:0:0:0:
117,278,56302,2,0,L|140:200,1,81.9000027493287,6|0,0:0|0:0,0:0:0:0:
268,62,56645,1,12,0:0:0:0:
271,186,56817,1,0,0:0:0:0:
342,287,56988,6,0,P|375:313|412:325,1,81.9000027493287,6|0,0:0|0:0,0:0:0:0:
411,235,57331,1,6,0:0:0:0:
231,289,57502,1,8,0:0:0:0:
411,235,57674,1,6,0:0:0:0:
352,56,57845,6,0,L|365:32,2,27.3000009164429,8|0|0,0:0|0:0|0:0,0:0:0:0:
340,79,58017,2,0,P|302:65|257:66,1,81.9000027493287,6|0,0:0|0:0,0:0:0:0:
201,244,58359,2,0,P|241:244|279:230,1,81.9000027493287,2|0,0:0|0:0,0:0:0:0:
149,98,58702,1,10,0:0:0:0:
65,267,58874,1,8,0:0:0:0:
58,69,59045,6,0,B|87:84|94:113|94:113|115:97|152:97,1,116.999994644165,6|0,0:0|0:0,0:0:0:0:
241,171,59559,2,0,P|186:195|137:167,1,116.999994644165,6|0,0:0|0:0,0:0:0:0:
146,34,60074,6,0,P|165:59|177:90,1,62.9999980773926,4|0,0:0|0:0,0:0:0:0:
169,40,60245,2,0,P|180:69|184:102,1,62.9999980773926,0|0,0:0|0:0,0:0:0:0:
192,51,60417,2,0,P|195:81|190:114,1,62.9999980773926,0|0,0:0|0:0,0:0:0:0:
209,67,60588,2,0,P|204:96|190:127,1,62.9999980773926,8|0,0:0|0:0,0:0:0:0:
223,90,60759,2,0,P|210:116|189:143,1,62.9999980773926,0|0,0:0|0:0,0:0:0:0:
230,114,60931,2,0,P|210:135|183:156,1,62.9999980773926,0|0,0:0|0:0,0:0:0:0:
290,154,61102,6,0,B|302:131|301:104|301:104|300:169|356:193,1,161.999995056153,6|0,0:0|0:0,0:0:0:0:
309,252,61445,1,2,0:0:0:0:
374,120,61617,1,0,0:0:0:0:
454,224,61788,2,0,L|438:331,1,107.999996704102,2|0,0:0|0:0,0:0:0:0:
269,341,62131,6,0,P|216:302|311:255,1,215.999993408203,14|2,0:0|0:0,0:0:0:0:
154,361,62645,2,0,B|102:210|102:210|157:240,1,215.999993408203,2|2,0:0|0:0,0:0:0:0:
323,179,63159,6,0,P|268:163|211:179,1,116.999994644165,6|4,0:0|0:0,0:0:0:0:
195,105,63674,2,0,P|270:87|341:106,1,153.000002918243,0|4,0:0|0:0,0:0:0:0:
298,308,64188,6,0,P|268:301|239:285,1,62.9999980773926,8|0,0:0|0:0,0:0:0:0:
128,243,64359,2,0,P|155:227|186:220,1,62.9999980773926,0|0,0:0|0:0,0:0:0:0:
313,168,64531,2,0,P|307:199|292:229,1,62.9999980773926,0|0,0:0|0:0,0:0:0:0:
230,149,64702,2,0,P|216:120|210:89,1,62.9999980773926,8|0,0:0|0:0,0:0:0:0:
342,55,64874,1,0,0:0:0:0:
383,76,64959,1,0,0:0:0:0:
413,113,65045,1,0,0:0:0:0:
424,158,65131,1,0,0:0:0:0:
416,204,65217,6,0,B|387:232|387:232|372:271|386:315|433:333,1,161.999995056153,6|0,0:0|0:0,0:0:0:0:
448,264,65559,1,2,0:0:0:0:
313,168,65731,1,8,0:0:0:0:
233,294,65902,2,0,P|214:296|196:293,3,33.7500012874604,2|0|0|0,0:0|0:0|0:0|0:0,0:0:0:0:
169,276,66245,6,0,P|157:243|154:208,1,67.5000025749208,4|4,0:0|0:0,0:0:0:0:
198,67,66588,1,10,0:0:0:0:
313,168,66759,1,4,0:0:0:0:
346,43,66931,1,4,0:0:0:0:
172,184,67102,1,8,0:0:0:0:
338,265,67274,6,0,B|365:235|365:235|329:257|284:250,1,116.999994644165,6|0,0:0|0:0,0:0:0:0:
398,162,67788,2,0,P|445:183|444:244,1,116.999994644165,0|0,0:0|0:0,0:0:0:0:
229,285,68302,6,0,P|224:251|230:216,1,62.9999980773926,8|0,0:0|0:0,0:0:0:0:
187,261,68474,2,0,P|196:228|217:198,1,62.9999980773926,0|0,0:0|0:0,0:0:0:0:
158,219,68645,2,0,P|180:193|211:175,1,62.9999980773926,0|0,0:0|0:0,0:0:0:0:
149,167,68817,2,0,P|181:158|217:161,1,62.9999980773926,0|0,0:0|0:0,0:0:0:0:
171,121,68988,2,0,P|202:132|230:155,1,62.9999980773926,8|0,0:0|0:0,0:0:0:0:
213,97,69159,2,0,P|235:122|249:155,1,62.9999980773926,8|0,0:0|0:0,0:0:0:0:
370,347,69331,6,0,P|477:280|354:252,1,323.999990112305,6|0,0:0|0:0,0:0:0:0:
410,292,70017,1,2,0:0:0:0:
445,146,70188,1,0,0:0:0:0:
288,39,70359,6,0,P|263:84|266:142,2,107.999996704102,8|0|2,0:0|0:0|0:0,0:0:0:0:
340,100,70874,1,8,0:0:0:0:
256,234,71045,1,0,0:0:0:0:
340,100,71217,1,0,0:0:0:0:
147,212,71388,6,0,B|119:185|73:189|73:189|144:164|120:119|186:114,1,215.999993408203,4|0,0:0|0:0,0:0:0:0:
91,260,71902,1,0,0:0:0:0:
65,114,72074,2,0,P|105:71|150:50,1,107.999996704102,2|0,0:0|0:0,0:0:0:0:
272,196,72417,6,0,B|309:224|319:284|299:334|299:334|298:297|271:264,1,215.999993408203,8|0,0:0|0:0,0:0:0:0:
207,144,72931,2,0,B|285:84|338:151|411:83,1,215.999993408203,8|0,0:0|0:0,0:0:0:0:
168,74,73445,6,0,P|135:109|127:168,1,107.999996704102,6|0,0:0|0:0,0:0:0:0:
159,258,73788,1,2,0:0:0:0:
207,144,73959,1,0,0:0:0:0:
26,203,74131,2,0,L|57:311,1,107.999996704102,8|0,0:0|0:0,0:0:0:0:
232,218,74474,5,4,0:0:0:0:
124,55,74645,1,0,0:0:0:0:
319,83,74817,1,4,0:0:0:0:
232,293,74988,1,4,0:0:0:0:
202,85,75159,5,8,0:0:0:0:
241,78,75244,1,8,0:0:0:0:
280,90,75331,1,8,0:0:0:0:
319,83,75416,1,8,0:0:0:0:
359,88,75502,5,2,0:0:0:0:
324,156,75674,1,0,0:0:0:0:
347,16,75845,1,0,0:0:0:0:
454,111,76017,6,0,L|486:93,2,19.4999991073609,0|0|0,0:0|0:0|0:0,0:0:0:0:
434,125,76188,2,0,L|440:189,1,58.4999973220826,0|0,0:0|0:0,0:0:0:0:
443,257,76531,5,2,0:0:0:0:
389,307,76702,2,0,L|394:337,2,19.4999991073609,0|0|0,0:0|0:0|0:0,0:0:0:0:
369,292,76874,2,0,P|339:297|309:309,1,58.4999973220826,0|0,0:0|0:0,0:0:0:0:
304,312,77102,5,0,0:0:0:0:
296,318,77159,1,0,0:0:0:0:
289,326,77217,2,0,B|274:278|297:277|282:227,1,97.4999955368044,0|0,0:0|0:0,0:0:0:0:
305,194,77559,6,0,P|257:206|209:179,1,107.999996704102,6|0,0:0|0:0,0:0:0:0:
221,51,77902,2,0,P|269:39|317:66,1,107.999996704102,2|8,0:0|0:0,0:0:0:0:
136,215,78245,2,2,B|123:175|135:142|135:142|158:109,1,107.999996704102,2|8,0:0|0:0,0:0:0:0:
200,262,78588,6,0,P|158:292|103:287,1,107.999996704102,2|0,0:0|0:0,0:0:0:0:
208,178,78931,2,0,L|299:241,1,107.999996704102,2|8,0:0|0:0,0:0:0:0:
422,96,79274,1,2,0:0:0:0:
446,314,79445,1,8,0:0:0:0:
339,161,79617,6,0,P|319:108|327:57,1,107.999996704102,2|0,0:0|0:0,0:0:0:0:
458,196,79959,1,2,0:0:0:0:
422,96,80131,1,8,0:0:0:0:
300,250,80302,2,0,B|277:227|276:198|276:198|290:221|311:231,1,107.999996704102,2|8,0:0|0:0,0:0:0:0:
222,111,80645,6,0,P|169:108|122:138,1,107.999996704102,2|8,0:0|0:0,0:0:0:0:
274,27,80988,1,2,0:0:0:0:
188,183,81159,1,2,0:0:0:0:
72,69,81331,5,2,0:0:0:0:
49,108,81445,1,0,0:0:0:0:
42,153,81559,1,0,0:0:0:0:
51,198,81674,5,2,0:0:0:0:
129,254,81845,2,0,P|131:309|99:351,1,107.999996704102,0|2,0:0|0:0,0:0:0:0:
124,178,82188,1,8,0:0:0:0:
231,313,82359,1,2,0:0:0:0:
60,281,82531,1,8,0:0:0:0:
231,313,82702,5,2,0:0:0:0:
124,178,82874,1,0,0:0:0:0:
295,210,83045,1,2,0:0:0:0:
224,51,83217,5,8,0:0:0:0:
221,61,83274,1,0,0:0:0:0:
218,71,83331,1,0,0:0:0:0:
215,81,83388,1,2,0:0:0:0:
352,124,83559,5,8,0:0:0:0:
349,114,83616,1,0,0:0:0:0:
346,104,83673,1,0,0:0:0:0:
343,94,83731,6,0,P|394:110|441:88,1,107.999996704102,2|0,0:0|0:0,0:0:0:0:
274,141,84074,1,2,0:0:0:0:
389,39,84245,1,8,0:0:0:0:
274,141,84417,1,2,0:0:0:0:
337,317,84588,1,8,0:0:0:0:
461,177,84759,6,0,P|491:217|492:275,1,107.999996704102,2|8,0:0|0:0,0:0:0:0:
342,233,85102,2,0,L|364:120,1,107.999996704102,2|0,0:0|0:0,0:0:0:0:
419,242,85445,5,2,0:0:0:0:
376,300,85559,1,0,0:0:0:0:
303,299,85674,1,0,0:0:0:0:
270,234,85788,6,0,L|248:347,1,107.999996704102,6|0,0:0|0:0,0:0:0:0:
188,264,86131,1,2,0:0:0:0:
326,175,86302,1,8,0:0:0:0:
136,146,86474,2,0,P|134:90|162:45,1,107.999996704102,2|8,0:0|0:0,0:0:0:0:
315,47,86817,6,0,P|341:93|339:146,1,107.999996704102,2|0,0:0|0:0,0:0:0:0:
238,117,87159,1,2,0:0:0:0:
418,68,87331,1,8,0:0:0:0:
238,117,87502,1,2,0:0:0:0:
418,68,87674,1,8,0:0:0:0:
428,81,87759,1,0,0:0:0:0:
439,93,87845,5,2,0:0:0:0:
371,235,88017,1,0,0:0:0:0:
448,105,88188,2,0,P|464:158|456:210,1,107.999996704102,2|8,0:0|0:0,0:0:0:0:
302,315,88531,1,2,0:0:0:0:
395,345,88702,1,8,0:0:0:0:
270,161,88874,6,0,P|219:151|172:178,1,107.999996704102,2|8,0:0|0:0,0:0:0:0:
191,300,89217,2,0,P|242:310|289:283,1,107.999996704102,2|0,0:0|0:0,0:0:0:0:
376,154,89559,5,2,0:0:0:0:
366,111,89674,1,0,0:0:0:0:
342,74,89788,1,0,0:0:0:0:
303,54,89902,5,2,0:0:0:0:
232,229,90074,1,0,0:0:0:0:
419,224,90245,2,0,P|452:182|451:128,1,107.999996704102,2|8,0:0|0:0,0:0:0:0:
326,270,90588,2,0,L|346:382,1,107.999996704102,2|8,0:0|0:0,0:0:0:0:
437,330,90931,6,0,L|417:218,1,107.999996704102,2|0,0:0|0:0,0:0:0:0:
250,309,91274,1,2,0:0:0:0:
344,376,91445,1,8,0:0:0:0:
278,199,91617,1,2,0:0:0:0:
160,344,91788,1,8,0:0:0:0:
76,173,91959,5,2,0:0:0:0:
156,187,92131,1,0,0:0:0:0:
170,267,92302,1,2,0:0:0:0:
96,303,92474,1,0,0:0:0:0:
39,246,92645,2,0,P|14:239|-3:226,2,45.0000017166138,2|0|0,0:0|0:0|0:0,0:0:0:0:
156,187,92988,6,0,P|177:185|200:191,2,45.0000017166138,2|0|0,0:0|0:0|0:0,0:0:0:0:
47,175,93331,5,2,0:0:0:0:
56,170,93388,1,0,0:0:0:0:
66,165,93445,1,0,0:0:0:0:
75,160,93502,5,0,0:0:0:0:
84,154,93559,1,0,0:0:0:0:
93,149,93617,1,0,0:0:0:0:
102,144,93674,6,0,L|102:104,5,35.9999989013672,2|0|0|0|0|0,0:0|0:0|0:0|0:0|0:0|0:0,0:0:0:0:
105,70,94017,6,0,P|160:58|204:83,1,107.999996704102,6|0,0:0|0:0,0:0:0:0:
191,245,94359,2,0,P|136:257|92:232,1,107.999996704102,2|8,0:0|0:0,0:0:0:0:
274,168,94702,2,0,L|293:282,1,107.999996704102,2|8,0:0|0:0,0:0:0:0:
75,339,95045,6,0,L|94:225,1,107.999996704102,2|0,0:0|0:0,0:0:0:0:
159,119,95388,2,0,P|108:123|65:83,1,107.999996704102,2|8,0:0|0:0,0:0:0:0:
237,43,95731,5,2,0:0:0:0:
198,232,95902,1,8,0:0:0:0:
130,57,96074,6,0,L|239:43,1,107.999996704102,2|0,0:0|0:0,0:0:0:0:
305,218,96417,2,0,L|196:232,1,107.999996704102,2|8,0:0|0:0,0:0:0:0:
267,127,96759,1,2,0:0:0:0:
335,285,96931,1,8,0:0:0:0:
341,134,97102,6,0,P|323:80|282:54,1,107.999996704102,2|8,0:0|0:0,0:0:0:0:
400,218,97445,2,0,L|509:232,1,107.999996704102,2|0,0:0|0:0,0:0:0:0:
343,356,97788,5,0,0:0:0:0:
300,352,97902,1,0,0:0:0:0:
263,328,98017,1,0,0:0:0:0:
239,291,98131,5,2,0:0:0:0:
238,195,98302,2,0,P|226:140|188:109,1,107.999996704102,0|2,0:0|0:0,0:0:0:0:
301,239,98645,1,8,0:0:0:0:
167,179,98817,1,2,0:0:0:0:
344,118,98988,1,8,0:0:0:0:
140,189,99159,5,2,0:0:0:0:
239,27,99331,1,0,0:0:0:0:
301,239,99502,1,2,0:0:0:0:
395,189,99674,5,8,0:0:0:0:
398,179,99731,1,0,0:0:0:0:
401,169,99788,1,0,0:0:0:0:
404,159,99845,1,2,0:0:0:0:
267,116,100016,5,8,0:0:0:0:
270,126,100073,1,0,0:0:0:0:
273,136,100130,1,0,0:0:0:0:
276,146,100188,6,0,P|225:130|178:152,1,107.999996704102,2|0,0:0|0:0,0:0:0:0:
171,24,100531,1,2,0:0:0:0:
230,201,100702,1,8,0:0:0:0:
171,24,100874,1,2,0:0:0:0:
230,201,101045,1,8,0:0:0:0:
91,129,101217,6,0,P|37:138|0:177,1,107.999996704102,2|8,0:0|0:0,0:0:0:0:
64,323,101559,2,0,P|118:314|155:275,1,107.999996704102,2|0,0:0|0:0,0:0:0:0:
259,124,101902,5,2,0:0:0:0:
330,113,102016,1,0,0:0:0:0:
381,165,102131,1,0,0:0:0:0:
370,237,102245,6,0,L|344:341,1,107.999996704102,6|0,0:0|0:0,0:0:0:0:
306,188,102588,1,2,0:0:0:0:
441,217,102759,1,8,0:0:0:0:
374,39,102931,2,0,P|321:27|273:48,1,107.999996704102,2|8,0:0|0:0,0:0:0:0:
198,181,103274,6,0,L|305:187,1,107.999996704102,2|0,0:0|0:0,0:0:0:0:
184,81,103617,1,2,0:0:0:0:
241,261,103788,1,8,0:0:0:0:
184,81,103959,1,2,0:0:0:0:
241,261,104130,1,8,0:0:0:0:
237,277,104217,1,0,0:0:0:0:
234,293,104302,5,2,0:0:0:0:
108,203,104474,1,0,0:0:0:0:
231,308,104645,2,0,P|281:294|334:310,1,107.999996704102,2|8,0:0|0:0,0:0:0:0:
281,369,104988,1,2,0:0:0:0:
140,289,105159,1,8,0:0:0:0:
229,122,105331,6,0,P|230:66|199:25,1,107.999996704102,2|8,0:0|0:0,0:0:0:0:
63,154,105674,2,0,L|31:258,1,107.999996704102,2|0,0:0|0:0,0:0:0:0:
184,344,106017,5,2,0:0:0:0:
229,288,106131,1,0,0:0:0:0:
209,217,106246,1,0,0:0:0:0:
141,191,106359,5,2,0:0:0:0:
162,370,106531,1,0,0:0:0:0:
264,372,106702,1,2,0:0:0:0:
149,276,106874,1,8,0:0:0:0:
300,168,107045,2,0,P|324:214|313:266,1,107.999996704102,2|8,0:0|0:0,0:0:0:0:
198,145,107388,6,0,P|188:87|214:44,2,107.999996704102,2|0|2,0:0|0:0|0:0,0:0:0:0:
256,101,107902,1,8,0:0:0:0:
114,77,108074,1,2,0:0:0:0:
239,230,108245,1,8,0:0:0:0:
121,209,108417,5,2,0:0:0:0:
46,219,108588,1,0,0:0:0:0:
91,279,108759,1,2,0:0:0:0:
75,154,108931,5,8,0:0:0:0:
24,284,109102,1,2,0:0:0:0:
160,266,109274,1,8,0:0:0:0:
290,111,109445,5,2,0:0:0:0:
251,182,109617,1,2,0:0:0:0:
331,180,109788,1,8,0:0:0:0:
251,182,109959,5,2,0:0:0:0:
285,28,110131,1,8,0:0:0:0:
292,244,110302,1,8,0:0:0:0:
61,140,110474,5,6,0:0:0:0:
256,192,110502,12,4,114588,0:0:0:0:
