osu file format v14

[General]
AudioFilename: audio.mp3
AudioLeadIn: 0
PreviewTime: 77559
Countdown: 0
SampleSet: Soft
StackLeniency: 0.7
Mode: 0
LetterboxInBreaks: 0
EpilepsyWarning: 1
WidescreenStoryboard: 1

[Editor]
DistanceSpacing: 0.8
BeatDivisor: 4
GridSize: 32
TimelineZoom: 1.9

[Metadata]
Title:Following Flow
TitleUnicode:Following Flow
Artist:Nekomata Master
ArtistUnicode:猫叉Master
Creator:Beomsan
Version:Medium
Source:REFLEC BEAT colette -Spring-
Tags:RB Naoyuki Sato plus follow slowly Beom Down Cellina
BeatmapID:1091442
BeatmapSetID:511699

[Difficulty]
HPDrainRate:4
CircleSize:3.7
OverallDifficulty:5
ApproachRate:5
SliderMultiplier:1.1
SliderTickRate:1

[Events]
//Background and Video events
0,0,"#333.png",0,0
//Break Periods
//Storyboard Layer 0 (Background)
//Storyboard Layer 1 (Fail)
//Storyboard Layer 2 (Pass)
//Storyboard Layer 3 (Foreground)
//Storyboard Sound Samples

[TimingPoints]
417,342.857142857143,3,1,0,100,1,0
1102,-100,3,2,2,20,0,0
1445,-100,3,2,5,40,0,0
1617,-100,3,2,1,40,0,0
2474,-100,3,2,2,40,0,0
2645,-100,3,2,1,40,0,0
4531,-100,3,2,3,40,0,0
4702,-100,3,2,1,40,0,0
5388,-100,3,2,3,40,0,0
5902,-100,3,2,0,40,0,0
6588,-100,3,2,3,30,0,0
7617,-100,3,2,3,30,0,0
7959,-100,3,2,0,40,0,0
8645,-100,3,2,2,60,0,0
9674,-100,3,2,10,60,0,0
9845,-100,3,2,1,60,0,0
13788,-100,3,2,2,60,0,0
14131,-100,3,2,0,60,0,0
14817,-100,3,2,1,60,0,0
15845,-100,3,2,20,60,0,0
16017,-100,3,2,1,60,0,0
17902,-100,3,2,10,48,0,0
18245,-100,3,2,1,48,0,0
20988,-100,3,2,1,44,0,0
22017,-100,3,2,1,39,0,0
23045,-100,3,2,1,35,0,0
24074,-100,3,2,1,30,0,0
25445,-100,3,3,1,60,0,0
26131,-100,3,2,20,80,0,0
26302,-100,3,2,1,60,0,0
34359,-100,3,2,20,60,0,0
34531,-100,3,2,1,60,0,0
41559,-100,3,2,2,60,0,0
41902,-100,3,2,1,60,0,0
42588,-100,3,2,10,60,0,0
42759,-100,3,2,1,60,0,0
50817,-100,3,2,20,60,0,0
50988,-100,3,2,1,60,0,0
58017,-100,3,2,30,60,0,0
58702,-100,3,2,1,60,0,0
59045,-100,3,2,10,80,0,0
59388,-100,3,2,1,60,0,0
59559,-100,3,2,1,60,0,0
59902,-100,3,2,1,60,0,0
60074,-100,3,2,20,40,0,0
60159,-100,3,2,1,40,0,0
61102,-100,3,2,10,60,0,0
61359,-100,3,2,1,5,0,0
61445,-100,3,2,1,60,0,0
62131,-100,3,2,1,60,0,0
62474,-100,3,2,1,60,0,0
62645,-100,3,2,4,60,0,0
62988,-100,3,2,1,60,0,0
63159,-100,3,2,10,80,0,0
63502,-100,3,2,1,60,0,0
64188,-100,3,2,1,40,0,0
65217,-100,3,2,20,80,0,0
65474,-100,3,2,1,60,0,0
65559,-100,3,2,1,60,0,0
65902,-100,3,2,2,60,0,0
66245,-100,3,2,1,60,0,0
67274,-100,3,2,10,80,0,0
67617,-100,3,2,1,60,0,0
68302,-100,3,2,1,40,0,0
69331,-100,3,2,20,80,0,0
69845,-100,3,2,1,60,0,0
70017,-100,3,2,1,60,0,0
71388,-100,3,2,20,80,0,0
71731,-100,3,2,1,60,0,0
71902,-100,3,2,1,60,0,0
73445,-100,3,2,20,60,0,0
73617,-100,3,2,1,60,0,0
74474,-100,3,2,20,60,0,0
74645,-100,3,2,1,60,0,0
74817,-100,3,2,10,60,0,0
74988,-100,3,2,1,60,0,0
75502,-100,3,2,5,60,0,0
77559,-100,3,2,10,80,0,1
77731,-100,3,2,1,80,0,1
81159,-100,3,2,3,80,0,1
81331,-100,3,2,1,80,0,1
85788,-100,3,2,10,80,0,1
85959,-100,3,2,1,80,0,1
92645,-100,3,2,1,60,0,1
92988,-100,3,2,1,70,0,1
93331,-100,3,2,1,75,0,1
93674,-100,3,2,1,80,0,1
94017,-100,3,2,10,80,0,1
94188,-100,3,2,1,80,0,1
96417,-100,3,2,3,80,0,1
96588,-100,3,2,1,80,0,1
97617,-100,3,2,3,80,0,1
97788,-100,3,2,1,80,0,1
102245,-100,3,2,20,80,0,1
102417,-100,3,2,1,80,0,1
106702,-100,3,2,3,80,0,1
106874,-100,3,2,1,80,0,1
110474,-100,3,2,10,100,0,0
110559,-100,3,2,1,60,0,0
111502,-100,3,2,1,52,0,0
112531,-100,3,2,1,45,0,0
113559,-100,3,2,1,35,0,0
114502,-100,3,2,1,20,0,0
114588,-100,3,2,30,60,0,0

[Colours]
Combo1 : 96,175,255
Combo2 : 142,30,255

[HitObjects]
356,111,1102,5,0,0:0:0:0:
425,59,1445,2,0,P|442:111|425:163,1,110,6|0,0:0|0:0,0:0:0:0:
394,244,2131,2,0,L|336:226,1,55,2|0,0:0|0:0,0:0:0:0:
299,216,2474,2,0,L|315:331,1,110,10|2,0:0|0:0,0:0:0:0:
227,342,3159,2,0,P|201:329|168:323,1,55,2|0,0:0|0:0,0:0:0:0:
140,349,3502,6,0,P|151:293|134:243,1,110,2|2,0:0|0:0,0:0:0:0:
100,162,4188,2,0,P|126:149|159:143,1,55,2|0,0:0|0:0,0:0:0:0:
187,169,4531,2,0,P|176:113|193:63,1,110,6|2,0:0|0:0,0:0:0:0:
220,30,5045,2,0,B|270:52|282:20|330:41,1,110,0|2,0:0|0:0,0:0:0:0:
364,64,5559,6,0,L|384:174,1,110,6|2,0:0|0:0,0:0:0:0:
363,258,6245,1,2,0:0:0:0:
313,331,6588,2,0,P|261:340|212:315,1,110,6|4,0:0|0:0,0:0:0:0:
179,284,7102,2,0,P|131:258|77:267,1,110,2|0,0:0|0:0,0:0:0:0:
45,298,7617,6,0,L|55:186,1,110,6|2,0:0|0:0,0:0:0:0:
91,108,8302,1,2,0:0:0:0:
165,60,8645,2,0,P|222:58|266:88,2,110,2|2|2,0:0|0:0|0:0,0:0:0:0:
197,142,9674,6,0,P|199:195|168:241,1,110,6|6,0:0|0:0,0:0:0:0:
98,294,10359,1,6,0:0:0:0:
181,321,10702,2,0,B|206:315|224:302|224:302|259:303|284:335,1,110,12|6,0:0|0:0,0:0:0:0:
306,363,11217,2,0,B|331:369|349:382|349:382|384:381|409:349,1,110,8|0,0:0|0:0,0:0:0:0:
433,323,11731,6,0,P|431:262|405:219,1,110,6|6,0:0|0:0,0:0:0:0:
340,162,12417,1,6,0:0:0:0:
345,74,12759,2,0,P|391:48|448:51,1,110,12|6,0:0|0:0,0:0:0:0:
487,68,13274,2,0,L|485:184,1,110,8|0,0:0|0:0,0:0:0:0:
482,222,13788,6,0,P|432:239|401:290,1,110,8|2,0:0|0:0,0:0:0:0:
390,372,14474,1,2,0:0:0:0:
321,317,14817,2,0,P|270:318|226:281,1,110,8|6,0:0|0:0,0:0:0:0:
204,243,15331,2,0,L|217:133,1,110,8|0,0:0|0:0,0:0:0:0:
256,111,15845,6,0,P|283:119|307:136,2,55,6|8|6,0:0|0:0|0:0,0:0:0:0:
196,45,16531,1,8,0:0:0:0:
113,71,16874,2,0,P|82:114|72:172,1,110,14|6,0:0|0:0,0:0:0:0:
80,212,17388,2,0,P|49:212|20:217,2,55,8|8|8,0:0|0:0|0:0,0:0:0:0:
118,232,17902,6,0,P|99:282|110:335,1,110,6|6,0:0|0:0,0:0:0:0:
195,361,18588,1,6,0:0:0:0:
279,336,18931,2,0,P|298:285|287:232,1,110,6|6,0:0|0:0,0:0:0:0:
203,207,19617,1,6,0:0:0:0:
265,144,19959,6,0,P|320:146|362:179,2,110,6|6|6,0:0|0:0|0:0,0:0:0:0:
203,207,20988,2,0,P|159:239|105:243,2,110,6|6|6,0:0|0:0|0:0,0:0:0:0:
182,121,22017,6,0,B|179:92|160:70|160:70|157:43|178:16,2,110,6|6|6,0:0|0:0|0:0,0:0:0:0:
265,144,23045,2,0,B|294:141|316:122|316:122|343:119|370:140,2,110,6|2|2,0:0|0:0|0:0,0:0:0:0:
291,228,24074,2,0,B|294:257|313:279|313:279|316:306|295:333,2,110,2|2|2,0:0|0:0|0:0,0:0:0:0:
205,208,25102,6,0,P|151:210|107:241,1,110,0|8,0:0|0:0,0:0:0:0:
63,318,25788,1,0,0:0:0:0:
25,238,26131,6,0,B|-8:187|24:172|-9:127|-9:127|43:141|85:101,1,220,6|6,0:0|0:0,0:0:0:0:
164,64,27159,2,0,P|130:26|70:15,2,110,6|6|6,0:0|0:0|0:0,0:0:0:0:
159,152,28188,6,0,L|273:121,2,110,6|6|6,0:0|0:0|0:0,0:0:0:0:
155,240,29217,2,0,P|189:278|249:289,1,110,4|6,0:0|0:0,0:0:0:0:
331,271,29902,1,4,0:0:0:0:
381,342,30245,6,0,P|411:302|328:184,1,220,6|6,0:0|0:0,0:0:0:0:
377,110,31274,2,0,P|424:132|464:172,2,110,6|6|6,0:0|0:0|0:0,0:0:0:0:
291,89,32302,6,0,B|189:60|176:126|74:82,1,220,6|6,0:0|0:0,0:0:0:0:
74,169,33331,2,0,P|62:222|22:269,2,110,6|2|0,0:0|0:0|0:0,0:0:0:0:
152,209,34359,6,0,P|222:256|236:203,1,165,6|8,0:0|0:0,0:0:0:0:
233,163,35045,2,0,P|280:189|336:186,1,110,2|2,0:0|0:0,0:0:0:0:
414,147,35731,2,0,L|442:260,1,110,2|2,0:0|0:0,0:0:0:0:
434,341,36417,6,0,P|385:318|329:322,1,110,2|2,0:0|0:0,0:0:0:0:
292,344,36931,1,8,0:0:0:0:
278,302,37102,2,0,L|248:188,1,110,2|0,0:0|0:0,0:0:0:0:
192,128,37788,1,8,0:0:0:0:
104,115,38131,6,0,P|48:121|0:151,1,110,0|2,0:0|0:0,0:0:0:0:
22,234,38817,2,0,L|35:290,1,55,2|8,0:0|0:0,0:0:0:0:
46,329,39159,2,0,P|94:301|149:309,1,110,2|2,0:0|0:0,0:0:0:0:
226,343,39845,2,0,L|237:227,1,110,2|2,0:0|0:0,0:0:0:0:
289,162,40531,5,2,0:0:0:0:
376,154,40874,2,0,L|434:169,1,55,2|8,0:0|0:0,0:0:0:0:
467,189,41217,2,0,P|447:135|454:83,1,110,2|10,0:0|0:0,0:0:0:0:
384,29,41902,2,0,P|330:49|278:42,1,110,14|14,0:0|0:0,0:0:0:0:
196,10,42588,6,0,B|177:79|222:95|196:179,1,165,6|8,0:0|0:0,0:0:0:0:
219,211,43274,2,0,P|166:196|114:213,1,110,6|6,0:0|0:0,0:0:0:0:
48,269,43959,1,6,0:0:0:0:
11,348,44302,1,14,0:0:0:0:
98,340,44645,6,0,P|151:325|203:342,1,110,6|6,0:0|0:0,0:0:0:0:
238,365,45159,2,0,L|247:307,1,55,8|4,0:0|0:0,0:0:0:0:
254,267,45502,1,8,0:0:0:0:
262,223,45674,2,0,P|311:245|366:235,2,110,6|6|12,0:0|0:0|0:0,0:0:0:0:
267,135,46702,6,0,B|228:138|205:159|205:159|175:138|142:137|112:154,1,165,6|8,0:0|0:0,0:0:0:0:
81,183,47388,2,0,P|59:231|77:282,1,110,6|6,0:0|0:0,0:0:0:0:
141,342,48074,2,0,B|191:324|203:361|250:341,1,110,6|12,0:0|0:0,0:0:0:0:
335,354,48759,6,0,P|336:300|365:253,1,110,6|6,0:0|0:0,0:0:0:0:
403,232,49274,1,8,0:0:0:0:
446,229,49445,2,0,L|441:165,1,55,6|0,0:0|0:0,0:0:0:0:
433,130,49788,1,6,0:0:0:0:
355,87,50131,2,0,L|293:98,1,55,6|8,0:0|0:0,0:0:0:0:
268,126,50474,2,0,P|274:152|274:188,1,55,6|8,0:0|0:0,0:0:0:0:
273,224,50817,6,0,P|231:261|151:203,1,165,6|8,0:0|0:0,0:0:0:0:
151,165,51502,2,0,L|35:178,1,110,6|6,0:0|0:0,0:0:0:0:
11,94,52188,2,0,L|127:81,1,110,6|14,0:0|0:0,0:0:0:0:
208,82,52874,6,0,P|244:118|260:178,1,110,6|6,0:0|0:0,0:0:0:0:
257,217,53388,1,8,0:0:0:0:
242,258,53559,2,0,P|215:255|185:245,1,55,6|0,0:0|0:0,0:0:0:0:
150,224,53902,2,0,L|179:344,1,110,14|6,0:0|0:0,0:0:0:0:
251,376,54588,1,6,0:0:0:0:
291,298,54931,6,0,P|342:306|391:342,1,110,2|6,0:0|0:0,0:0:0:0:
420,370,55445,2,0,P|446:354|476:342,1,55,8|6,0:0|0:0,0:0:0:0:
485,258,55959,2,0,B|431:168|478:139|426:45,1,220,6|12,0:0|0:0,0:0:0:0:
340,51,56988,6,0,P|284:56|242:90,1,110,6|6,0:0|0:0,0:0:0:0:
229,130,57502,1,8,0:0:0:0:
224,173,57674,2,0,L|239:234,1,55,6|8,0:0|0:0,0:0:0:0:
248,269,58017,2,0,P|201:249|144:256,2,110,6|2|10,0:0|0:0|0:0,0:0:0:0:
309,330,59045,6,0,B|338:322|365:330|365:330|377:311|407:291,1,110,6|0,0:0|0:0,0:0:0:0:
444,277,59559,2,0,L|419:152,1,110,6|0,0:0|0:0,0:0:0:0:
413,125,60074,6,0,P|360:115|317:80,1,110,4|0,0:0|0:0,0:0:0:0:
302,38,60588,1,8,0:0:0:0:
276,73,60759,2,0,P|254:89|229:100,1,55,0|0,0:0|0:0,0:0:0:0:
185,109,61102,6,0,P|160:152|166:210,1,110,6|2,0:0|0:0,0:0:0:0:
212,285,61788,1,2,0:0:0:0:
166,360,62131,2,0,P|123:333|66:337,1,110,14|2,0:0|0:0,0:0:0:0:
29,361,62645,1,0,0:0:0:0:
66,234,63159,6,0,P|74:178|54:122,1,110,6|4,0:0|0:0,0:0:0:0:
31,92,63674,2,0,P|86:80|132:42,1,110,0|4,0:0|0:0,0:0:0:0:
171,46,64188,6,0,P|214:70|223:127,1,110,8|0,0:0|0:0,0:0:0:0:
201,164,64702,1,8,0:0:0:0:
180,203,64874,2,0,L|205:256,1,55,0|0,0:0|0:0,0:0:0:0:
222,292,65217,5,6,0:0:0:0:
309,302,65559,2,0,L|294:371,2,55,2|8|2,0:0|0:0|0:0,0:0:0:0:
386,259,66245,2,0,P|408:312|444:353,2,110,4|10|4,0:0|0:0|0:0,0:0:0:0:
450,198,67274,6,0,P|403:177|360:135,1,110,6|0,0:0|0:0,0:0:0:0:
367,93,67788,2,0,P|320:121|264:115,1,110,0|0,0:0|0:0,0:0:0:0:
228,95,68302,6,0,L|253:203,1,110,8|0,0:0|0:0,0:0:0:0:
288,228,68817,1,0,0:0:0:0:
322,256,68988,2,0,L|339:318,1,55,8|8,0:0|0:0,0:0:0:0:
364,343,69331,6,0,P|311:347|263:385,2,110,6|0|2,0:0|0:0|0:0,0:0:0:0:
450,325,70359,2,0,P|454:272|492:224,1,110,8|2,0:0|0:0,0:0:0:0:
493,183,70874,2,0,L|469:73,1,110,8|0,0:0|0:0,0:0:0:0:
449,36,71388,5,4,0:0:0:0:
290,110,72074,2,0,L|305:171,1,55,2|0,0:0|0:0,0:0:0:0:
315,205,72417,2,0,P|296:254|246:286,1,110,8|0,0:0|0:0,0:0:0:0:
205,290,72931,2,0,L|97:266,1,110,8|0,0:0|0:0,0:0:0:0:
59,244,73445,6,0,P|63:298|41:348,2,110,6|2|8,0:0|0:0|0:0,0:0:0:0:
102,167,74474,2,0,P|80:116|84:62,1,110,4|4,0:0|0:0,0:0:0:0:
164,25,75159,1,8,0:0:0:0:
411,129,77559,6,0,P|419:182|396:231,2,110,6|2|2,0:0|0:0|0:0,0:0:0:0:
383,93,78417,1,8,0:0:0:0:
347,66,78588,2,0,P|305:96|239:92,1,110,2|2,0:0|0:0,0:0:0:0:
164,68,79274,2,0,P|160:95|165:126,1,55,2|8,0:0|0:0,0:0:0:0:
174,165,79617,6,0,P|128:146|68:152,2,110,2|2|2,0:0|0:0|0:0,0:0:0:0:
207,193,80474,1,8,0:0:0:0:
231,229,80645,2,0,L|217:342,1,110,2|2,0:0|0:0,0:0:0:0:
304,352,81331,2,0,P|333:342|359:326,1,55,2|0,0:0|0:0,0:0:0:0:
387,300,81674,6,0,P|356:198|378:147,1,165,2|8,0:0|0:0,0:0:0:0:
419,137,82359,2,0,L|403:83,1,55,2|8,0:0|0:0,0:0:0:0:
402,40,82702,2,0,P|429:43|459:38,2,55,2|0|2,0:0|0:0|0:0,0:0:0:0:
358,29,83217,1,8,0:0:0:0:
314,21,83388,2,0,P|286:16|259:19,1,55,2|8,0:0|0:0,0:0:0:0:
219,37,83731,6,0,L|235:149,1,110,2|2,0:0|0:0,0:0:0:0:
217,232,84417,2,0,L|166:202,1,55,2|8,0:0|0:0,0:0:0:0:
134,177,84759,2,0,P|129:230|91:274,1,110,2|2,0:0|0:0,0:0:0:0:
15,313,85445,2,0,P|68:318|112:356,1,110,2|6,0:0|0:0,0:0:0:0:
197,368,86131,6,0,P|224:363|251:350,2,55,2|8|2,0:0|0:0|0:0,0:0:0:0:
203,279,86817,2,0,P|211:223|195:168,1,110,2|2,0:0|0:0,0:0:0:0:
173,134,87331,1,8,0:0:0:0:
145,99,87502,2,0,L|203:87,1,55,2|8,0:0|0:0,0:0:0:0:
227,53,87845,6,0,P|272:84|326:82,1,110,2|2,0:0|0:0,0:0:0:0:
365,62,88359,1,8,0:0:0:0:
394,28,88531,2,0,L|429:76,1,55,2|8,0:0|0:0,0:0:0:0:
456,105,88874,2,0,P|441:150|454:213,1,110,2|2,0:0|0:0,0:0:0:0:
501,283,89559,2,0,P|456:268|393:281,1,110,2|2,0:0|0:0,0:0:0:0:
330,339,90245,6,0,P|352:358|376:369,2,55,2|8|2,0:0|0:0|0:0,0:0:0:0:
303,303,90759,1,8,0:0:0:0:
288,261,90931,2,0,P|246:292|188:294,1,110,2|2,0:0|0:0,0:0:0:0:
148,279,91445,1,8,0:0:0:0:
114,250,91617,2,0,L|117:191,1,55,2|8,0:0|0:0,0:0:0:0:
116,151,91959,6,0,P|62:142|11:169,2,110,2|2|2,0:0|0:0|0:0,0:0:0:0:
193,192,92988,2,0,P|247:201|298:174,1,110,2|2,0:0|0:0,0:0:0:0:
323,143,93502,1,0,0:0:0:0:
340,102,93674,2,0,L|394:108,1,55,2|0,0:0|0:0,0:0:0:0:
436,120,94017,6,0,P|411:71|414:14,2,110,6|2|2,0:0|0:0|0:0,0:0:0:0:
467,150,94874,1,8,0:0:0:0:
505,170,95045,2,0,L|495:280,1,110,2|2,0:0|0:0,0:0:0:0:
415,317,95731,2,0,P|386:303|367:286,1,55,2|8,0:0|0:0,0:0:0:0:
341,253,96074,6,0,L|345:369,2,110,2|2|2,0:0|0:0|0:0,0:0:0:0:
351,210,96931,1,8,0:0:0:0:
362,167,97102,2,0,L|358:51,1,110,2|2,0:0|0:0,0:0:0:0:
273,33,97788,2,0,P|248:46|218:54,1,55,0|0,0:0|0:0,0:0:0:0:
178,57,98131,6,0,P|155:102|163:163,1,110,2|2,0:0|0:0,0:0:0:0:
188,194,98645,1,8,0:0:0:0:
224,219,98817,2,0,L|209:279,1,55,2|8,0:0|0:0,0:0:0:0:
235,308,99159,2,0,P|263:302|294:299,2,55,2|0|2,0:0|0:0|0:0,0:0:0:0:
193,324,99674,1,8,0:0:0:0:
151,339,99845,2,0,P|123:345|92:348,1,55,2|8,0:0|0:0,0:0:0:0:
52,347,100188,6,0,B|68:298|40:288|61:238,1,110,2|2,0:0|0:0,0:0:0:0:
112,167,100874,2,0,P|142:168|171:177,1,55,2|8,0:0|0:0,0:0:0:0:
205,194,101217,2,0,P|186:139|199:91,1,110,2|2,0:0|0:0,0:0:0:0:
252,20,101902,2,0,P|307:1|355:14,1,110,2|6,0:0|0:0,0:0:0:0:
429,61,102588,6,0,P|453:51|483:45,2,55,2|8|2,0:0|0:0|0:0,0:0:0:0:
382,135,103274,2,0,P|365:182|374:244,1,110,2|2,0:0|0:0,0:0:0:0:
394,279,103788,1,8,0:0:0:0:
428,305,103959,2,0,L|403:363,1,55,2|8,0:0|0:0,0:0:0:0:
364,368,104302,6,0,P|317:351|255:360,1,110,2|2,0:0|0:0,0:0:0:0:
186,308,104988,2,0,L|194:249,1,55,2|8,0:0|0:0,0:0:0:0:
223,220,105331,2,0,P|166:222|119:197,1,110,2|2,0:0|0:0,0:0:0:0:
137,111,106017,2,0,P|194:109|241:134,1,110,2|2,0:0|0:0,0:0:0:0:
309,187,106702,5,2,0:0:0:0:
315,99,107045,2,0,P|325:71|342:43,1,55,2|8,0:0|0:0,0:0:0:0:
368,17,107388,2,0,P|413:43|473:39,1,110,2|2,0:0|0:0,0:0:0:0:
503,121,108074,2,0,P|493:149|476:177,1,55,2|8,0:0|0:0,0:0:0:0:
453,205,108417,6,0,P|479:249|495:309,2,110,2|2|2,0:0|0:0|0:0,0:0:0:0:
421,173,109274,1,8,0:0:0:0:
380,157,109445,6,0,L|320:170,1,55,2|2,0:0|0:0,0:0:0:0:
286,188,109788,2,0,L|232:176,1,55,8|2,0:0|0:0,0:0:0:0:
188,171,110131,2,0,L|134:182,1,55,8|8,0:0|0:0,0:0:0:0:
91,192,110474,5,6,0:0:0:0:
256,192,110559,12,4,114588,0:0:0:0:
