osu file format v14

[General]
AudioFilename: audio.mp3
AudioLeadIn: 0
PreviewTime: 77559
Countdown: 0
SampleSet: Soft
StackLeniency: 0.7
Mode: 0
LetterboxInBreaks: 0
EpilepsyWarning: 1
WidescreenStoryboard: 1

[Editor]
DistanceSpacing: 1.2
BeatDivisor: 4
GridSize: 32
TimelineZoom: 1.9

[Metadata]
Title:Following Flow
TitleUnicode:Following Flow
Artist:Nekomata Master
ArtistUnicode:猫叉Master
Creator:Beomsan
Version:Hard
Source:REFLEC BEAT colette -Spring-
Tags:RB Naoyuki Sato plus follow slowly Beom Down Cellina
BeatmapID:1091440
BeatmapSetID:511699

[Difficulty]
HPDrainRate:5
CircleSize:4
OverallDifficulty:6.5
ApproachRate:7.5
SliderMultiplier:1.4
SliderTickRate:1

[Events]
//Background and Video events
0,0,"#333.png",0,0
//Break Periods
//Storyboard Layer 0 (Background)
//Storyboard Layer 1 (Fail)
//Storyboard Layer 2 (Pass)
//Storyboard Layer 3 (Foreground)
//Storyboard Sound Samples

[TimingPoints]
417,342.857142857143,3,1,0,100,1,0
1102,-133.333333333333,3,2,2,20,0,0
1445,-111.111111111111,3,2,5,40,0,0
1617,-111.111111111111,3,2,1,40,0,0
2474,-111.111111111111,3,2,2,40,0,0
2645,-111.111111111111,3,2,1,40,0,0
4531,-111.111111111111,3,2,3,40,0,0
4702,-111.111111111111,3,2,1,40,0,0
5388,-111.111111111111,3,2,3,40,0,0
5902,-111.111111111111,3,2,0,40,0,0
6588,-111.111111111111,3,2,3,30,0,0
7617,-111.111111111111,3,2,3,30,0,0
7959,-111.111111111111,3,2,0,40,0,0
8645,-111.111111111111,3,2,2,60,0,0
9674,-100,3,2,10,60,0,0
9845,-100,3,2,1,60,0,0
13788,-100,3,2,2,60,0,0
14131,-100,3,2,0,60,0,0
14817,-100,3,2,1,60,0,0
15845,-100,3,2,20,60,0,0
16017,-100,3,2,1,60,0,0
17902,-100,3,2,10,48,0,0
18245,-100,3,2,1,48,0,0
20988,-100,3,2,1,44,0,0
22017,-100,3,2,1,39,0,0
23045,-100,3,2,1,35,0,0
24074,-100,3,2,1,30,0,0
25445,-100,3,3,1,60,0,0
26131,-100,3,2,20,80,0,0
26302,-100,3,2,1,60,0,0
34359,-100,3,2,20,60,0,0
34531,-100,3,2,1,60,0,0
41559,-100,3,2,2,60,0,0
41902,-100,3,2,1,60,0,0
42588,-100,3,2,10,60,0,0
42759,-100,3,2,1,60,0,0
50817,-100,3,2,20,60,0,0
50988,-100,3,2,1,60,0,0
58017,-100,3,2,30,60,0,0
58702,-100,3,2,1,60,0,0
59045,-133.333333333333,3,2,10,80,0,0
59388,-133.333333333333,3,2,1,60,0,0
60074,-100,3,2,20,40,0,0
60159,-100,3,2,1,40,0,0
61102,-100,3,2,10,60,0,0
61359,-100,3,2,1,5,0,0
61445,-100,3,2,1,60,0,0
62645,-100,3,2,4,60,0,0
62988,-100,3,2,1,60,0,0
63159,-133.333333333333,3,2,10,80,0,0
63502,-133.333333333333,3,2,1,60,0,0
64188,-100,3,2,1,40,0,0
65217,-100,3,2,20,80,0,0
65474,-100,3,2,1,60,0,0
65559,-100,3,2,1,60,0,0
65902,-100,3,2,2,60,0,0
66245,-100,3,2,1,60,0,0
67274,-133.333333333333,3,2,10,80,0,0
67617,-133.333333333333,3,2,1,60,0,0
68302,-100,3,2,1,40,0,0
69331,-100,3,2,20,80,0,0
69845,-100,3,2,1,60,0,0
71388,-100,3,2,20,80,0,0
71731,-100,3,2,1,60,0,0
73445,-100,3,2,20,60,0,0
73617,-100,3,2,1,60,0,0
74474,-100,3,2,20,60,0,0
74645,-100,3,2,1,60,0,0
74817,-100,3,2,10,60,0,0
74988,-100,3,2,1,60,0,0
75502,-100,3,2,5,60,0,0
77559,-90.9090909090909,3,2,10,80,0,1
77731,-90.9090909090909,3,2,1,80,0,1
81159,-90.9090909090909,3,2,3,80,0,1
81331,-90.9090909090909,3,2,1,80,0,1
85788,-90.9090909090909,3,2,10,80,0,1
85959,-90.9090909090909,3,2,1,80,0,1
92645,-90.9090909090909,3,2,1,60,0,1
92988,-90.9090909090909,3,2,1,70,0,1
93331,-90.9090909090909,3,2,1,75,0,1
93674,-90.9090909090909,3,2,1,80,0,1
94017,-90.9090909090909,3,2,10,80,0,1
94188,-90.9090909090909,3,2,1,80,0,1
96417,-90.9090909090909,3,2,3,80,0,1
96588,-90.9090909090909,3,2,1,80,0,1
97617,-90.9090909090909,3,2,3,80,0,1
97788,-90.9090909090909,3,2,1,80,0,1
102245,-90.9090909090909,3,2,20,80,0,1
102417,-90.9090909090909,3,2,1,80,0,1
106702,-90.9090909090909,3,2,3,80,0,1
106874,-90.9090909090909,3,2,1,80,0,1
110474,-90.9090909090909,3,2,10,100,0,0
110559,-90.9090909090909,3,2,1,60,0,0
111502,-90.9090909090909,3,2,1,52,0,0
112531,-90.9090909090909,3,2,1,45,0,0
113559,-90.9090909090909,3,2,1,35,0,0
114502,-90.9090909090909,3,2,1,20,0,0
114588,-90.9090909090909,3,2,30,60,0,0

[Colours]
Combo1 : 96,175,255
Combo2 : 142,30,255

[HitObjects]
397,199,1102,6,0,L|340:183,1,52.5000020027161
277,222,1445,6,0,P|272:160|316:112,2,125.999996154785,6|2|2,0:0|0:0|0:0,0:0:0:0:
333,277,2302,1,0,0:0:0:0:
256,295,2474,6,0,P|198:301|142:257,1,125.999996154785,10|2,0:0|0:0,0:0:0:0:
117,189,2988,2,0,B|141:168|148:147|148:147|132:111|144:70,1,125.999996154785,0|0,0:0|0:0,0:0:0:0:
216,103,3502,6,0,P|277:100|316:147,1,125.999996154785,2|2,0:0|0:0,0:0:0:0:
382,190,4017,2,0,P|412:176|438:154,2,62.9999980773926,0|2|0,0:0|0:0|0:0,0:0:0:0:
310,224,4531,6,0,P|280:273|312:327,1,125.999996154785,6|2,0:0|0:0,0:0:0:0:
385,355,5045,2,0,B|443:330|455:377|510:349,1,125.999996154785,0|2,0:0|0:0,0:0:0:0:
474,278,5559,5,6,0:0:0:0:
455,201,5731,1,0,0:0:0:0:
460,122,5902,2,0,L|499:106,4,31.4999990386963,2|0|0|0|2,0:0|0:0|0:0|0:0|0:0,0:0:0:0:
386,152,6417,1,0,0:0:0:0:
307,154,6588,6,0,P|330:97|391:74,1,125.999996154785,6|4,0:0|0:0,0:0:0:0:
349,228,7102,2,0,B|222:241|223:241,1,125.999996154785,2|0,0:0|0:0,0:0:0:0:
148,214,7617,5,6,0:0:0:0:
112,143,7788,1,0,0:0:0:0:
130,66,7959,2,0,L|167:52,4,31.4999990386963,2|0|0|0|2,0:0|0:0|0:0|0:0|0:0,0:0:0:0:
52,82,8474,1,0,0:0:0:0:
27,153,8645,6,0,P|34:183|52:209,1,62.9999980773926,2|0,0:0|0:0,0:0:0:0:
43,284,8988,2,0,L|111:294,1,62.9999980773926,2|0,0:0|0:0,0:0:0:0:
129,221,9331,2,0,L|197:231,1,62.9999980773926,2|0,0:0|0:0,0:0:0:0:
227,306,9674,6,0,P|287:276|355:300,1,140,6|6,0:0|0:0,0:0:0:0:
431,268,10188,1,0,0:0:0:0:
483,202,10359,2,0,P|492:168|494:132,1,70,6|0,0:0|0:0,0:0:0:0:
433,74,10702,6,0,B|395:69|366:88|366:88|352:125|317:141,1,140,12|6,0:0|0:0,0:0:0:0:
191,139,11217,2,0,B|160:125|146:88|146:88|117:69|79:74,1,140,8|0,0:0|0:0,0:0:0:0:
98,155,11731,6,0,P|125:183|154:203,1,70,6|0,0:0|0:0,0:0:0:0:
233,213,12074,2,0,L|220:293,2,70,6|8|6,0:0|0:0|0:0,0:0:0:0:
299,280,12588,1,8,0:0:0:0:
250,354,12759,6,0,P|209:358|145:288,1,140,12|6,0:0|0:0,0:0:0:0:
206,140,13274,2,0,P|247:136|311:206,1,140,8|0,0:0|0:0,0:0:0:0:
394,204,13788,6,0,P|404:166|406:130,1,70,8|0,0:0|0:0,0:0:0:0:
448,62,14131,2,0,P|468:67|487:78,4,35,2|0|0|0|2,0:0|0:0|0:0|0:0|0:0,0:0:0:0:
363,58,14645,1,0,0:0:0:0:
286,21,14817,2,0,B|263:85|304:91|279:159,1,140,8|2,0:0|0:0,0:0:0:0:
149,158,15331,2,0,B|174:90|133:84|156:20,1,140,8|0,0:0|0:0,0:0:0:0:
77,115,15845,5,6,0:0:0:0:
75,199,16017,1,8,0:0:0:0:
21,263,16188,2,0,P|13:293|10:332,1,70,6|0,0:0|0:0,0:0:0:0:
92,347,16531,2,0,P|100:317|103:278,1,70,8|0,0:0|0:0,0:0:0:0:
166,222,16874,6,0,P|232:215|285:261,1,140,14|6,0:0|0:0,0:0:0:0:
208,297,17388,1,8,0:0:0:0:
270,352,17559,1,8,0:0:0:0:
349,316,17731,1,8,0:0:0:0:
478,214,17902,6,0,P|423:174|351:194,1,140,6|6,0:0|0:0,0:0:0:0:
295,245,18417,1,0,0:0:0:0:
272,164,18588,2,0,P|276:126|289:91,1,70,6|0,0:0|0:0,0:0:0:0:
214,221,18931,6,0,P|176:217|141:204,2,70,6|0|6,0:0|0:0|0:0,0:0:0:0:
295,245,19445,1,0,0:0:0:0:
234,304,19617,2,0,P|240:338|253:372,1,70,6|0,0:0|0:0,0:0:0:0:
336,364,19959,6,0,P|370:358|404:345,1,70,6|0,0:0|0:0,0:0:0:0:
445,272,20302,2,0,P|479:278|513:291,2,70,6|0|6,0:0|0:0|0:0,0:0:0:0:
388,211,20817,1,0,0:0:0:0:
365,130,20988,6,0,P|369:92|382:57,1,70,6|0,0:0|0:0,0:0:0:0:
307,187,21331,2,0,P|269:183|234:170,2,70,6|0|6,0:0|0:0|0:0,0:0:0:0:
388,211,21845,1,0,0:0:0:0:
323,265,22017,6,0,P|319:303|306:338,1,70,6|0,0:0|0:0,0:0:0:0:
233,370,22359,1,6,0:0:0:0:
239,285,22531,1,0,0:0:0:0:
160,313,22702,2,0,P|131:299|98:274,1,70,6|0,0:0|0:0,0:0:0:0:
68,198,23045,6,0,P|68:163|63:125,1,70,6|0,0:0|0:0,0:0:0:0:
43,46,23388,1,2,0:0:0:0:
124,65,23559,1,0,0:0:0:0:
205,42,23731,2,0,P|242:48|274:62,1,70,2|0,0:0|0:0,0:0:0:0:
218,126,24074,6,0,P|213:160|213:195,1,70,2|0,0:0|0:0,0:0:0:0:
238,276,24417,1,2,0:0:0:0:
299,332,24588,1,0,0:0:0:0:
381,348,24759,2,0,P|414:332|443:312,1,70,2|0,0:0|0:0,0:0:0:0:
493,246,25102,6,0,L|514:275,2,35,0|0|0,0:0|0:0|0:0,0:0:0:0:
339,196,25445,1,8,0:0:0:0:
408,147,25617,2,0,L|437:126,5,35,0|0|0|0|0|0,0:0|0:0|0:0|0:0|0:0|0:0,0:0:0:0:
467,98,26131,6,0,P|400:98|348:49,1,140,6|6,0:0|0:0,0:0:0:0:
268,26,26645,1,0,0:0:0:0:
192,64,26817,5,6,0:0:0:0:
192,64,26931,2,0,L|146:58,2,46.6666666666667,0|0|6,0:0|0:0|0:0,0:0:0:0:
328,161,27502,2,0,P|345:234|309:284,1,140,6|6,0:0|0:0,0:0:0:0:
226,301,28017,1,0,0:0:0:0:
142,298,28188,6,0,P|105:240|123:175,1,140,6|6,0:0|0:0,0:0:0:0:
192,224,28702,1,0,0:0:0:0:
192,139,28874,2,0,P|167:111|133:97,1,70,6|0,0:0|0:0,0:0:0:0:
54,83,29217,6,0,B|62:50|84:32|84:32|168:18,1,140,4|6,0:0|0:0,0:0:0:0:
235,60,29731,1,0,0:0:0:0:
315,36,29902,2,0,L|344:102,1,70,4|0,0:0|0:0,0:0:0:0:
424,123,30245,6,0,P|442:189|404:246,1,140,6|6,0:0|0:0,0:0:0:0:
363,176,30759,1,0,0:0:0:0:
323,250,30931,5,6,0:0:0:0:
323,250,31045,2,0,L|338:298,2,46.6666666666667,0|0|6,0:0|0:0|0:0,0:0:0:0:
196,138,31617,2,0,B|165:148|136:136|136:136|91:141|71:184,1,140,6|6,0:0|0:0,0:0:0:0:
53,260,32131,1,0,0:0:0:0:
65,342,32302,6,0,P|121:306|130:232,1,140,6|6,0:0|0:0,0:0:0:0:
214,220,32817,1,0,0:0:0:0:
210,303,32988,2,0,P|196:337|176:364,1,70,6|0,0:0|0:0,0:0:0:0:
214,220,33331,6,0,L|351:251,1,140,6|2,0:0|0:0,0:0:0:0:
412,307,33845,1,0,0:0:0:0:
424,223,34017,2,0,P|420:186|411:151,1,70,0|0,0:0|0:0,0:0:0:0:
316,27,34359,6,0,P|299:94|234:118,1,140,6|2,0:0|0:0,0:0:0:0:
164,76,34874,1,8,0:0:0:0:
167,159,35045,5,2,0:0:0:0:
167,159,35159,2,0,L|157:211,2,46.6666666666667,0|0|2,0:0|0:0|0:0,0:0:0:0:
32,260,35731,2,0,P|90:290|103:360,1,140,2|2,0:0|0:0,0:0:0:0:
29,337,36245,1,0,0:0:0:0:
173,281,36417,6,0,B|202:274|219:254|219:254|264:237|305:275,1,140,2|2,0:0|0:0,0:0:0:0:
246,336,36931,1,8,0:0:0:0:
329,342,37102,2,0,P|357:322|373:289,1,70,2|0,0:0|0:0,0:0:0:0:
358,207,37445,2,0,L|334:63,1,140,0|8,0:0|0:0,0:0:0:0:
170,105,38131,6,0,P|154:87|145:64,2,46.6666666666667,0|0|0,0:0|0:0|0:0,0:0:0:0:
217,134,38474,2,0,P|148:133|105:187,1,140,2|2,0:0|0:0,0:0:0:0:
266,203,38988,1,8,0:0:0:0:
182,206,39159,2,0,L|195:281,1,70,2|0,0:0|0:0,0:0:0:0:
191,359,39502,6,0,B|165:360|140:340|140:340|117:364|89:372|57:364,1,140,2|2,0:0|0:0,0:0:0:0:
80,282,40017,1,0,0:0:0:0:
32,213,40188,2,0,P|35:176|46:141,1,70,2|0,0:0|0:0,0:0:0:0:
85,70,40531,6,0,B|97:51|105:29|105:29|104:85|142:114,1,140,2|2,0:0|0:0,0:0:0:0:
289,60,41045,1,8,0:0:0:0:
193,41,41217,1,2,0:0:0:0:
227,131,41388,6,0,L|220:167,2,35,0|0|10,0:0|0:0|0:0,0:0:0:0:
402,193,41902,2,0,P|430:255|402:318,1,140,14|14,0:0|0:0,0:0:0:0:
241,365,42588,6,0,P|213:302|239:239,1,140,6|6,0:0|0:0,0:0:0:0:
297,300,43102,1,8,0:0:0:0:
314,217,43274,5,6,0:0:0:0:
314,217,43388,2,0,P|310:195|302:172,2,46.6666666666667,0|0|6,0:0|0:0|0:0,0:0:0:0:
383,64,43959,2,0,P|326:27|257:32,1,140,6|14,0:0|0:0,0:0:0:0:
186,80,44474,1,0,0:0:0:0:
109,45,44645,6,0,L|88:185,1,140,6|6,0:0|0:0,0:0:0:0:
12,146,45159,1,8,0:0:0:0:
21,229,45331,2,0,P|50:255|83:264,1,70,4|8,0:0|0:0,0:0:0:0:
155,228,45674,6,0,B|182:293|133:293|164:366,1,140,6|6,0:0|0:0,0:0:0:0:
235,321,46188,1,0,0:0:0:0:
242,237,46359,2,0,P|230:195|211:168,1,70,12|0,0:0|0:0,0:0:0:0:
162,108,46702,6,0,P|225:89|285:125,1,140,6|6,0:0|0:0,0:0:0:0:
326,199,47217,1,8,0:0:0:0:
363,124,47388,5,6,0:0:0:0:
363,124,47502,2,0,L|385:80,2,46.6666666666667,0|0|6,0:0|0:0|0:0,0:0:0:0:
376,292,48074,2,0,P|341:303|307:303,1,70,6|0,0:0|0:0,0:0:0:0:
239,254,48417,2,0,P|204:243|170:243,1,70,12|0,0:0|0:0,0:0:0:0:
112,302,48759,6,0,P|138:234|110:170,1,140,6|6,0:0|0:0,0:0:0:0:
54,235,49274,1,8,0:0:0:0:
31,315,49445,2,0,P|47:348|69:372,1,70,6|0,0:0|0:0,0:0:0:0:
153,377,49788,6,0,L|300:350,1,140,6|6,0:0|0:0,0:0:0:0:
374,363,50302,2,0,P|366:326|346:294,1,70,8|6,0:0|0:0,0:0:0:0:
271,266,50645,1,8,0:0:0:0:
309,109,50817,6,0,P|336:175|396:199,1,140,6|6,0:0|0:0,0:0:0:0:
390,114,51331,1,8,0:0:0:0:
352,38,51502,5,6,0:0:0:0:
352,38,51617,2,0,P|329:29|304:26,2,46.6666666666667,0|0|6,0:0|0:0|0:0,0:0:0:0:
230,154,52188,2,0,P|163:154|124:95,1,140,6|14,0:0|0:0,0:0:0:0:
125,14,52702,1,0,0:0:0:0:
50,53,52874,6,0,B|27:200|27:199,1,140,6|6,0:0|0:0,0:0:0:0:
15,274,53388,1,8,0:0:0:0:
92,241,53559,2,0,P|126:238|161:245,1,70,6|0,0:0|0:0,0:0:0:0:
198,320,53902,6,0,L|270:303,1,70,14|0,0:0|0:0,0:0:0:0:
350,311,54245,2,0,P|350:345|338:384,2,70,6|8|6,0:0|0:0|0:0,0:0:0:0:
341,255,54702,6,0,L|349:205,1,46.6666666666667,0|0,0:0|0:0,0:0:0:0:
394,176,54931,2,0,P|333:152|313:84,1,140,2|6,0:0|0:0,0:0:0:0:
369,23,55445,1,8,0:0:0:0:
285,8,55617,2,0,P|256:26|234:60,1,70,6|0,0:0|0:0,0:0:0:0:
235,138,55959,6,0,B|185:138|185:138|155:122|155:122|95:124,1,140,6|6,0:0|0:0,0:0:0:0:
131,202,56474,1,0,0:0:0:0:
90,275,56645,2,0,P|95:310|107:344,1,70,12|0,0:0|0:0,0:0:0:0:
187,366,56988,6,0,P|252:347|285:285,1,140,6|6,0:0|0:0,0:0:0:0:
200,280,57502,1,8,0:0:0:0:
248,210,57674,2,0,P|280:204|319:211,1,70,6|8,0:0|0:0,0:0:0:0:
369,275,58017,6,0,L|352:134,1,140,6|2,0:0|0:0,0:0:0:0:
386,59,58531,1,0,0:0:0:0:
302,61,58702,2,0,P|272:46|241:23,1,70,10|8,0:0|0:0,0:0:0:0:
165,58,59045,6,0,B|142:75|132:99|132:99|143:122|166:139,1,105.000004005432,6|0,0:0|0:0,0:0:0:0:
215,206,59559,2,0,P|194:252|204:308,1,105.000004005432,6|0,0:0|0:0,0:0:0:0:
271,353,60074,6,0,B|313:338|330:317|330:317|348:338|391:355,1,140,4|0,0:0|0:0,0:0:0:0:
397,270,60588,1,8,0:0:0:0:
321,234,60759,2,0,P|285:246|259:273,1,70,0|0,0:0|0:0,0:0:0:0:
397,270,61102,6,0,L|395:124,1,140,6|2,0:0|0:0,0:0:0:0:
476,106,61617,1,0,0:0:0:0:
413,50,61788,2,0,P|377:50|343:67,1,70,2|0,0:0|0:0,0:0:0:0:
310,140,62131,6,0,B|252:120|238:155|165:132,1,140,14|2,0:0|0:0,0:0:0:0:
120,67,62645,2,0,P|137:133|108:199,1,140,2|2,0:0|0:0,0:0:0:0:
47,254,63159,6,0,P|93:281|144:275,1,105.000004005432,6|4,0:0|0:0,0:0:0:0:
217,236,63674,2,0,P|263:263|314:257,1,105.000004005432,0|4,0:0|0:0,0:0:0:0:
386,216,64188,2,0,B|385:164|385:164|368:130|368:130|365:77,1,140,8|0,0:0|0:0,0:0:0:0:
445,106,64702,1,8,0:0:0:0:
466,187,64874,2,0,L|466:263,1,70,0|0,0:0|0:0,0:0:0:0:
501,333,65217,6,0,B|441:354|427:320|362:338,1,140,6|2,0:0|0:0,0:0:0:0:
285,371,65731,1,8,0:0:0:0:
205,344,65902,2,0,P|194:308|191:274,1,70,2|0,0:0|0:0,0:0:0:0:
252,218,66245,6,0,P|281:240|314:250,2,70,4|4|10,0:0|0:0|0:0,0:0:0:0:
171,192,66759,2,0,P|142:214|109:224,2,70,4|4|8,0:0|0:0|0:0,0:0:0:0:
230,132,67274,6,0,P|186:109|132:118,1,105.000004005432,6|0,0:0|0:0,0:0:0:0:
56,152,67788,2,0,L|65:43,1,105.000004005432,0|0,0:0|0:0,0:0:0:0:
148,35,68302,6,0,P|218:39|278:77,1,140,8|0,0:0|0:0,0:0:0:0:
334,136,68817,1,0,0:0:0:0:
416,149,68988,2,0,P|451:139|484:122,1,70,8|8,0:0|0:0,0:0:0:0:
366,212,69331,6,0,B|349:255|351:304|384:350|384:350|378:316|394:287,1,210,6|0,0:0|0:0,0:0:0:0:
283,236,70017,2,0,P|280:272|284:311,1,70,2|0,0:0|0:0,0:0:0:0:
213,351,70359,2,0,P|156:335|201:302,1,140,8|2,0:0|0:0,0:0:0:0:
187,217,70874,2,0,P|120:217|78:163,1,140,8|0,0:0|0:0,0:0:0:0:
102,82,71388,6,0,B|122:50|127:14|127:14|125:79|163:68|155:152,1,210,4|0,0:0|0:0,0:0:0:0:
232,112,72074,2,0,P|225:75|208:34,1,70,2|0,0:0|0:0,0:0:0:0:
297,45,72417,6,0,P|316:72|305:176,1,140,8|0,0:0|0:0,0:0:0:0:
226,198,72931,2,0,L|252:341,1,140,8|0,0:0|0:0,0:0:0:0:
331,361,73445,6,0,P|361:342|383:313,1,70,6|0,0:0|0:0,0:0:0:0:
416,238,73788,2,0,P|447:257|481:266,1,70,2|0,0:0|0:0,0:0:0:0:
412,150,74131,2,0,P|378:159|348:177,1,70,8|0,0:0|0:0,0:0:0:0:
329,259,74474,5,4,0:0:0:0:
329,259,74645,1,0,0:0:0:0:
271,197,74817,1,4,0:0:0:0:
271,197,74988,1,4,0:0:0:0:
192,227,75159,6,0,L|172:269,4,35,8|8|8|8|2,0:0|0:0|0:0|0:0|0:0,0:0:0:0:
355,68,77559,6,0,P|389:86|413:116,1,77.0000023498536,6|0,0:0|0:0,0:0:0:0:
472,170,77902,2,0,P|440:190|403:197,1,77.0000023498536,2|8,0:0|0:0,0:0:0:0:
325,222,78245,2,0,P|323:184|338:149,1,77.0000023498536,2|8,0:0|0:0,0:0:0:0:
385,282,78588,6,0,L|312:307,1,77.0000023498536,2|0,0:0|0:0,0:0:0:0:
231,332,78931,2,0,P|229:293|243:258,1,77.0000023498536,2|8,0:0|0:0,0:0:0:0:
207,172,79274,1,2,0:0:0:0:
207,172,79445,1,8,0:0:0:0:
128,219,79617,6,0,P|89:222|51:240,1,77.0000023498536,2|0,0:0|0:0,0:0:0:0:
14,163,79959,2,0,L|31:79,1,77.0000023498536,2|8,0:0|0:0,0:0:0:0:
95,34,80302,2,0,P|134:37|172:55,1,77.0000023498536,2|8,0:0|0:0,0:0:0:0:
244,89,80645,6,0,L|259:164,1,77.0000023498536,2|8,0:0|0:0,0:0:0:0:
325,111,80988,1,2,0:0:0:0:
302,29,81159,1,2,0:0:0:0:
333,193,81331,2,0,P|311:226|275:247,1,77.0000023498536,2|0,0:0|0:0,0:0:0:0:
197,222,81674,6,0,P|124:237|92:304,1,154.000004699707,2|2,0:0|0:0,0:0:0:0:
174,302,82188,1,8,0:0:0:0:
119,156,82359,2,0,P|83:174|56:201,1,77.0000023498536,2|8,0:0|0:0,0:0:0:0:
141,64,82702,6,0,P|125:30|92:-3,2,77.0000023498536,2|0|2,0:0|0:0|0:0,0:0:0:0:
203,121,83217,2,0,P|237:104|270:72,1,77.0000023498536,8|2,0:0|0:0,0:0:0:0:
306,4,83559,1,8,0:0:0:0:
349,76,83731,6,0,P|346:149|408:198,1,154.000004699707,2|2,0:0|0:0,0:0:0:0:
478,172,84245,2,0,P|481:211|468:246,1,77.0000023498536,8|2,0:0|0:0,0:0:0:0:
422,116,84588,1,8,0:0:0:0:
396,275,84759,2,0,B|361:271|329:251|329:251|340:294|324:337,1,154.000004699707,2|2,0:0|0:0,0:0:0:0:
233,189,85445,6,0,P|238:159|251:129,2,51.3333348999024,2|0|0,0:0|0:0|0:0,0:0:0:0:
231,245,85788,2,0,P|175:196|105:220,1,154.000004699707,6|2,0:0|0:0,0:0:0:0:
61,291,86302,2,0,L|73:370,2,77.0000023498536,8|2|8,0:0|0:0|0:0,0:0:0:0:
27,212,86817,6,0,P|20:133|60:72,1,154.000004699707,2|2,0:0|0:0,0:0:0:0:
133,31,87331,1,8,0:0:0:0:
136,115,87502,2,0,P|171:104|205:73,1,77.0000023498536,2|8,0:0|0:0,0:0:0:0:
246,6,87845,6,0,P|232:78|272:150,1,154.000004699707,2|2,0:0|0:0,0:0:0:0:
343,187,88359,1,8,0:0:0:0:
427,178,88531,2,0,P|462:160|490:132,1,77.0000023498536,2|8,0:0|0:0,0:0:0:0:
394,257,88874,6,0,P|435:328|503:348,2,154.000004699707,2|2|2,0:0|0:0|0:0,0:0:0:0:
350,294,89674,2,0,L|292:308,1,51.3333348999024
267,351,89902,6,0,B|295:283|252:264|288:199,1,154.000004699707,2|2,0:0|0:0,0:0:0:0:
340,134,90417,2,0,P|313:110|292:67,2,77.0000023498536,8|2|8,0:0|0:0|0:0,0:0:0:0:
421,156,90931,6,0,P|474:129|416:112,1,154.000004699707,2|2,0:0|0:0,0:0:0:0:
376,231,91445,1,8,0:0:0:0:
313,288,91617,2,0,P|276:290|231:274,1,77.0000023498536,2|8,0:0|0:0,0:0:0:0:
171,225,91959,6,0,L|150:308,1,77.0000023498536,2|0,0:0|0:0,0:0:0:0:
70,277,92302,2,0,L|91:194,1,77.0000023498536,2|0,0:0|0:0,0:0:0:0:
148,142,92645,6,0,P|128:129|110:108,2,51.3333348999024,2|0|0,0:0|0:0|0:0,0:0:0:0:
204,143,92988,2,0,P|267:106|341:136,1,154.000004699707,2|2,0:0|0:0,0:0:0:0:
392,197,93502,1,0,0:0:0:0:
324,248,93674,2,0,L|267:176,1,77.0000023498536,2|0,0:0|0:0,0:0:0:0:
130,61,94017,6,0,P|96:79|73:110,1,77.0000023498536,6|0,0:0|0:0,0:0:0:0:
11,163,94360,2,0,P|44:184|82:191,1,77.0000023498536,2|8,0:0|0:0,0:0:0:0:
159,215,94703,2,0,P|162:177|148:142,1,77.0000023498536,2|8,0:0|0:0,0:0:0:0:
100,275,95046,6,0,L|173:300,1,77.0000023498536,2|0,0:0|0:0,0:0:0:0:
255,325,95389,2,0,P|257:286|243:251,1,77.0000023498536,2|8,0:0|0:0,0:0:0:0:
279,165,95732,1,2,0:0:0:0:
279,165,95903,1,8,0:0:0:0:
358,213,96075,6,0,P|396:215|431:231,1,77.0000023498536,2|0,0:0|0:0,0:0:0:0:
472,157,96417,2,0,L|456:81,1,77.0000023498536,2|8,0:0|0:0,0:0:0:0:
391,28,96760,2,0,P|352:30|317:46,1,77.0000023498536,2|8,0:0|0:0,0:0:0:0:
241,83,97103,6,0,L|226:158,1,77.0000023498536,2|8,0:0|0:0,0:0:0:0:
160,105,97446,1,2,0:0:0:0:
183,23,97617,1,0,0:0:0:0:
153,187,97789,2,0,P|176:216|212:235,1,77.0000023498536,0|0,0:0|0:0,0:0:0:0:
291,259,98131,6,0,P|222:278|191:352,1,154.000004699707,2|2,0:0|0:0,0:0:0:0:
275,342,98645,1,8,0:0:0:0:
356,316,98817,2,0,P|371:279|370:237,1,77.0000023498536,2|8,0:0|0:0,0:0:0:0:
350,160,99159,6,0,L|425:174,2,77.0000023498536,2|0|2,0:0|0:0|0:0,0:0:0:0:
319,79,99674,2,0,P|289:107|254:125,1,77.0000023498536,8|2,0:0|0:0,0:0:0:0:
174,142,100017,1,8,0:0:0:0:
108,88,100188,6,0,P|92:161|142:221,1,154.000004699707,2|2,0:0|0:0,0:0:0:0:
223,215,100702,2,0,L|211:301,1,77.0000023498536,8|2,0:0|0:0,0:0:0:0:
202,375,101045,1,8,0:0:0:0:
301,249,101217,6,0,P|374:256|416:319,1,154.000004699707,2|2,0:0|0:0,0:0:0:0:
461,155,101902,6,0,P|485:144|510:128,2,51.3333348999024,2|0|0,0:0|0:0|0:0,0:0:0:0:
419,194,102245,6,0,B|422:120|375:117|386:43,1,154.000004699707,6|2,0:0|0:0,0:0:0:0:
468,65,102759,1,8,0:0:0:0:
333,175,102931,1,2,0:0:0:0:
333,175,103274,6,0,P|324:212|325:252,1,77.0000023498536,2|0,0:0|0:0,0:0:0:0:
341,334,103617,2,0,L|264:313,1,77.0000023498536,2|8,0:0|0:0,0:0:0:0:
214,247,103959,2,0,L|139:267,1,77.0000023498536,2|8,0:0|0:0,0:0:0:0:
88,335,104302,6,0,P|113:260|87:192,1,154.000004699707,2|2,0:0|0:0,0:0:0:0:
28,130,104817,1,8,0:0:0:0:
82,65,104988,2,0,P|113:91|147:108,1,77.0000023498536,2|8,0:0|0:0,0:0:0:0:
184,182,105331,6,0,P|251:160|333:170,1,154.000004699707,2|2,0:0|0:0,0:0:0:0:
412,198,105845,1,0,0:0:0:0:
347,253,106017,6,0,L|361:307,2,51.3333348999024,2|0|0,0:0|0:0|0:0,0:0:0:0:
292,238,106359,6,0,P|255:236|217:250,2,77.0000023498536,2|0|2,0:0|0:0|0:0,0:0:0:0:
332,169,106874,2,0,P|370:170|406:157,2,77.0000023498536,8|2|8,0:0|0:0|0:0,0:0:0:0:
279,101,107388,6,0,P|208:81|144:130,1,154.000004699707,2|2,0:0|0:0,0:0:0:0:
61,120,107902,1,8,0:0:0:0:
100,195,108074,2,0,P|109:228|110:279,1,77.0000023498536,2|8,0:0|0:0,0:0:0:0:
193,290,108417,6,0,L|201:372,2,77.0000023498536,2|0|2,0:0|0:0|0:0,0:0:0:0:
277,291,108931,2,0,L|284:214,2,77.0000023498536,8|2|8,0:0|0:0|0:0,0:0:0:0:
355,357,109445,6,0,L|362:280,1,77.0000023498536,2|2,0:0|0:0,0:0:0:0:
405,207,109788,2,0,P|433:239|464:261,2,77.0000023498536,8|2|8,0:0|0:0|0:0,0:0:0:0:
365,131,110302,1,8,0:0:0:0:
216,187,110474,5,6,0:0:0:0:
256,192,110559,12,4,114588,0:0:0:0:
