osu file format v14

[General]
AudioFilename: audio.mp3
AudioLeadIn: 0
PreviewTime: 77559
Countdown: 0
SampleSet: Soft
StackLeniency: 0.7
Mode: 0
LetterboxInBreaks: 0
EpilepsyWarning: 1
WidescreenStoryboard: 1

[Editor]
DistanceSpacing: 0.8
BeatDivisor: 4
GridSize: 32
TimelineZoom: 1.9

[Metadata]
Title:Following Flow
TitleUnicode:Following Flow
Artist:Nekomata Master
ArtistUnicode:猫叉Master
Creator:Beomsan
Version:Another
Source:REFLEC BEAT colette -Spring-
Tags:RB Naoyuki Sato plus follow slowly Beom Down Cellina
BeatmapID:1087689
BeatmapSetID:511699

[Difficulty]
HPDrainRate:6
CircleSize:4
OverallDifficulty:7.7
ApproachRate:9
SliderMultiplier:1.6
SliderTickRate:1

[Events]
//Background and Video events
0,0,"#333.png",0,0
//Break Periods
//Storyboard Layer 0 (Background)
//Storyboard Layer 1 (Fail)
//Storyboard Layer 2 (Pass)
//Storyboard Layer 3 (Foreground)
//Storyboard Sound Samples

[TimingPoints]
417,342.857142857143,3,1,0,100,1,0
1102,-153.846153846154,3,2,2,20,0,0
1445,-125,3,2,5,40,0,0
1617,-125,3,2,1,40,0,0
2474,-125,3,2,2,40,0,0
2645,-125,3,2,1,40,0,0
4531,-125,3,2,3,40,0,0
4702,-125,3,2,1,40,0,0
5388,-125,3,2,3,40,0,0
5902,-125,3,2,0,40,0,0
6588,-125,3,2,3,30,0,0
7617,-125,3,2,3,30,0,0
7959,-125,3,2,0,40,0,0
8645,-125,3,2,2,60,0,0
9674,-109.89010989011,3,2,10,60,0,0
9845,-109.89010989011,3,2,1,60,0,0
13788,-109.89010989011,3,2,2,60,0,0
14131,-109.89010989011,3,2,0,60,0,0
14817,-109.89010989011,3,2,1,60,0,0
15845,-109.89010989011,3,2,20,60,0,0
16017,-109.89010989011,3,2,1,60,0,0
17902,-109.89010989011,3,2,10,48,0,0
18245,-109.89010989011,3,2,1,48,0,0
20988,-109.89010989011,3,2,1,44,0,0
22017,-109.89010989011,3,2,1,39,0,0
23045,-109.89010989011,3,2,1,35,0,0
24074,-109.89010989011,3,2,1,30,0,0
25445,-109.89010989011,3,3,1,60,0,0
26131,-109.89010989011,3,2,20,80,0,0
26302,-109.89010989011,3,2,1,60,0,0
34359,-109.89010989011,3,2,20,60,0,0
34531,-109.89010989011,3,2,1,60,0,0
41559,-109.89010989011,3,2,2,60,0,0
41902,-109.89010989011,3,2,1,60,0,0
42588,-109.89010989011,3,2,10,60,0,0
42759,-109.89010989011,3,2,1,60,0,0
50817,-109.89010989011,3,2,20,60,0,0
50988,-109.89010989011,3,2,1,60,0,0
58017,-109.89010989011,3,2,30,60,0,0
58702,-109.89010989011,3,2,1,60,0,0
59045,-153.846153846154,3,2,10,80,0,0
59388,-153.846153846154,3,2,1,60,0,0
60074,-76.9230769230769,3,2,20,40,0,0
60159,-76.9230769230769,3,2,1,40,0,0
61102,-86.9565217391304,3,2,10,60,0,0
61359,-86.9565217391304,3,2,1,5,0,0
61445,-86.9565217391304,3,2,1,60,0,0
62645,-86.9565217391304,3,2,4,60,0,0
62988,-86.9565217391304,3,2,1,60,0,0
63159,-153.846153846154,3,2,10,80,0,0
63502,-153.846153846154,3,2,1,60,0,0
64188,-76.9230769230769,3,2,1,40,0,0
65217,-86.9565217391304,3,2,20,80,0,0
65474,-86.9565217391304,3,2,1,60,0,0
65902,-86.9565217391304,3,2,2,60,0,0
66245,-86.9565217391304,3,2,1,60,0,0
67274,-153.846153846154,3,2,10,80,0,0
67617,-153.846153846154,3,2,1,60,0,0
68302,-76.9230769230769,3,2,1,40,0,0
69331,-86.9565217391304,3,2,20,80,0,0
69845,-86.9565217391304,3,2,1,60,0,0
71388,-86.9565217391304,3,2,20,80,0,0
71731,-86.9565217391304,3,2,1,60,0,0
73445,-86.9565217391304,3,2,20,60,0,0
73617,-86.9565217391304,3,2,1,60,0,0
74474,-86.9565217391304,3,2,20,60,0,0
74645,-86.9565217391304,3,2,1,60,0,0
74817,-86.9565217391304,3,2,10,60,0,0
74988,-86.9565217391304,3,2,1,60,0,0
75502,-86.9565217391304,3,2,5,60,0,0
77559,-83.3333333333333,3,2,10,80,0,1
77731,-83.3333333333333,3,2,1,80,0,1
81159,-83.3333333333333,3,2,3,80,0,1
81331,-83.3333333333333,3,2,1,80,0,1
85788,-83.3333333333333,3,2,10,80,0,1
85959,-83.3333333333333,3,2,1,80,0,1
92645,-83.3333333333333,3,2,1,60,0,1
92988,-83.3333333333333,3,2,1,70,0,1
93331,-83.3333333333333,3,2,1,75,0,1
93674,-83.3333333333333,3,2,1,80,0,1
94017,-83.3333333333333,3,2,10,80,0,1
94188,-83.3333333333333,3,2,1,80,0,1
96417,-83.3333333333333,3,2,3,80,0,1
96588,-83.3333333333333,3,2,1,80,0,1
97617,-83.3333333333333,3,2,3,80,0,1
97788,-83.3333333333333,3,2,1,80,0,1
102245,-83.3333333333333,3,2,20,80,0,1
102417,-83.3333333333333,3,2,1,80,0,1
106702,-83.3333333333333,3,2,3,80,0,1
106874,-83.3333333333333,3,2,1,80,0,1
110474,-83.3333333333333,3,2,10,100,0,0
110559,-83.3333333333333,3,2,1,60,0,0
111502,-83.3333333333333,3,2,1,52,0,0
112531,-83.3333333333333,3,2,1,45,0,0
113559,-83.3333333333333,3,2,1,35,0,0
114502,-83.3333333333333,3,2,1,20,0,0
114588,-83.3333333333333,3,2,30,60,0,0

[Colours]
Combo1 : 96,175,255
Combo2 : 142,30,255

[HitObjects]
347,191,1102,6,0,B|338:170|323:160|323:160|326:181|320:205,1,77.9999964294435,0|0,0:0|0:0,0:0:0:0:
250,173,1445,6,0,P|253:135|266:110,2,64,6|0|2,0:0|0:0|0:0,0:0:0:0:
262,249,1959,2,0,P|227:265|199:266,2,64,0|2|0,0:0|0:0|0:0,0:0:0:0:
321,198,2474,5,10,0:0:0:0:
334,273,2645,1,0,0:0:0:0:
399,314,2817,1,2,0:0:0:0:
475,305,2988,2,0,L|492:370,2,64,0|2|0,0:0|0:0|0:0,0:0:0:0:
430,241,3502,6,0,L|446:179,2,64,2|0|2,0:0|0:0|0:0,0:0:0:0:
399,314,4017,1,0,0:0:0:0:
325,334,4188,2,0,P|291:334|260:326,1,64,2|0,0:0|0:0,0:0:0:0:
210,207,4531,6,0,P|241:199|272:199,1,64,6|0,0:0|0:0,0:0:0:0:
349,206,4874,1,2,0:0:0:0:
361,68,5045,2,0,P|368:99|368:130,1,64,0|2,0:0|0:0,0:0:0:0:
325,279,5388,1,2,0:0:0:0:
210,207,5559,6,0,P|209:175|217:144,1,64,6|0,0:0|0:0,0:0:0:0:
235,69,5902,1,2,0:0:0:0:
211,90,5987,1,0,0:0:0:0:
181,101,6073,1,0,0:0:0:0:
149,100,6159,1,0,0:0:0:0:
120,88,6244,1,2,0:0:0:0:
170,30,6417,1,0,0:0:0:0:
57,135,6588,6,0,L|49:207,1,64,6|0,0:0|0:0,0:0:0:0:
42,275,6931,1,4,0:0:0:0:
182,290,7102,2,0,L|110:282,1,64,2|4,0:0|0:0,0:0:0:0:
42,275,7445,1,0,0:0:0:0:
184,208,7617,6,0,P|215:215|244:235,1,64,6|0,0:0|0:0,0:0:0:0:
298,284,7959,1,2,0:0:0:0:
294,252,8044,1,0,0:0:0:0:
291,220,8130,1,0,0:0:0:0:
287,188,8216,1,0,0:0:0:0:
284,156,8301,1,2,0:0:0:0:
361,165,8474,1,0,0:0:0:0:
208,147,8645,5,2,0:0:0:0:
328,91,8817,2,0,L|320:51,2,32,0|0|2,0:0|0:0|0:0,0:0:0:0:
404,100,9159,2,0,L|417:61,2,32,0|0|2,0:0|0:0|0:0,0:0:0:0:
442,167,9502,1,0,0:0:0:0:
357,342,9674,6,0,B|314:327|314:327|291:280|291:280|309:231,1,145.600004887695,6|6,0:0|0:0,0:0:0:0:
380,263,10188,1,0,0:0:0:0:
253,370,10359,2,0,L|220:301,1,72.8000024438477,6|0,0:0|0:0,0:0:0:0:
231,134,10702,6,0,P|209:167|179:187,1,72.8000024438477,12|0,0:0|0:0,0:0:0:0:
97,204,11045,1,6,0:0:0:0:
113,34,11217,1,8,0:0:0:0:
97,204,11388,2,0,P|57:201|25:185,1,72.8000024438477,6|0,0:0|0:0,0:0:0:0:
75,306,11731,6,0,P|144:311|219:291,1,145.600004887695,6|6,0:0|0:0,0:0:0:0:
290,243,12245,1,8,0:0:0:0:
220,136,12417,2,0,L|212:213,1,72.8000024438477,6|8,0:0|0:0,0:0:0:0:
357,306,12759,6,0,P|381:236|350:174,1,145.600004887695,12|6,0:0|0:0,0:0:0:0:
217,291,13274,1,8,0:0:0:0:
255,368,13445,2,0,P|288:380|325:379,1,72.8000024438477,6|0,0:0|0:0,0:0:0:0:
217,291,13788,6,0,L|142:302,1,72.8000024438477,8|0,0:0|0:0,0:0:0:0:
72,252,14131,1,2,0:0:0:0:
65,216,14216,1,0,0:0:0:0:
73,181,14302,1,0,0:0:0:0:
94,151,14388,1,0,0:0:0:0:
125,133,14473,1,2,0:0:0:0:
155,218,14645,1,0,0:0:0:0:
311,152,14817,6,0,L|287:77,1,72.8000024438477,8|0,0:0|0:0,0:0:0:0:
202,74,15159,1,6,0:0:0:0:
372,68,15331,1,8,0:0:0:0:
202,74,15502,2,0,L|226:-1,1,72.8000024438477,6|0,0:0|0:0,0:0:0:0:
372,68,15845,5,6,0:0:0:0:
269,268,16017,1,8,0:0:0:0:
414,182,16188,2,0,P|450:197|475:223,1,72.8000024438477,6|0,0:0|0:0,0:0:0:0:
381,366,16531,2,0,L|390:287,1,72.8000024438477,8|2,0:0|0:0,0:0:0:0:
248,163,16874,6,0,P|199:210|126:201,1,145.600004887695,14|6,0:0|0:0,0:0:0:0:
220,68,17388,1,8,0:0:0:0:
301,234,17559,1,8,0:0:0:0:
173,137,17731,1,8,0:0:0:0:
299,94,17902,6,0,P|338:94|372:102,1,72.8000024438477,6|0,0:0|0:0,0:0:0:0:
372,241,18245,2,0,P|333:241|299:233,1,72.8000024438477,6|0,0:0|0:0,0:0:0:0:
443,165,18588,2,0,L|473:244,1,72.8000024438477,6|0,0:0|0:0,0:0:0:0:
458,373,18931,6,0,L|432:304,1,72.8000024438477,6|0,0:0|0:0,0:0:0:0:
300,233,19274,1,6,0:0:0:0:
207,351,19445,1,0,0:0:0:0:
93,193,19617,2,0,P|125:180|163:177,1,72.8000024438477,6|0,0:0|0:0,0:0:0:0:
104,298,19959,6,0,P|67:295|34:281,1,72.8000024438477,6|0,0:0|0:0,0:0:0:0:
82,94,20302,1,6,0:0:0:0:
186,258,20474,1,0,0:0:0:0:
271,153,20645,2,0,P|285:123|292:82,1,72.8000024438477,6|0,0:0|0:0,0:0:0:0:
190,15,20988,6,0,L|201:98,1,72.8000024438477,6|0,0:0|0:0,0:0:0:0:
373,77,21331,1,6,0:0:0:0:
202,107,21502,1,0,0:0:0:0:
376,94,21674,2,0,L|365:177,1,72.8000024438477,6|0,0:0|0:0,0:0:0:0:
441,278,22017,6,0,P|468:249|485:215,1,72.8000024438477,6|0,0:0|0:0,0:0:0:0:
353,257,22359,1,6,0:0:0:0:
430,369,22531,1,0,0:0:0:0:
353,257,22702,2,0,L|281:269,1,72.8000024438477,6|0,0:0|0:0,0:0:0:0:
173,352,23045,6,0,L|245:364,1,72.8000024438477,6|0,0:0|0:0,0:0:0:0:
209,209,23388,1,2,0:0:0:0:
85,307,23559,1,0,0:0:0:0:
52,176,23731,2,0,P|51:136|58:103,1,72.8000024438477,2|0,0:0|0:0,0:0:0:0:
224,52,24074,6,0,P|230:87|229:123,1,72.8000024438477,2|0,0:0|0:0,0:0:0:0:
209,209,24417,1,2,0:0:0:0:
147,91,24588,1,0,0:0:0:0:
290,178,24759,2,0,L|373:164,1,72.8000024438477,2|0,0:0|0:0,0:0:0:0:
462,81,25102,5,0,0:0:0:0:
466,107,25187,1,0,0:0:0:0:
470,134,25273,1,0,0:0:0:0:
474,161,25359,1,0,0:0:0:0:
478,188,25445,5,8,0:0:0:0:
476,202,25530,1,0,0:0:0:0:
474,216,25616,1,0,0:0:0:0:
473,229,25702,1,0,0:0:0:0:
471,243,25788,6,0,L|479:290,3,36.4000012219239,0|0|0|0,0:0|0:0|0:0|0:0,0:0:0:0:
484,309,26131,6,0,L|412:300,1,72.8000024438477,6|0,0:0|0:0,0:0:0:0:
340,248,26474,2,0,P|303:254|272:274,1,72.8000024438477,6|0,0:0|0:0,0:0:0:0:
222,343,26817,5,6,0:0:0:0:
222,343,26931,2,0,L|164:334,2,48.5333349625652,0|0|6,0:0|0:0|0:0,0:0:0:0:
309,351,27331,1,0,0:0:0:0:
209,189,27502,2,0,L|198:260,1,72.8000024438477,6|0,0:0|0:0,0:0:0:0:
336,214,27845,2,0,L|325:143,1,72.8000024438477,6|0,0:0|0:0,0:0:0:0:
328,124,28102,1,0,0:0:0:0:
340,110,28188,6,0,P|374:106|411:117,1,72.8000024438477,6|0,0:0|0:0,0:0:0:0:
406,250,28531,2,0,P|372:254|335:243,1,72.8000024438477,6|0,0:0|0:0,0:0:0:0:
180,177,28874,2,0,P|214:166|250:170,1,72.8000024438477,6|0,0:0|0:0,0:0:0:0:
124,265,29217,6,0,L|84:203,1,72.8000024438477,4|0,0:0|0:0,0:0:0:0:
222,249,29559,1,6,0:0:0:0:
188,330,29731,1,0,0:0:0:0:
302,272,29902,2,0,P|339:274|372:288,1,72.8000024438477,4|0,0:0|0:0,0:0:0:0:
434,349,30245,6,0,B|395:275|448:268|418:204,1,145.600004887695,6|6,0:0|0:0,0:0:0:0:
409,193,30674,1,0,0:0:0:0:
396,180,30759,1,0,0:0:0:0:
428,98,30931,5,6,0:0:0:0:
428,98,31045,2,0,L|468:67,2,48.5333349625652,0|0|6,0:0|0:0|0:0,0:0:0:0:
340,105,31445,1,0,0:0:0:0:
202,23,31617,2,0,P|200:61|187:103,1,72.8000024438477,6|0,0:0|0:0,0:0:0:0:
264,238,31959,2,0,P|254:202|252:166,1,72.8000024438477,6|0,0:0|0:0,0:0:0:0:
256,149,32217,1,0,0:0:0:0:
261,132,32302,5,6,0:0:0:0:
348,197,32474,1,0,0:0:0:0:
353,214,32559,1,0,0:0:0:0:
357,231,32645,1,6,0:0:0:0:
434,189,32817,1,0,0:0:0:0:
434,276,32988,2,0,P|412:303|379:320,1,72.8000024438477,6|0,0:0|0:0,0:0:0:0:
361,324,33245,1,2,0:0:0:0:
343,322,33331,6,0,L|308:309,2,36.4000012219239,6|2|0,0:0|0:0|0:0,0:0:0:0:
508,315,33674,1,2,0:0:0:0:
434,189,33845,1,0,0:0:0:0:
482,29,34017,2,0,L|504:110,1,72.8000024438477,0|0,0:0|0:0,0:0:0:0:
332,198,34359,6,0,P|352:126|409:88,1,145.600004887695,6|2,0:0|0:0,0:0:0:0:
389,273,34874,1,8,0:0:0:0:
302,284,35045,5,2,0:0:0:0:
302,284,35159,2,0,P|282:272|262:251,2,48.5333349625652,0|0|2,0:0|0:0|0:0,0:0:0:0:
353,355,35559,1,0,0:0:0:0:
201,304,35731,2,0,P|188:263|190:228,1,72.8000024438477,2|0,0:0|0:0,0:0:0:0:
251,172,36074,2,0,P|264:131|262:96,1,72.8000024438477,2|0,0:0|0:0,0:0:0:0:
261,84,36331,1,0,0:0:0:0:
256,67,36417,6,0,P|292:66|327:75,1,72.8000024438477,2|0,0:0|0:0,0:0:0:0:
377,146,36759,1,2,0:0:0:0:
186,121,36931,1,8,0:0:0:0:
235,255,37102,2,0,P|271:252|303:236,1,72.8000024438477,2|0,0:0|0:0,0:0:0:0:
158,213,37445,6,0,L|135:294,1,72.8000024438477,0|0,0:0|0:0,0:0:0:0:
323,306,37788,2,0,L|303:235,1,72.8000024438477,8|0,0:0|0:0,0:0:0:0:
332,153,38131,5,0,0:0:0:0:
332,153,38245,2,0,P|352:142|379:133,2,48.5333349625652,0|0|2,0:0|0:0|0:0,0:0:0:0:
245,166,38645,1,0,0:0:0:0:
243,148,38731,1,2,0:0:0:0:
241,130,38817,1,2,0:0:0:0:
187,278,38988,1,8,0:0:0:0:
117,225,39159,2,0,P|79:229|47:247,1,72.8000024438477,2|0,0:0|0:0,0:0:0:0:
77,375,39502,6,0,P|115:371|147:353,1,72.8000024438477,2|0,0:0|0:0,0:0:0:0:
187,278,39845,1,2,0:0:0:0:
117,225,40017,1,0,0:0:0:0:
108,138,40188,1,2,0:0:0:0:
167,74,40359,6,0,L|208:84,2,36.4000012219239,0|0|2,0:0|0:0|0:0,0:0:0:0:
304,32,40702,1,0,0:0:0:0:
300,59,40787,1,0,0:0:0:0:
296,86,40873,1,2,0:0:0:0:
292,113,40959,1,0,0:0:0:0:
288,140,41044,1,8,0:0:0:0:
407,83,41217,1,2,0:0:0:0:
470,143,41388,2,0,L|459:191,1,36.4000012219239,0|0,0:0|0:0,0:0:0:0:
435,213,41559,6,0,P|437:286|481:352,2,145.600004887695,10|14|14,0:0|0:0|0:0,0:0:0:0:
435,213,42588,6,0,P|399:213|363:223,1,72.8000024438477,6|0,0:0|0:0,0:0:0:0:
317,296,42931,1,6,0:0:0:0:
328,144,43102,1,8,0:0:0:0:
317,296,43274,5,6,0:0:0:0:
317,296,43388,2,0,P|325:320|338:344,2,48.5333349625652,0|0|6,0:0|0:0|0:0,0:0:0:0:
242,250,43788,1,0,0:0:0:0:
163,287,43959,2,0,P|129:278|97:256,1,72.8000024438477,6|0,0:0|0:0,0:0:0:0:
192,103,44302,2,0,L|205:183,1,72.8000024438477,14|0,0:0|0:0,0:0:0:0:
282,94,44645,6,0,P|316:85|348:63,1,72.8000024438477,6|0,0:0|0:0,0:0:0:0:
282,11,44988,1,6,0:0:0:0:
319,199,45159,1,8,0:0:0:0:
282,11,45331,1,4,0:0:0:0:
319,199,45502,1,8,0:0:0:0:
427,130,45674,6,0,P|464:134|498:150,1,72.8000024438477,6|0,0:0|0:0,0:0:0:0:
469,266,46017,2,0,P|432:262|398:246,1,72.8000024438477,6|0,0:0|0:0,0:0:0:0:
240,150,46359,2,0,P|229:199|243:257,1,109.200003665772,12|0,0:0|0:0,0:0:0:0:
266,292,46702,6,0,L|192:284,1,72.8000024438477,6|0,0:0|0:0,0:0:0:0:
221,367,47045,1,6,0:0:0:0:
312,197,47217,1,8,0:0:0:0:
214,67,47388,5,6,0:0:0:0:
214,67,47502,2,0,P|189:58|165:44,2,48.5333349625652,0|0|6,0:0|0:0|0:0,0:0:0:0:
301,77,47902,1,0,0:0:0:0:
386,58,48074,2,0,L|415:134,1,72.8000024438477,6|0,0:0|0:0,0:0:0:0:
342,305,48417,2,0,L|313:229,1,72.8000024438477,12|0,0:0|0:0,0:0:0:0:
462,192,48759,6,0,P|428:206|391:206,1,72.8000024438477,6|0,0:0|0:0,0:0:0:0:
323,153,49102,1,6,0:0:0:0:
445,301,49274,1,8,0:0:0:0:
323,153,49445,2,0,P|287:157|255:175,1,72.8000024438477,6|0,0:0|0:0,0:0:0:0:
120,219,49788,6,0,L|192:235,1,72.8000024438477,6|0,0:0|0:0,0:0:0:0:
176,151,50131,1,6,0:0:0:0:
186,343,50302,1,8,0:0:0:0:
176,151,50474,1,6,0:0:0:0:
186,343,50645,1,8,0:0:0:0:
257,176,50817,6,0,P|257:140|243:101,1,72.8000024438477,6|0,0:0|0:0,0:0:0:0:
205,27,51159,1,6,0:0:0:0:
378,113,51331,1,8,0:0:0:0:
454,70,51502,5,6,0:0:0:0:
454,70,51617,2,0,P|481:71|509:77,2,48.5333349625652,0|0|6,0:0|0:0|0:0,0:0:0:0:
378,113,52017,1,0,0:0:0:0:
371,199,52188,2,0,L|396:284,1,72.8000024438477,6|0,0:0|0:0,0:0:0:0:
229,121,52531,2,0,P|262:106|297:100,1,72.8000024438477,14|0,0:0|0:0,0:0:0:0:
162,178,52874,6,0,P|126:171|91:155,1,72.8000024438477,6|0,0:0|0:0,0:0:0:0:
154,93,53217,1,6,0:0:0:0:
217,274,53388,1,8,0:0:0:0:
320,198,53559,2,0,L|342:278,1,72.8000024438477,6|0,0:0|0:0,0:0:0:0:
259,92,53902,6,0,P|310:106|365:96,1,109.200003665772,14|0,0:0|0:0,0:0:0:0:
402,74,54245,2,0,L|424:154,1,72.8000024438477,6|8,0:0|0:0,0:0:0:0:
476,212,54588,5,6,0:0:0:0:
476,212,54702,2,0,P|496:193|512:174,2,48.5333349625652,0|0|2,0:0|0:0|0:0,0:0:0:0:
389,228,55102,1,0,0:0:0:0:
359,310,55274,1,6,0:0:0:0:
304,126,55445,1,8,0:0:0:0:
274,208,55617,2,0,P|239:208|201:199,1,72.8000024438477,6|0,0:0|0:0,0:0:0:0:
158,124,55959,6,0,L|85:135,2,72.8000024438477,6|0|6,0:0|0:0|0:0,0:0:0:0:
203,48,56474,1,0,0:0:0:0:
117,219,56645,2,0,L|131:291,1,72.8000024438477,12|0,0:0|0:0,0:0:0:0:
201,342,56988,5,6,0:0:0:0:
285,326,57159,2,0,P|321:339|350:357,1,72.8000024438477,0|6,0:0|0:0,0:0:0:0:
237,201,57502,1,8,0:0:0:0:
359,164,57674,1,6,0:0:0:0:
176,104,57845,1,8,0:0:0:0:
237,201,58017,6,0,P|239:237|231:275,1,72.8000024438477,6|0,0:0|0:0,0:0:0:0:
176,104,58359,2,0,P|168:68|170:32,1,72.8000024438477,2|0,0:0|0:0,0:0:0:0:
102,209,58702,1,10,0:0:0:0:
265,110,58874,1,8,0:0:0:0:
263,303,59045,6,0,B|291:291|306:273|306:273|322:290|352:307,1,103.999995239258,6|0,0:0|0:0,0:0:0:0:
442,323,59559,2,0,P|426:273|419:217,1,103.999995239258,6|0,0:0|0:0,0:0:0:0:
431,125,60074,6,0,P|459:133|478:144,1,51.999997619629,4|0,0:0|0:0,0:0:0:0:
422,109,60245,2,0,P|451:109|472:115,1,51.999997619629,0|0,0:0|0:0,0:0:0:0:
408,92,60417,2,0,P|436:84|458:84,1,51.999997619629,0|0,0:0|0:0,0:0:0:0:
391,77,60588,2,0,P|416:62|437:57,1,51.999997619629,8|0,0:0|0:0,0:0:0:0:
370,61,60759,2,0,P|390:40|409:29,1,51.999997619629,0|0,0:0|0:0,0:0:0:0:
344,47,60931,2,0,P|358:22|374:6,1,51.999997619629,0|0,0:0|0:0,0:0:0:0:
314,121,61102,6,0,B|277:120|246:140|246:140|208:151|166:141|146:106,1,184.000003509522,6|2,0:0|0:0,0:0:0:0:
213,65,61617,1,0,0:0:0:0:
287,203,61788,2,0,P|241:218|194:216,1,92.0000017547608,2|0,0:0|0:0,0:0:0:0:
77,68,62131,6,0,B|48:157|108:157|70:249,1,184.000003509522,14|2,0:0|0:0,0:0:0:0:
0,280,62645,2,0,P|31:315|143:273,1,184.000003509522,2|2,0:0|0:0,0:0:0:0:
295,258,63159,6,0,B|284:214|248:205|248:205|256:218|259:235,1,103.999995239258,6|4,0:0|0:0,0:0:0:0:
379,282,63674,2,0,P|415:260|376:241,1,103.999995239258,0|4,0:0|0:0,0:0:0:0:
366,148,64188,6,0,P|394:146|423:150,1,51.999997619629,8|0,0:0|0:0,0:0:0:0:
383,128,64359,2,0,P|410:133|437:144,1,51.999997619629,0|0,0:0|0:0,0:0:0:0:
406,111,64531,2,0,P|431:123|454:141,1,51.999997619629,0|0,0:0|0:0,0:0:0:0:
432,101,64702,2,0,P|453:119|470:142,1,51.999997619629,8|0,0:0|0:0,0:0:0:0:
489,215,64874,5,0,0:0:0:0:
485,246,64959,1,0,0:0:0:0:
479,277,65045,1,0,0:0:0:0:
472,308,65131,1,0,0:0:0:0:
464,339,65217,6,0,P|418:337|378:315,1,92.0000017547608,6|0,0:0|0:0,0:0:0:0:
286,223,65559,2,0,L|266:319,1,92.0000017547608,2|8,0:0|0:0,0:0:0:0:
163,233,65902,1,2,0:0:0:0:
166,219,65988,1,0,0:0:0:0:
168,205,66074,1,0,0:0:0:0:
171,191,66159,1,0,0:0:0:0:
174,177,66245,6,0,P|131:193|82:185,2,92.0000017547608,4|4|10,0:0|0:0|0:0,0:0:0:0:
110,298,66759,2,0,P|153:314|202:306,2,92.0000017547608,4|4|8,0:0|0:0|0:0,0:0:0:0:
116,109,67274,6,0,P|163:91|215:100,1,103.999995239258,6|0,0:0|0:0,0:0:0:0:
279,149,67788,2,0,B|296:113|289:77|289:77|270:40,1,103.999995239258,0|0,0:0|0:0,0:0:0:0:
203,178,68302,6,0,P|217:199|240:221,1,51.999997619629,8|0,0:0|0:0,0:0:0:0:
171,196,68474,2,0,P|191:210|220:223,1,51.999997619629,0|0,0:0|0:0,0:0:0:0:
148,219,68645,2,0,P|172:226|203:228,1,51.999997619629,0|0,0:0|0:0,0:0:0:0:
135,254,68817,2,0,P|160:252|190:243,1,51.999997619629,0|0,0:0|0:0,0:0:0:0:
134,289,68988,2,0,P|157:278|182:260,1,51.999997619629,8|0,0:0|0:0,0:0:0:0:
150,325,69159,2,0,P|168:307|185:281,1,51.999997619629,8|0,0:0|0:0,0:0:0:0:
69,207,69331,6,0,P|52:292|98:378,2,184.000003509522,6|0|2,0:0|0:0|0:0,0:0:0:0:
117,139,70188,1,0,0:0:0:0:
296,74,70359,6,0,B|236:89|177:50|177:50|213:53|240:38,1,184.000003509522,8|2,0:0|0:0,0:0:0:0:
369,29,70874,2,0,B|402:113|343:115|380:212,1,184.000003509522,8|0,0:0|0:0,0:0:0:0:
454,194,71388,6,0,P|398:282|367:132,1,368.000007019043,4|2,0:0|0:0,0:0:0:0:
378,208,72245,1,0,0:0:0:0:
259,321,72417,6,0,B|197:299|162:217|191:155|191:155|198:199|235:229,1,276.000005264282,8|8,0:0|0:0,0:0:0:0:
125,111,73102,2,0,P|109:154|102:200,1,92.0000017547608,0|0,0:0|0:0,0:0:0:0:
268,149,73445,5,6,0:0:0:0:
215,68,73617,1,0,0:0:0:0:
364,126,73788,2,0,L|357:221,1,92.0000017547608,2|0,0:0|0:0,0:0:0:0:
216,316,74131,2,0,L|223:221,1,92.0000017547608,8|0,0:0|0:0,0:0:0:0:
363,309,74474,5,4,0:0:0:0:
441,182,74645,1,0,0:0:0:0:
453,332,74817,1,4,0:0:0:0:
357,217,74988,1,4,0:0:0:0:
501,253,75159,5,8,0:0:0:0:
483,254,75244,1,8,0:0:0:0:
466,255,75330,1,8,0:0:0:0:
449,256,75416,1,8,0:0:0:0:
432,257,75501,1,2,0:0:0:0:
310,78,77559,6,0,B|272:108|272:108|282:156,1,95.9999970703126,6|0,0:0|0:0,0:0:0:0:
441,120,77902,2,0,B|434:72|434:72|387:56,1,95.9999970703126,2|8,0:0|0:0,0:0:0:0:
342,213,78245,2,0,B|386:230|386:230|423:198,1,95.9999970703126,2|8,0:0|0:0,0:0:0:0:
310,78,78588,6,0,P|258:77|220:102,1,95.9999970703126,2|0,0:0|0:0,0:0:0:0:
116,259,78931,2,0,L|88:167,1,95.9999970703126,2|8,0:0|0:0,0:0:0:0:
60,74,79274,1,2,0:0:0:0:
201,203,79445,1,8,0:0:0:0:
132,343,79617,6,0,P|85:340|48:310,1,95.9999970703126,2|0,0:0|0:0,0:0:0:0:
201,203,79959,2,0,P|248:206|285:236,1,95.9999970703126,2|8,0:0|0:0,0:0:0:0:
402,348,80302,2,0,L|296:362,1,95.9999970703126,2|8,0:0|0:0,0:0:0:0:
379,255,80645,6,0,L|485:241,1,95.9999970703126,2|8,0:0|0:0,0:0:0:0:
406,61,80988,2,0,P|361:81|338:120,1,95.9999970703126,2|2,0:0|0:0,0:0:0:0:
415,138,81331,1,2,0:0:0:0:
260,26,81502,1,0,0:0:0:0:
229,216,81674,6,0,B|175:225|137:190|137:190|185:204|230:181,1,191.999994140625,2|2,0:0|0:0,0:0:0:0:
177,117,82188,1,8,0:0:0:0:
157,290,82359,1,2,0:0:0:0:
315,222,82531,1,8,0:0:0:0:
119,194,82702,5,2,0:0:0:0:
258,297,82873,1,0,0:0:0:0:
278,126,83045,1,2,0:0:0:0:
157,290,83217,6,0,L|152:324,3,31.9999990234375,8|0|0|2,0:0|0:0|0:0|0:0,0:0:0:0:
278,126,83559,2,0,L|273:94,2,31.9999990234375,8|0|0,0:0|0:0|0:0,0:0:0:0:
269,67,83731,6,0,P|317:57|363:67,1,95.9999970703126,2|0,0:0|0:0,0:0:0:0:
443,235,84074,2,0,L|346:226,1,95.9999970703126,2|8,0:0|0:0,0:0:0:0:
400,145,84417,1,2,0:0:0:0:
438,332,84588,1,8,0:0:0:0:
265,255,84759,6,0,P|265:202|287:161,1,95.9999970703126,2|8,0:0|0:0,0:0:0:0:
330,336,85102,2,0,L|233:345,1,95.9999970703126,2|0,0:0|0:0,0:0:0:0:
107,256,85445,6,0,P|104:290|93:320,2,63.9999980468751,2|0|0,0:0|0:0|0:0,0:0:0:0:
98,213,85788,6,0,P|143:231|190:219,1,95.9999970703126,6|0,0:0|0:0,0:0:0:0:
147,151,86131,1,2,0:0:0:0:
30,256,86302,1,8,0:0:0:0:
7,65,86474,2,0,B|42:75|42:75|68:70|68:70|102:78,1,95.9999970703126,2|8,0:0|0:0,0:0:0:0:
257,35,86817,6,0,P|275:78|274:126,1,95.9999970703126,2|0,0:0|0:0,0:0:0:0:
194,315,87159,1,2,0:0:0:0:
209,176,87331,1,8,0:0:0:0:
279,298,87502,1,2,0:0:0:0:
151,241,87674,1,8,0:0:0:0:
128,246,87759,1,0,0:0:0:0:
105,252,87845,5,2,0:0:0:0:
288,212,88017,1,0,0:0:0:0:
127,102,88188,2,0,P|121:49|136:9,1,95.9999970703126,2|8,0:0|0:0,0:0:0:0:
68,163,88531,1,2,0:0:0:0:
198,60,88702,1,8,0:0:0:0:
203,252,88874,6,0,L|135:322,1,95.9999970703126,2|8,0:0|0:0,0:0:0:0:
201,153,89217,2,0,L|295:176,1,95.9999970703126,2|0,0:0|0:0,0:0:0:0:
307,271,89559,1,2,0:0:0:0:
284,80,89731,1,0,0:0:0:0:
401,115,89902,6,0,P|419:158|416:206,1,95.9999970703126,2|0,0:0|0:0,0:0:0:0:
197,239,90245,2,0,P|179:196|182:148,1,95.9999970703126,2|8,0:0|0:0,0:0:0:0:
75,71,90588,2,0,L|171:44,1,95.9999970703126,2|8,0:0|0:0,0:0:0:0:
63,154,90931,6,0,B|37:150|19:134|19:134|30:156|30:188,1,95.9999970703126,2|0,0:0|0:0,0:0:0:0:
108,354,91274,2,0,P|155:354|195:325,1,95.9999970703126,2|8,0:0|0:0,0:0:0:0:
132,279,91617,1,2,0:0:0:0:
1,370,91788,1,8,0:0:0:0:
29,179,91959,5,2,0:0:0:0:
132,279,92131,1,0,0:0:0:0:
209,159,92302,2,0,P|206:107|182:71,1,95.9999970703126,2|0,0:0|0:0,0:0:0:0:
223,248,92645,6,0,L|291:229,2,63.9999980468751,2|0|0,0:0|0:0|0:0,0:0:0:0:
276,319,92988,2,0,L|208:338,2,63.9999980468751,2|0|0,0:0|0:0|0:0,0:0:0:0:
346,280,93331,6,0,L|367:313,5,31.9999990234375,2|0|0|0|0|0,0:0|0:0|0:0|0:0|0:0|0:0,0:0:0:0:
369,279,93674,2,0,L|390:312,5,31.9999990234375,2|0|0|0|0|0,0:0|0:0|0:0|0:0|0:0|0:0,0:0:0:0:
396,279,94017,6,0,B|436:303|436:303|478:278,1,95.9999970703126,6|0,0:0|0:0,0:0:0:0:
388,139,94359,2,0,B|345:161|345:161|346:210,1,95.9999970703126,2|8,0:0|0:0,0:0:0:0:
512,206,94702,2,0,B|513:157|513:157|469:133,1,95.9999970703126,2|8,0:0|0:0,0:0:0:0:
324,79,95045,6,0,P|364:55|412:55,1,95.9999970703126,2|0,0:0|0:0,0:0:0:0:
265,136,95388,2,0,P|217:135|179:108,1,95.9999970703126,2|8,0:0|0:0,0:0:0:0:
241,62,95731,1,2,0:0:0:0:
304,245,95902,1,8,0:0:0:0:
432,147,96074,6,0,P|455:188|463:236,1,95.9999970703126,2|0,0:0|0:0,0:0:0:0:
302,340,96417,2,0,L|304:234,1,95.9999970703126,2|8,0:0|0:0,0:0:0:0:
177,143,96759,2,0,P|154:184|146:232,1,95.9999970703126,2|8,0:0|0:0,0:0:0:0:
282,134,97102,6,0,L|262:39,1,95.9999970703126,2|8,0:0|0:0,0:0:0:0:
235,206,97445,1,2,0:0:0:0:
406,118,97617,1,0,0:0:0:0:
372,317,97788,2,0,L|352:222,1,95.9999970703126,0|0,0:0|0:0,0:0:0:0:
235,206,98131,6,0,B|289:215|327:180|327:180|279:194|234:171,1,191.999994140625,2|2,0:0|0:0,0:0:0:0:
287,107,98645,1,8,0:0:0:0:
307,280,98816,1,2,0:0:0:0:
149,212,98988,1,8,0:0:0:0:
345,184,99159,5,2,0:0:0:0:
206,287,99330,1,0,0:0:0:0:
186,116,99502,1,2,0:0:0:0:
307,280,99674,6,0,L|312:314,3,31.9999990234375,8|0|0|2,0:0|0:0|0:0|0:0,0:0:0:0:
186,116,100016,2,0,L|191:84,2,31.9999990234375,8|0|0,0:0|0:0|0:0,0:0:0:0:
195,57,100188,6,0,P|147:47|101:57,1,95.9999970703126,2|0,0:0|0:0,0:0:0:0:
16,193,100531,2,0,L|59:284,1,95.9999970703126,2|8,0:0|0:0,0:0:0:0:
106,362,100874,1,2,0:0:0:0:
113,171,101045,1,8,0:0:0:0:
272,280,101217,6,0,P|312:256|339:212,1,95.9999970703126,2|8,0:0|0:0,0:0:0:0:
230,57,101559,2,0,L|234:153,1,95.9999970703126,2|0,0:0|0:0,0:0:0:0:
379,144,101902,6,0,P|347:134|311:137,2,63.9999980468751,2|0|0,0:0|0:0|0:0,0:0:0:0:
422,123,102245,6,0,P|427:169|460:212,1,95.9999970703126,6|0,0:0|0:0,0:0:0:0:
498,142,102588,1,2,0:0:0:0:
362,64,102759,1,8,0:0:0:0:
300,245,102931,2,0,B|265:255|265:255|239:250|239:250|205:258,1,95.9999970703126,2|8,0:0|0:0,0:0:0:0:
103,135,103274,6,0,P|108:85|139:49,1,95.9999970703126,2|0,0:0|0:0,0:0:0:0:
179,117,103617,1,2,0:0:0:0:
3,47,103788,1,8,0:0:0:0:
179,117,103959,1,2,0:0:0:0:
69,230,104131,1,8,0:0:0:0:
92,237,104217,1,0,0:0:0:0:
115,243,104302,6,0,P|115:293|95:338,1,95.9999970703126,2|0,0:0|0:0,0:0:0:0:
215,204,104645,2,0,L|316:206,1,95.9999970703126,2|8,0:0|0:0,0:0:0:0:
266,120,104988,1,2,0:0:0:0:
230,284,105159,1,8,0:0:0:0:
390,234,105331,6,0,P|387:182|359:140,1,95.9999970703126,2|8,0:0|0:0,0:0:0:0:
192,55,105674,2,0,L|285:27,1,95.9999970703126,2|0,0:0|0:0,0:0:0:0:
122,111,106017,6,0,P|108:77|109:40,2,63.9999980468751,2|0|0,0:0|0:0|0:0,0:0:0:0:
148,154,106359,6,0,P|149:201|123:246,2,95.9999970703126,2|0|2,0:0|0:0|0:0,0:0:0:0:
75,180,106874,1,8,0:0:0:0:
53,253,107045,1,2,0:0:0:0:
101,313,107217,1,8,0:0:0:0:
176,300,107388,6,0,P|219:324|239:368,2,95.9999970703126,2|0|2,0:0|0:0|0:0,0:0:0:0:
101,313,107902,1,8,0:0:0:0:
53,253,108074,1,2,0:0:0:0:
75,180,108245,1,8,0:0:0:0:
148,155,108417,6,0,P|184:125|206:80,1,95.9999970703126,2|0,0:0|0:0,0:0:0:0:
221,6,108759,1,2,0:0:0:0:
278,57,108931,2,0,L|386:71,1,95.9999970703126,8|2,0:0|0:0,0:0:0:0:
449,76,109274,1,8,0:0:0:0:
385,285,109445,5,2,0:0:0:0:
229,216,109617,1,2,0:0:0:0:
396,180,109788,1,8,0:0:0:0:
281,307,109959,5,2,0:0:0:0:
299,139,110131,1,8,0:0:0:0:
385,285,110302,1,8,0:0:0:0:
408,76,110474,5,6,0:0:0:0:
256,192,110559,12,4,114588,0:0:0:0:
