osu file format v14

[General]
AudioFilename: audio.mp3
AudioLeadIn: 0
PreviewTime: 70840
Countdown: 0
SampleSet: Soft
StackLeniency: 0.7
Mode: 3
LetterboxInBreaks: 0
SpecialStyle: 1
WidescreenStoryboard: 1

[Editor]
Bookmarks: 14139,31439,37697,43586,48004,49476,54998,59783,61255,67145
DistanceSpacing: 1
BeatDivisor: 4
GridSize: 4
TimelineZoom: 4.2

[Metadata]
Title:Fly far bounce
TitleUnicode:Fly far bounce
Artist:Nekomata Master
ArtistUnicode:猫叉Master
Creator:pocket-Gao
Version:8K Another
Source:ノスタルジア
Tags:DanceDanceRevolution A DDR jubeat clan MÚSECA 1+1/2 MUSECA SOUND VOLTEX IV HEAVENLY HAVEN SDVX Video Game Electronic Instrumental BEMANI pop'n music うさぎと猫と少年の夢 Aionara [Crz]Charoi biemote
BeatmapID:1943671
BeatmapSetID:930775

[Difficulty]
HPDrainRate:8
CircleSize:8
OverallDifficulty:8
ApproachRate:5
SliderMultiplier:1.4
SliderTickRate:1

[Events]
//Background and Video events
0,0,"A.jpg",0,0
//Break Periods
//Storyboard Layer 0 (Background)
//Storyboard Layer 1 (Fail)
//Storyboard Layer 2 (Pass)
//Storyboard Layer 3 (Foreground)
//Storyboard Layer 4 (Overlay)
//Storyboard Sound Samples

[TimingPoints]
534,368.098159509202,4,2,1,50,1,0
82987,-100,4,2,1,50,0,1
88877,-100,4,2,1,50,0,0
91822,387.096774193548,4,2,1,50,1,0
91822,-95.1474785918173,4,2,1,50,0,0
92209,422.535211267606,4,2,1,50,1,0
92209,-86.9565217391304,4,2,1,50,0,0
92631,444.444444444444,4,2,1,50,1,0
92631,-82.6446280991736,4,2,1,50,0,0
92853,512.820512820513,4,2,1,50,1,0
92853,-71.9424460431655,4,2,1,50,0,0
93109,405.95399188092,4,2,1,50,1,0
93109,-90.9090909090909,4,2,1,50,0,0
102596,368.098159509202,4,2,1,50,1,0

[HitObjects]
224,192,165,5,0,0:0:0:0:
288,192,257,1,0,0:0:0:0:
352,192,349,1,0,0:0:0:0:
416,192,441,1,0,0:0:0:0:
96,192,534,1,0,0:0:0:0:
224,192,534,1,0,0:0:0:0:
480,192,534,1,0,0:0:0:0:
160,192,1086,1,0,0:0:0:0:
416,192,1086,1,0,0:0:0:0:
96,192,1822,1,0,0:0:0:0:
352,192,1822,1,0,0:0:0:0:
224,192,2328,1,0,0:0:0:0:
288,192,2374,1,0,0:0:0:0:
160,192,2558,1,0,0:0:0:0:
416,192,2558,1,0,0:0:0:0:
352,192,3110,1,0,0:0:0:0:
416,192,3202,1,0,0:0:0:0:
352,192,3294,1,0,0:0:0:0:
288,192,3386,1,0,0:0:0:0:
96,192,3478,1,0,0:0:0:0:
224,192,3478,1,0,0:0:0:0:
416,192,3478,1,0,0:0:0:0:
160,192,4030,1,0,0:0:0:0:
352,192,4030,1,0,0:0:0:0:
416,192,4399,1,0,0:0:0:0:
96,192,4583,1,0,0:0:0:0:
224,192,4583,1,0,0:0:0:0:
224,192,5135,1,0,0:0:0:0:
352,192,5319,1,0,0:0:0:0:
480,192,5503,1,0,0:0:0:0:
224,192,6055,1,0,0:0:0:0:
288,192,6147,1,0,0:0:0:0:
352,192,6239,1,0,0:0:0:0:
416,192,6331,1,0,0:0:0:0:
160,192,6423,1,0,0:0:0:0:
288,192,6423,1,0,0:0:0:0:
480,192,6423,1,0,0:0:0:0:
352,192,6791,1,0,0:0:0:0:
96,192,6975,128,0,7527:0:0:0:0:
224,192,6975,128,0,7527:0:0:0:0:
352,192,7527,1,0,0:0:0:0:
160,192,7711,1,0,0:0:0:0:
416,192,7711,1,0,0:0:0:0:
224,192,8264,1,0,0:0:0:0:
352,192,8448,128,0,9000:0:0:0:0:
480,192,8448,128,0,9000:0:0:0:0:
96,192,9000,1,0,0:0:0:0:
224,192,9000,1,0,0:0:0:0:
288,192,9092,1,0,0:0:0:0:
224,192,9184,1,0,0:0:0:0:
352,192,9184,1,0,0:0:0:0:
416,192,9276,1,0,0:0:0:0:
160,192,9368,1,0,0:0:0:0:
288,192,9368,1,0,0:0:0:0:
480,192,9368,1,0,0:0:0:0:
416,192,9552,1,0,0:0:0:0:
160,192,9736,1,0,0:0:0:0:
352,192,9736,1,0,0:0:0:0:
224,192,9920,1,0,0:0:0:0:
416,192,9920,1,0,0:0:0:0:
96,192,10104,1,0,0:0:0:0:
352,192,10104,1,0,0:0:0:0:
224,192,10165,1,0,0:0:0:0:
352,192,10227,1,0,0:0:0:0:
160,192,10288,1,0,0:0:0:0:
480,192,10288,1,0,0:0:0:0:
96,192,10472,1,0,0:0:0:0:
224,192,10472,1,0,0:0:0:0:
416,192,10472,1,0,0:0:0:0:
32,192,10840,1,0,0:0:0:0:
32,192,11208,1,0,0:0:0:0:
160,192,11576,1,0,0:0:0:0:
416,192,11576,1,0,0:0:0:0:
96,192,11945,1,0,0:0:0:0:
352,192,11945,1,0,0:0:0:0:
480,192,11945,1,0,0:0:0:0:
224,192,12037,1,0,0:0:0:0:
352,192,12129,1,0,0:0:0:0:
224,192,12221,1,0,0:0:0:0:
32,192,12313,1,0,0:0:0:70:crash-1.wav
96,192,12313,1,0,0:0:0:0:
352,192,12313,1,0,0:0:0:0:
224,192,12497,1,0,0:0:0:0:
96,192,12681,1,0,0:0:0:0:
288,192,12681,1,0,0:0:0:0:
480,192,12681,1,0,0:0:0:0:
224,192,12865,1,0,0:0:0:0:
416,192,12865,1,0,0:0:0:0:
160,192,13049,1,0,0:0:0:0:
416,192,13233,1,0,0:0:0:0:
96,192,13417,1,0,0:0:0:0:
160,192,13417,1,0,0:0:0:0:
352,192,13417,1,0,0:0:0:0:
224,192,13601,1,0,0:0:0:0:
416,192,13601,1,0,0:0:0:0:
160,192,13785,1,0,0:0:0:0:
480,192,13969,1,0,0:0:0:0:
96,192,14153,1,0,0:0:0:0:
224,192,14153,1,0,0:0:0:0:
416,192,14153,1,0,0:0:0:0:
288,192,14337,1,0,0:0:0:0:
480,192,14337,1,0,0:0:0:0:
160,192,14521,1,0,0:0:0:0:
416,192,14705,1,0,0:0:0:0:
96,192,14889,1,0,0:0:0:0:
352,192,14889,1,0,0:0:0:0:
416,192,14981,1,0,0:0:0:0:
160,192,15073,1,0,0:0:0:0:
352,192,15073,1,0,0:0:0:0:
288,192,15165,1,0,0:0:0:0:
224,192,15257,1,0,0:0:0:0:
416,192,15257,1,0,0:0:0:0:
160,192,15441,1,0,0:0:0:0:
352,192,15441,1,0,0:0:0:0:
96,192,15626,1,0,0:0:0:0:
288,192,15626,1,0,0:0:0:0:
480,192,15626,1,0,0:0:0:0:
224,192,15810,1,0,0:0:0:0:
416,192,15810,1,0,0:0:0:0:
96,192,15994,1,0,0:0:0:0:
352,192,15994,1,0,0:0:0:0:
224,192,16055,1,0,0:0:0:0:
352,192,16116,1,0,0:0:0:0:
160,192,16178,1,0,0:0:0:0:
480,192,16178,1,0,0:0:0:0:
96,192,16362,1,0,0:0:0:0:
288,192,16362,1,0,0:0:0:0:
416,192,16362,1,0,0:0:0:0:
352,192,16730,1,0,0:0:0:0:
224,192,16914,1,0,0:0:0:0:
352,192,17006,1,0,0:0:0:0:
96,192,17098,1,0,0:0:0:0:
224,192,17098,1,0,0:0:0:0:
352,192,17282,1,0,0:0:0:0:
224,192,17466,1,0,0:0:0:0:
480,192,17466,1,0,0:0:0:0:
352,192,17650,1,0,0:0:0:0:
160,192,17834,1,0,0:0:0:0:
480,192,17834,1,0,0:0:0:0:
352,192,18018,1,0,0:0:0:0:
32,192,18202,1,0,0:0:0:70:crash-1.wav
96,192,18202,1,0,0:0:0:0:
416,192,18202,1,0,0:0:0:0:
224,192,18386,1,0,0:0:0:0:
160,192,18570,1,0,0:0:0:0:
288,192,18570,1,0,0:0:0:0:
480,192,18570,1,0,0:0:0:0:
224,192,18754,1,0,0:0:0:0:
352,192,18754,1,0,0:0:0:0:
416,192,18938,1,0,0:0:0:0:
288,192,19122,1,0,0:0:0:0:
160,192,19307,1,0,0:0:0:0:
352,192,19307,1,0,0:0:0:0:
480,192,19307,1,0,0:0:0:0:
288,192,19399,1,0,0:0:0:0:
224,192,19491,1,0,0:0:0:0:
416,192,19491,1,0,0:0:0:0:
160,192,19675,1,0,0:0:0:0:
288,192,19859,1,0,0:0:0:0:
96,192,20043,1,0,0:0:0:0:
224,192,20043,1,0,0:0:0:0:
416,192,20043,1,0,0:0:0:0:
352,192,20135,1,0,0:0:0:0:
288,192,20227,1,0,0:0:0:0:
480,192,20227,1,0,0:0:0:0:
416,192,20411,1,0,0:0:0:0:
160,192,20595,1,0,0:0:0:0:
96,192,20779,1,0,0:0:0:0:
352,192,20779,1,0,0:0:0:0:
416,192,20871,1,0,0:0:0:0:
160,192,20963,1,0,0:0:0:0:
352,192,20963,1,0,0:0:0:0:
288,192,21055,1,0,0:0:0:0:
224,192,21147,1,0,0:0:0:0:
416,192,21147,1,0,0:0:0:0:
160,192,21331,1,0,0:0:0:0:
352,192,21331,1,0,0:0:0:0:
96,192,21515,1,0,0:0:0:0:
288,192,21515,1,0,0:0:0:0:
480,192,21515,1,0,0:0:0:0:
224,192,21699,1,0,0:0:0:0:
416,192,21699,1,0,0:0:0:0:
96,192,21883,1,0,0:0:0:0:
352,192,21883,1,0,0:0:0:0:
224,192,21945,1,0,0:0:0:0:
352,192,22006,1,0,0:0:0:0:
160,192,22067,1,0,0:0:0:0:
480,192,22067,1,0,0:0:0:0:
96,192,22251,1,0,0:0:0:0:
224,192,22251,1,0,0:0:0:0:
416,192,22251,1,0,0:0:0:0:
32,192,22619,1,0,0:0:0:70:pedal-2.wav
32,192,22987,1,0,0:0:0:70:pedal-2.wav
32,192,23356,1,0,0:0:0:70:pedal-2.wav
224,192,23356,1,0,0:0:0:0:
352,192,23356,1,0,0:0:0:0:
480,192,23356,1,0,0:0:0:0:
288,192,23448,1,0,0:0:0:0:
160,192,23540,1,0,0:0:0:0:
288,192,23632,1,0,0:0:0:0:
32,192,23724,1,0,0:0:0:70:pedal-2.wav
96,192,23724,1,0,0:0:0:0:
224,192,23724,1,0,0:0:0:0:
352,192,23724,1,0,0:0:0:0:
288,192,23908,1,0,0:0:0:0:
32,192,24092,1,0,0:0:0:70:crash-2.wav
160,192,24092,1,0,0:0:0:70:kick.wav
352,192,24092,1,0,0:0:0:0:
480,192,24092,1,0,0:0:0:0:
224,192,24276,1,0,0:0:0:70:pedal.wav
288,192,24368,1,0,0:0:0:0:
96,192,24460,1,0,0:0:0:70:kick.wav
352,192,24460,1,0,0:0:0:0:
224,192,24644,1,0,0:0:0:70:pedal.wav
96,192,24828,1,0,0:0:0:70:kick.wav
288,192,24828,1,0,0:0:0:0:
416,192,24828,1,0,0:0:0:0:
224,192,25012,1,0,0:0:0:70:pedal.wav
160,192,25104,1,0,0:0:0:0:
96,192,25196,1,0,0:0:0:70:kick.wav
352,192,25196,1,0,0:0:0:0:
288,192,25380,1,0,0:0:0:70:pedal.wav
96,192,25564,1,0,0:0:0:70:kick.wav
352,192,25564,1,0,0:0:0:0:
480,192,25564,1,0,0:0:0:0:
224,192,25748,1,0,0:0:0:70:pedal.wav
352,192,25840,1,0,0:0:0:0:
96,192,25932,1,0,0:0:0:70:kick.wav
224,192,25932,1,0,0:0:0:0:
288,192,26116,1,0,0:0:0:70:pedal.wav
96,192,26300,1,0,0:0:0:70:kick.wav
352,192,26300,1,0,0:0:0:0:
416,192,26300,1,0,0:0:0:0:
224,192,26484,1,0,0:0:0:70:pedal.wav
96,192,26668,1,0,0:0:0:70:kick.wav
288,192,26668,1,0,0:0:0:0:
352,192,26668,1,0,0:0:0:0:
160,192,26853,1,0,0:0:0:70:pedal.wav
96,192,27037,1,0,0:0:0:70:kick.wav
224,192,27037,1,0,0:0:0:0:
288,192,27037,1,0,0:0:0:0:
416,192,27221,1,0,0:0:0:70:pedal.wav
96,192,27405,1,0,0:0:0:70:kick.wav
288,192,27405,1,0,0:0:0:0:
352,192,27405,1,0,0:0:0:0:
224,192,27589,1,0,0:0:0:70:pedal.wav
96,192,27773,1,0,0:0:0:70:kick.wav
352,192,27773,1,0,0:0:0:0:
416,192,27773,1,0,0:0:0:0:
288,192,27957,1,0,0:0:0:70:pedal.wav
352,192,28049,1,0,0:0:0:0:
96,192,28141,1,0,0:0:0:70:kick.wav
224,192,28141,1,0,0:0:0:0:
416,192,28141,1,0,0:0:0:0:
160,192,28325,1,0,0:0:0:70:pedal.wav
288,192,28325,1,0,0:0:0:0:
352,192,28417,1,0,0:0:0:0:
96,192,28509,1,0,0:0:0:70:kick.wav
224,192,28509,1,0,0:0:0:0:
416,192,28509,1,0,0:0:0:0:
288,192,28693,1,0,0:0:0:70:pedal.wav
224,192,28785,1,0,0:0:0:0:
160,192,28877,1,0,0:0:0:70:kick.wav
352,192,28877,1,0,0:0:0:0:
480,192,28877,1,0,0:0:0:0:
416,192,29061,1,0,0:0:0:70:pedal.wav
480,192,29153,1,0,0:0:0:0:
96,192,29245,1,0,0:0:0:70:kick.wav
224,192,29245,1,0,0:0:0:0:
352,192,29245,1,0,0:0:0:0:
160,192,29429,1,0,0:0:0:70:kick.wav
288,192,29429,1,0,0:0:0:70:pedal.wav
416,192,29429,1,0,0:0:0:0:
32,192,29613,1,0,0:0:0:70:crash-1.wav
224,192,29613,1,0,0:0:0:70:kick.wav
352,192,29613,1,0,0:0:0:0:
480,192,29613,1,0,0:0:0:0:
160,192,29797,1,0,0:0:0:70:pedal.wav
224,192,29889,1,0,0:0:0:0:
32,192,29981,1,0,0:0:0:70:crash-2.wav
96,192,29981,1,0,0:0:0:70:kick.wav
288,192,29981,1,0,0:0:0:0:
416,192,29981,1,0,0:0:0:0:
224,192,30165,1,0,0:0:0:70:pedal.wav
352,192,30257,1,0,0:0:0:0:
96,192,30349,1,0,0:0:0:70:kick.wav
224,192,30349,1,0,0:0:0:0:
288,192,30533,1,0,0:0:0:70:pedal.wav
96,192,30718,1,0,0:0:0:70:kick.wav
352,192,30718,1,0,0:0:0:0:
416,192,30718,1,0,0:0:0:0:
224,192,30902,1,0,0:0:0:70:pedal.wav
160,192,30994,1,0,0:0:0:0:
96,192,31086,1,0,0:0:0:70:kick.wav
352,192,31086,1,0,0:0:0:0:
288,192,31270,1,0,0:0:0:70:pedal.wav
160,192,31454,1,0,0:0:0:70:kick.wav
352,192,31454,1,0,0:0:0:0:
480,192,31454,1,0,0:0:0:0:
224,192,31638,1,0,0:0:0:70:pedal.wav
96,192,31822,1,0,0:0:0:70:kick.wav
288,192,31822,1,0,0:0:0:0:
416,192,31822,1,0,0:0:0:0:
224,192,32006,1,0,0:0:0:70:pedal.wav
160,192,32190,1,0,0:0:0:70:kick.wav
288,192,32190,1,0,0:0:0:0:
352,192,32190,1,0,0:0:0:0:
480,192,32190,1,0,0:0:0:0:
416,192,32374,1,0,0:0:0:70:pedal.wav
96,192,32558,1,0,0:0:0:70:kick.wav
224,192,32558,1,0,0:0:0:0:
288,192,32558,1,0,0:0:0:0:
352,192,32558,1,0,0:0:0:0:
160,192,32742,1,0,0:0:0:70:pedal.wav
96,192,32926,1,0,0:0:0:70:kick.wav
288,192,32926,1,0,0:0:0:0:
480,192,32926,1,0,0:0:0:0:
224,192,33110,1,0,0:0:0:70:pedal.wav
160,192,33294,1,0,0:0:0:70:kick.wav
352,192,33294,1,0,0:0:0:0:
480,192,33294,1,0,0:0:0:0:
224,192,33478,1,0,0:0:0:70:pedal.wav
416,192,33478,1,0,0:0:0:0:
96,192,33662,1,0,0:0:0:70:kick.wav
288,192,33662,1,0,0:0:0:0:
480,192,33662,1,0,0:0:0:0:
160,192,33846,1,0,0:0:0:70:pedal.wav
352,192,33846,1,0,0:0:0:0:
288,192,33938,1,0,0:0:0:70:snare.wav
96,192,34030,1,0,0:0:0:70:kick.wav
224,192,34030,1,0,0:0:0:0:
416,192,34030,1,0,0:0:0:0:
288,192,34214,1,0,0:0:0:70:pedal.wav
480,192,34214,1,0,0:0:0:0:
224,192,34399,1,0,0:0:0:70:kick.wav
352,192,34399,1,0,0:0:0:0:
480,192,34399,1,0,0:0:0:0:
160,192,34583,1,0,0:0:0:70:pedal.wav
416,192,34583,1,0,0:0:0:0:
96,192,34767,1,0,0:0:0:70:kick.wav
224,192,34767,1,0,0:0:0:0:
352,192,34767,1,0,0:0:0:0:
160,192,34951,1,0,0:0:0:70:pedal.wav
288,192,34951,1,0,0:0:0:0:
352,192,35043,1,0,0:0:0:0:
96,192,35135,1,0,0:0:0:70:kick.wav
288,192,35135,1,0,0:0:0:0:
416,192,35135,1,0,0:0:0:0:
480,192,35319,1,0,0:0:0:70:pedal.wav
352,192,35411,1,0,0:0:0:0:
96,192,35503,1,0,0:0:0:70:kick.wav
224,192,35503,1,0,0:0:0:0:
480,192,35595,1,0,0:0:0:0:
352,192,35687,1,0,0:0:0:70:pedal.wav
224,192,35779,1,0,0:0:0:0:
96,192,35871,1,0,0:0:0:70:kick.wav
288,192,35871,1,0,0:0:0:70:tik.wav
32,192,35871,1,0,0:0:0:0:
416,192,35871,1,0,0:0:0:0:
160,192,36055,1,0,0:0:0:70:pedal.wav
96,192,36239,1,0,0:0:0:70:tik.wav
416,192,36239,1,0,0:0:0:0:
160,192,36423,1,0,0:0:0:70:pedal.wav
480,192,36423,1,0,0:0:0:0:
416,192,36515,1,0,0:0:0:0:
96,192,36607,1,0,0:0:0:70:tik.wav
352,192,36607,1,0,0:0:0:0:
160,192,36791,1,0,0:0:0:70:pedal.wav
416,192,36791,1,0,0:0:0:0:
96,192,36975,1,0,0:0:0:70:tik.wav
288,192,36975,1,0,0:0:0:0:
160,192,37159,1,0,0:0:0:70:pedal.wav
96,192,37343,1,0,0:0:0:70:tik.wav
352,192,37343,1,0,0:0:0:0:
160,192,37527,1,0,0:0:0:70:pedal.wav
288,192,37527,1,0,0:0:0:0:
96,192,37711,1,0,0:0:0:70:tik.wav
480,192,37711,1,0,0:0:0:0:
160,192,37895,1,0,0:0:0:70:pedal.wav
352,192,37895,1,0,0:0:0:0:
96,192,38080,1,0,0:0:0:70:tik.wav
416,192,38080,1,0,0:0:0:0:
160,192,38264,1,0,0:0:0:70:pedal.wav
352,192,38264,1,0,0:0:0:0:
96,192,38448,1,0,0:0:0:70:tik.wav
288,192,38448,1,0,0:0:0:0:
160,192,38632,1,0,0:0:0:70:pedal.wav
352,192,38632,1,0,0:0:0:0:
96,192,38816,1,0,0:0:0:70:tik.wav
224,192,38816,1,0,0:0:0:0:
416,192,38816,1,0,0:0:0:0:
160,192,39000,1,0,0:0:0:70:pedal.wav
96,192,39184,1,0,0:0:0:70:tik.wav
288,192,39184,1,0,0:0:0:0:
416,192,39184,1,0,0:0:0:0:
160,192,39368,1,0,0:0:0:70:pedal.wav
480,192,39368,1,0,0:0:0:0:
96,192,39552,1,0,0:0:0:70:tik.wav
352,192,39552,1,0,0:0:0:0:
160,192,39736,1,0,0:0:0:70:pedal.wav
416,192,39736,1,0,0:0:0:0:
96,192,39920,1,0,0:0:0:70:tik.wav
416,192,39920,1,0,0:0:0:0:
160,192,40104,1,0,0:0:0:70:pedal.wav
352,192,40104,1,0,0:0:0:0:
96,192,40288,1,0,0:0:0:70:tik.wav
224,192,40288,1,0,0:0:0:0:
288,192,40288,1,0,0:0:0:0:
160,192,40472,1,0,0:0:0:70:pedal.wav
96,192,40656,1,0,0:0:0:70:tik.wav
160,192,40840,1,0,0:0:0:70:pedal.wav
96,192,41024,1,0,0:0:0:70:tik.wav
480,192,41024,128,0,41392:0:0:0:0:
160,192,41208,1,0,0:0:0:70:pedal.wav
96,192,41392,1,0,0:0:0:70:tik.wav
224,192,41392,1,0,0:0:0:0:
96,192,41576,1,0,0:0:0:70:kick.wav
224,192,41576,1,0,0:0:0:70:pedal.wav
416,192,41576,1,0,0:0:0:0:
32,192,41760,1,0,0:0:0:70:crash-1.wav
96,192,41760,1,0,0:0:0:70:kick.wav
480,192,41760,1,0,0:0:0:70:tik.wav
224,192,41945,1,0,0:0:0:70:pedal.wav
96,192,42129,1,0,0:0:0:70:tik.wav
416,192,42129,1,0,0:0:0:0:
224,192,42313,1,0,0:0:0:70:pedal.wav
480,192,42313,1,0,0:0:0:0:
416,192,42405,1,0,0:0:0:0:
96,192,42497,1,0,0:0:0:70:tik.wav
352,192,42497,1,0,0:0:0:0:
224,192,42681,1,0,0:0:0:70:pedal.wav
416,192,42681,1,0,0:0:0:0:
96,192,42865,1,0,0:0:0:70:tik.wav
288,192,42865,1,0,0:0:0:0:
224,192,43049,1,0,0:0:0:70:pedal.wav
96,192,43233,1,0,0:0:0:70:tik.wav
416,192,43233,1,0,0:0:0:0:
224,192,43417,1,0,0:0:0:70:pedal.wav
352,192,43417,1,0,0:0:0:0:
96,192,43601,1,0,0:0:0:70:tik.wav
480,192,43601,1,0,0:0:0:0:
224,192,43785,1,0,0:0:0:70:pedal.wav
416,192,43785,1,0,0:0:0:0:
96,192,43969,1,0,0:0:0:70:tik.wav
480,192,43969,1,0,0:0:0:0:
224,192,44153,1,0,0:0:0:70:pedal.wav
352,192,44153,1,0,0:0:0:0:
96,192,44337,1,0,0:0:0:70:tik.wav
288,192,44337,1,0,0:0:0:0:
160,192,44521,1,0,0:0:0:70:pedal.wav
352,192,44521,1,0,0:0:0:0:
96,192,44705,1,0,0:0:0:70:tik.wav
288,192,44705,1,0,0:0:0:0:
416,192,44705,1,0,0:0:0:0:
224,192,44889,1,0,0:0:0:70:pedal.wav
96,192,45073,1,0,0:0:0:70:tik.wav
288,192,45073,1,0,0:0:0:0:
352,192,45073,1,0,0:0:0:0:
160,192,45257,1,0,0:0:0:70:pedal.wav
416,192,45257,1,0,0:0:0:0:
96,192,45441,1,0,0:0:0:70:tik.wav
224,192,45441,1,0,0:0:0:0:
288,192,45441,1,0,0:0:0:0:
160,192,45626,1,0,0:0:0:70:pedal.wav
352,192,45626,1,0,0:0:0:0:
96,192,45810,1,0,0:0:0:70:tik.wav
288,192,45810,1,0,0:0:0:0:
416,192,45810,1,0,0:0:0:0:
224,192,45994,1,0,0:0:0:70:pedal.wav
352,192,45994,1,0,0:0:0:0:
416,192,46055,1,0,0:0:0:0:
352,192,46116,1,0,0:0:0:0:
96,192,46178,1,0,0:0:0:70:tik.wav
288,192,46178,1,0,0:0:0:70:pedal-2.wav
480,192,46178,1,0,0:0:0:0:
160,192,46362,1,0,0:0:0:70:pedal.wav
96,192,46546,1,0,0:0:0:70:tik.wav
288,192,46546,1,0,0:0:0:70:pedal-2.wav
416,192,46546,1,0,0:0:0:0:
224,192,46730,1,0,0:0:0:70:pedal.wav
160,192,46914,1,0,0:0:0:70:tik.wav
352,192,46914,1,0,0:0:0:70:pedal-2.wav
480,192,46914,1,0,0:0:0:0:
96,192,47098,1,0,0:0:0:70:kick.wav
416,192,47098,1,0,0:0:0:70:pedal.wav
32,192,47282,1,0,0:0:0:70:crash-1.wav
96,192,47282,1,0,0:0:0:70:tik.wav
224,192,47282,1,0,0:0:0:70:pedal-2.wav
416,192,47282,1,0,0:0:0:0:
32,192,47650,1,0,0:0:0:70:crash-2.wav
96,192,47650,1,0,0:0:0:70:kick.wav
352,192,47650,1,0,0:0:0:0:
480,192,47650,1,0,0:0:0:0:
288,192,47834,1,0,0:0:0:70:pedal.wav
96,192,48018,1,0,0:0:0:70:kick.wav
224,192,48018,1,0,0:0:0:0:
416,192,48018,1,0,0:0:0:0:
160,192,48202,1,0,0:0:0:70:pedal.wav
352,192,48202,1,0,0:0:0:0:
288,192,48294,1,0,0:0:0:0:
96,192,48386,1,0,0:0:0:70:kick.wav
224,192,48386,1,0,0:0:0:0:
416,192,48386,1,0,0:0:0:0:
160,192,48570,1,0,0:0:0:70:pedal.wav
352,192,48570,1,0,0:0:0:0:
96,192,48754,1,0,0:0:0:70:kick.wav
224,192,48754,1,0,0:0:0:0:
416,192,48754,1,0,0:0:0:0:
288,192,48938,1,0,0:0:0:70:pedal.wav
352,192,49030,1,0,0:0:0:0:
96,192,49122,1,0,0:0:0:70:kick.wav
416,192,49122,1,0,0:0:0:0:
224,192,49307,1,0,0:0:0:70:pedal.wav
352,192,49307,1,0,0:0:0:0:
96,192,49491,1,0,0:0:0:70:kick.wav
160,192,49491,1,0,0:0:0:0:
480,192,49491,1,0,0:0:0:0:
224,192,49675,1,0,0:0:0:70:pedal.wav
352,192,49675,1,0,0:0:0:0:
96,192,49859,1,0,0:0:0:70:kick.wav
288,192,49859,1,0,0:0:0:0:
416,192,49859,1,0,0:0:0:0:
224,192,50043,1,0,0:0:0:70:pedal.wav
352,192,50043,1,0,0:0:0:0:
96,192,50227,1,0,0:0:0:70:kick.wav
224,192,50227,1,0,0:0:0:0:
288,192,50227,1,0,0:0:0:0:
160,192,50411,1,0,0:0:0:70:pedal.wav
352,192,50411,1,0,0:0:0:0:
96,192,50595,1,0,0:0:0:70:kick.wav
224,192,50595,1,0,0:0:0:0:
352,192,50595,1,0,0:0:0:0:
416,192,50595,1,0,0:0:0:0:
288,192,50779,1,0,0:0:0:70:pedal.wav
96,192,50963,1,0,0:0:0:70:kick.wav
160,192,50963,1,0,0:0:0:0:
352,192,50963,1,0,0:0:0:0:
480,192,50963,1,0,0:0:0:0:
224,192,51147,1,0,0:0:0:70:pedal.wav
416,192,51147,1,0,0:0:0:0:
160,192,51331,1,0,0:0:0:70:kick.wav
288,192,51331,1,0,0:0:0:0:
480,192,51331,1,0,0:0:0:0:
160,192,51515,1,0,0:0:0:70:pedal.wav
352,192,51515,1,0,0:0:0:0:
96,192,51699,1,0,0:0:0:70:kick.wav
224,192,51699,1,0,0:0:0:0:
352,192,51699,1,0,0:0:0:0:
160,192,51883,1,0,0:0:0:70:pedal.wav
416,192,51883,1,0,0:0:0:0:
96,192,52067,1,0,0:0:0:70:kick.wav
224,192,52067,1,0,0:0:0:0:
288,192,52067,1,0,0:0:0:0:
352,192,52251,1,0,0:0:0:70:pedal.wav
224,192,52343,1,0,0:0:0:70:snare.wav
96,192,52435,1,0,0:0:0:70:kick.wav
480,192,52435,1,0,0:0:0:0:
352,192,52619,1,0,0:0:0:70:pedal.wav
224,192,52711,1,0,0:0:0:70:snare.wav
96,192,52803,1,0,0:0:0:70:kick.wav
352,192,52803,1,0,0:0:0:0:
480,192,52803,1,0,0:0:0:0:
96,192,52987,1,0,0:0:0:70:kick.wav
288,192,52987,1,0,0:0:0:70:pedal.wav
416,192,52987,1,0,0:0:0:0:
32,192,53172,1,0,0:0:0:70:crash-1.wav
96,192,53172,1,0,0:0:0:70:kick.wav
224,192,53172,1,0,0:0:0:0:
352,192,53172,1,0,0:0:0:0:
288,192,53356,1,0,0:0:0:70:pedal.wav
352,192,53448,1,0,0:0:0:0:
32,192,53540,1,0,0:0:0:70:crash-2.wav
96,192,53540,1,0,0:0:0:70:kick.wav
224,192,53540,1,0,0:0:0:0:
416,192,53540,1,0,0:0:0:0:
160,192,53724,1,0,0:0:0:70:pedal.wav
352,192,53724,1,0,0:0:0:0:
96,192,53908,1,0,0:0:0:70:kick.wav
224,192,53908,1,0,0:0:0:0:
480,192,53908,1,0,0:0:0:0:
160,192,54092,1,0,0:0:0:70:pedal.wav
352,192,54092,1,0,0:0:0:0:
416,192,54153,1,0,0:0:0:0:
352,192,54214,1,0,0:0:0:0:
96,192,54276,1,0,0:0:0:70:kick.wav
224,192,54276,1,0,0:0:0:0:
288,192,54276,1,0,0:0:0:0:
160,192,54460,1,0,0:0:0:70:pedal.wav
352,192,54460,1,0,0:0:0:0:
96,192,54644,1,0,0:0:0:70:kick.wav
224,192,54644,1,0,0:0:0:0:
416,192,54644,1,0,0:0:0:0:
288,192,54828,1,0,0:0:0:70:pedal.wav
352,192,54920,1,0,0:0:0:0:
96,192,55012,1,0,0:0:0:70:kick.wav
224,192,55012,1,0,0:0:0:0:
416,192,55012,1,0,0:0:0:0:
352,192,55196,1,0,0:0:0:70:pedal.wav
480,192,55196,1,0,0:0:0:0:
96,192,55380,1,0,0:0:0:70:kick.wav
160,192,55380,1,0,0:0:0:0:
224,192,55380,1,0,0:0:0:0:
352,192,55564,1,0,0:0:0:70:pedal.wav
480,192,55564,1,0,0:0:0:0:
96,192,55748,1,0,0:0:0:70:kick.wav
224,192,55748,1,0,0:0:0:0:
416,192,55748,1,0,0:0:0:0:
160,192,55932,1,0,0:0:0:70:pedal.wav
352,192,55932,1,0,0:0:0:0:
96,192,56116,1,0,0:0:0:70:kick.wav
288,192,56116,1,0,0:0:0:0:
480,192,56116,1,0,0:0:0:0:
352,192,56178,1,0,0:0:0:0:
416,192,56239,1,0,0:0:0:0:
160,192,56300,1,0,0:0:0:70:pedal.wav
288,192,56300,1,0,0:0:0:0:
96,192,56484,1,0,0:0:0:70:kick.wav
224,192,56484,1,0,0:0:0:0:
352,192,56484,1,0,0:0:0:0:
416,192,56484,1,0,0:0:0:0:
160,192,56668,1,0,0:0:0:70:pedal.wav
96,192,56853,1,0,0:0:0:70:kick.wav
288,192,56853,1,0,0:0:0:0:
416,192,56853,1,0,0:0:0:0:
480,192,56853,1,0,0:0:0:0:
160,192,57037,1,0,0:0:0:70:pedal.wav
352,192,57037,1,0,0:0:0:0:
96,192,57221,1,0,0:0:0:70:kick.wav
224,192,57221,1,0,0:0:0:0:
416,192,57221,1,0,0:0:0:0:
224,192,57405,1,0,0:0:0:70:pedal.wav
352,192,57405,1,0,0:0:0:0:
160,192,57589,1,0,0:0:0:70:kick.wav
224,192,57589,1,0,0:0:0:0:
416,192,57589,1,0,0:0:0:0:
288,192,57773,1,0,0:0:0:70:pedal.wav
480,192,57773,1,0,0:0:0:0:
160,192,57957,1,0,0:0:0:70:kick.wav
288,192,57957,1,0,0:0:0:0:
352,192,57957,1,0,0:0:0:0:
480,192,57957,1,0,0:0:0:0:
224,192,58141,1,0,0:0:0:70:pedal.wav
96,192,58325,1,0,0:0:0:70:kick.wav
160,192,58325,1,0,0:0:0:0:
288,192,58325,1,0,0:0:0:0:
416,192,58325,1,0,0:0:0:0:
352,192,58509,1,0,0:0:0:70:pedal.wav
96,192,58693,1,0,0:0:0:70:kick.wav
224,192,58693,1,0,0:0:0:0:
288,192,58693,1,0,0:0:0:0:
416,192,58693,1,0,0:0:0:0:
480,192,58877,1,0,0:0:0:70:pedal.wav
352,192,58969,1,0,0:0:0:0:
32,192,59061,1,0,0:0:0:70:crash-1.wav
96,192,59061,1,0,0:0:0:70:kick.wav
160,192,59061,1,0,0:0:0:0:
224,192,59061,1,0,0:0:0:0:
288,192,59061,1,0,0:0:0:0:
480,192,59153,1,0,0:0:0:0:
352,192,59245,1,0,0:0:0:70:pedal.wav
224,192,59337,1,0,0:0:0:0:
32,192,59429,1,0,0:0:0:70:crash-2.wav
160,192,59429,1,0,0:0:0:70:tik.wav
288,192,59429,1,0,0:0:0:0:
416,192,59429,1,0,0:0:0:0:
224,192,59613,1,0,0:0:0:0:
352,192,59613,1,0,0:0:0:0:
160,192,59797,1,0,0:0:0:70:tik.wav
480,192,59797,1,0,0:0:0:0:
224,192,59981,1,0,0:0:0:0:
480,192,59981,1,0,0:0:0:0:
96,192,60165,1,0,0:0:0:70:tik.wav
288,192,60165,1,0,0:0:0:0:
224,192,60349,1,0,0:0:0:0:
480,192,60349,1,0,0:0:0:0:
352,192,60533,1,0,0:0:0:70:tik.wav
480,192,60533,1,0,0:0:0:0:
224,192,60718,1,0,0:0:0:0:
288,192,60810,1,0,0:0:0:0:
160,192,60902,1,0,0:0:0:70:tik.wav
352,192,60902,1,0,0:0:0:0:
96,192,61086,1,0,0:0:0:0:
288,192,61086,1,0,0:0:0:0:
224,192,61270,1,0,0:0:0:70:tik.wav
416,192,61270,1,0,0:0:0:0:
160,192,61454,1,0,0:0:0:0:
416,192,61454,1,0,0:0:0:0:
96,192,61638,1,0,0:0:0:70:tik.wav
288,192,61638,1,0,0:0:0:0:
160,192,61822,1,0,0:0:0:0:
416,192,61822,1,0,0:0:0:0:
288,192,62006,1,0,0:0:0:70:tik.wav
416,192,62006,1,0,0:0:0:0:
224,192,62190,1,0,0:0:0:0:
288,192,62282,1,0,0:0:0:0:
160,192,62374,1,0,0:0:0:70:kick.wav
352,192,62374,1,0,0:0:0:70:tik.wav
480,192,62374,1,0,0:0:0:0:
96,192,62558,1,0,0:0:0:0:
224,192,62558,1,0,0:0:0:0:
288,192,62742,1,0,0:0:0:70:tik.wav
416,192,62742,1,0,0:0:0:0:
224,192,62926,1,0,0:0:0:0:
416,192,62926,1,0,0:0:0:0:
160,192,63110,1,0,0:0:0:70:tik.wav
352,192,63110,1,0,0:0:0:0:
224,192,63294,1,0,0:0:0:0:
416,192,63294,1,0,0:0:0:0:
96,192,63478,1,0,0:0:0:70:tik.wav
480,192,63478,1,0,0:0:0:0:
224,192,63662,1,0,0:0:0:0:
352,192,63662,1,0,0:0:0:0:
96,192,63846,1,0,0:0:0:70:tik.wav
480,192,63846,1,0,0:0:0:0:
160,192,64030,1,0,0:0:0:0:
288,192,64030,1,0,0:0:0:0:
224,192,64214,1,0,0:0:0:70:tik.wav
352,192,64214,1,0,0:0:0:0:
352,192,64399,1,0,0:0:0:0:
480,192,64399,1,0,0:0:0:0:
96,192,64583,1,0,0:0:0:70:kick.wav
160,192,64583,1,0,0:0:0:70:tik.wav
288,192,64583,1,0,0:0:0:0:
224,192,64767,1,0,0:0:0:0:
352,192,64767,1,0,0:0:0:0:
32,192,64951,1,0,0:0:0:70:crash-1.wav
96,192,64951,1,0,0:0:0:70:kick.wav
352,192,64951,1,0,0:0:0:70:tik.wav
160,192,65043,1,0,0:0:0:0:
224,192,65135,1,0,0:0:0:0:
288,192,65227,1,0,0:0:0:0:
32,192,65319,1,0,0:0:0:70:crash-2.wav
96,192,65319,1,0,0:0:0:70:kick.wav
352,192,65319,1,0,0:0:0:70:tik.wav
480,192,65319,1,0,0:0:0:0:
224,192,65503,1,0,0:0:0:0:
416,192,65503,1,0,0:0:0:0:
160,192,65687,1,0,0:0:0:70:tik.wav
352,192,65687,1,0,0:0:0:0:
224,192,65871,1,0,0:0:0:0:
352,192,65871,1,0,0:0:0:0:
96,192,66055,1,0,0:0:0:70:snare.wav
160,192,66055,1,0,0:0:0:70:tik.wav
480,192,66055,1,0,0:0:0:0:
224,192,66239,1,0,0:0:0:0:
416,192,66239,1,0,0:0:0:0:
288,192,66423,1,0,0:0:0:70:tik.wav
416,192,66423,1,0,0:0:0:0:
224,192,66607,1,0,0:0:0:0:
288,192,66699,1,0,0:0:0:0:
96,192,66791,1,0,0:0:0:70:kick.wav
352,192,66791,1,0,0:0:0:70:tik.wav
480,192,66791,1,0,0:0:0:0:
160,192,66975,1,0,0:0:0:0:
416,192,66975,1,0,0:0:0:0:
224,192,67159,1,0,0:0:0:70:tik.wav
352,192,67159,1,0,0:0:0:0:
160,192,67343,1,0,0:0:0:0:
352,192,67343,1,0,0:0:0:0:
96,192,67527,1,0,0:0:0:70:snare.wav
416,192,67527,1,0,0:0:0:70:tik.wav
480,192,67527,1,0,0:0:0:0:
224,192,67711,1,0,0:0:0:0:
352,192,67711,1,0,0:0:0:0:
96,192,67895,1,0,0:0:0:70:tik.wav
224,192,67895,1,0,0:0:0:0:
352,192,68080,1,0,0:0:0:0:
416,192,68172,1,0,0:0:0:0:
96,192,68264,1,0,0:0:0:70:kick.wav
224,192,68264,1,0,0:0:0:70:tik.wav
480,192,68264,1,0,0:0:0:0:
224,192,68448,1,0,0:0:0:0:
352,192,68448,1,0,0:0:0:0:
96,192,68632,1,0,0:0:0:70:tik.wav
288,192,68632,1,0,0:0:0:0:
96,192,68816,1,0,0:0:0:0:
352,192,68816,1,0,0:0:0:0:
224,192,69000,1,0,0:0:0:70:snare.wav
416,192,69000,1,0,0:0:0:70:tik.wav
480,192,69000,1,0,0:0:0:0:
96,192,69184,1,0,0:0:0:0:
352,192,69184,1,0,0:0:0:0:
96,192,69368,1,0,0:0:0:70:tik.wav
224,192,69368,1,0,0:0:0:0:
288,192,69552,1,0,0:0:0:0:
480,192,69552,1,0,0:0:0:0:
96,192,69736,1,0,0:0:0:70:kick.wav
224,192,69736,1,0,0:0:0:70:tik.wav
416,192,69736,1,0,0:0:0:0:
96,192,69920,1,0,0:0:0:0:
224,192,69920,1,0,0:0:0:0:
32,192,70104,1,0,0:0:0:70:snare.wav
352,192,70104,1,0,0:0:0:70:tik.wav
416,192,70104,1,0,0:0:0:0:
480,192,70104,1,0,0:0:0:0:
96,192,70288,1,0,0:0:0:70:kick.wav
160,192,70288,1,0,0:0:0:0:
224,192,70288,1,0,0:0:0:0:
352,192,70472,1,0,0:0:0:70:tik.wav
480,192,70472,1,0,0:0:0:0:
32,192,70656,1,0,0:0:0:70:crash-1.wav
96,192,70656,1,0,0:0:0:0:
352,192,70656,1,0,0:0:0:0:
480,192,70656,1,0,0:0:0:0:
224,192,70840,1,0,0:0:0:0:
288,192,70932,1,0,0:0:0:0:
352,192,71024,1,0,0:0:0:0:
416,192,71116,1,0,0:0:0:0:
32,192,71208,1,0,0:0:0:70:crash-2.wav
96,192,71208,1,0,0:0:0:70:kick.wav
224,192,71208,1,0,0:0:0:0:
480,192,71208,1,0,0:0:0:0:
352,192,71392,1,0,0:0:0:70:pedal.wav
160,192,71576,1,0,0:0:0:70:kick.wav
288,192,71576,1,0,0:0:0:0:
480,192,71576,1,0,0:0:0:0:
224,192,71760,1,0,0:0:0:70:pedal.wav
416,192,71760,1,0,0:0:0:0:
96,192,71945,1,0,0:0:0:70:kick.wav
160,192,71945,1,0,0:0:0:0:
288,192,72129,1,0,0:0:0:70:pedal.wav
416,192,72129,1,0,0:0:0:0:
352,192,72190,1,0,0:0:0:0:
288,192,72251,1,0,0:0:0:0:
96,192,72313,1,0,0:0:0:70:kick.wav
224,192,72313,1,0,0:0:0:0:
416,192,72313,1,0,0:0:0:0:
160,192,72497,1,0,0:0:0:70:pedal.wav
352,192,72497,1,0,0:0:0:0:
96,192,72681,1,0,0:0:0:70:kick.wav
416,192,72681,1,0,0:0:0:0:
224,192,72865,1,0,0:0:0:70:pedal.wav
352,192,72865,1,0,0:0:0:0:
288,192,72926,1,0,0:0:0:0:
352,192,72987,1,0,0:0:0:0:
96,192,73049,1,0,0:0:0:70:kick.wav
224,192,73049,1,0,0:0:0:0:
416,192,73049,1,0,0:0:0:0:
288,192,73233,1,0,0:0:0:70:pedal.wav
480,192,73233,1,0,0:0:0:0:
96,192,73417,1,0,0:0:0:70:kick.wav
224,192,73417,1,0,0:0:0:0:
288,192,73601,1,0,0:0:0:70:pedal.wav
480,192,73601,1,0,0:0:0:0:
416,192,73693,1,0,0:0:0:0:
96,192,73785,1,0,0:0:0:70:kick.wav
352,192,73785,1,0,0:0:0:0:
288,192,73877,1,0,0:0:0:0:
160,192,73969,1,0,0:0:0:70:pedal.wav
352,192,73969,1,0,0:0:0:0:
288,192,74061,1,0,0:0:0:0:
96,192,74153,1,0,0:0:0:70:kick.wav
224,192,74153,1,0,0:0:0:0:
416,192,74153,1,0,0:0:0:0:
160,192,74337,1,0,0:0:0:70:pedal.wav
352,192,74337,1,0,0:0:0:0:
96,192,74521,1,0,0:0:0:70:kick.wav
288,192,74521,1,0,0:0:0:0:
480,192,74521,1,0,0:0:0:0:
224,192,74705,1,0,0:0:0:70:pedal.wav
416,192,74705,1,0,0:0:0:0:
96,192,74889,1,0,0:0:0:70:kick.wav
352,192,74889,1,0,0:0:0:0:
224,192,74951,1,0,0:0:0:0:
352,192,75012,1,0,0:0:0:0:
160,192,75073,1,0,0:0:0:70:pedal.wav
480,192,75073,1,0,0:0:0:0:
96,192,75257,1,0,0:0:0:70:kick.wav
288,192,75257,1,0,0:0:0:0:
416,192,75257,1,0,0:0:0:0:
224,192,75441,1,0,0:0:0:70:pedal.wav
96,192,75626,1,0,0:0:0:70:kick.wav
352,192,75626,1,0,0:0:0:0:
224,192,75810,1,0,0:0:0:70:pedal.wav
96,192,75994,1,0,0:0:0:70:kick.wav
416,192,75994,1,0,0:0:0:0:
224,192,76178,1,0,0:0:0:70:pedal.wav
352,192,76178,1,0,0:0:0:0:
416,192,76239,1,0,0:0:0:0:
352,192,76300,1,0,0:0:0:0:
96,192,76362,1,0,0:0:0:70:kick.wav
288,192,76362,1,0,0:0:0:0:
480,192,76362,1,0,0:0:0:0:
160,192,76546,1,0,0:0:0:70:pedal.wav
352,192,76546,1,0,0:0:0:0:
32,192,76730,1,0,0:0:0:70:crash-1.wav
96,192,76730,1,0,0:0:0:70:kick.wav
224,192,76730,1,0,0:0:0:0:
416,192,76730,1,0,0:0:0:0:
160,192,76914,1,0,0:0:0:70:pedal.wav
352,192,76914,1,0,0:0:0:0:
224,192,77006,1,0,0:0:0:0:
32,192,77098,1,0,0:0:0:70:crash-2.wav
96,192,77098,1,0,0:0:0:70:kick.wav
288,192,77098,1,0,0:0:0:0:
480,192,77098,1,0,0:0:0:0:
224,192,77282,1,0,0:0:0:70:pedal.wav
160,192,77466,1,0,0:0:0:70:kick.wav
288,192,77466,1,0,0:0:0:0:
480,192,77466,1,0,0:0:0:0:
224,192,77650,1,0,0:0:0:70:pedal.wav
416,192,77650,1,0,0:0:0:0:
96,192,77834,1,0,0:0:0:70:kick.wav
480,192,77834,1,0,0:0:0:0:
352,192,78018,1,0,0:0:0:70:pedal.wav
288,192,78110,1,0,0:0:0:0:
96,192,78202,1,0,0:0:0:70:kick.wav
224,192,78202,1,0,0:0:0:0:
416,192,78202,1,0,0:0:0:0:
160,192,78386,1,0,0:0:0:70:pedal.wav
352,192,78386,1,0,0:0:0:0:
96,192,78570,1,0,0:0:0:70:kick.wav
352,192,78570,1,0,0:0:0:0:
160,192,78754,1,0,0:0:0:70:pedal.wav
96,192,78938,1,0,0:0:0:70:kick.wav
224,192,78938,1,0,0:0:0:0:
416,192,78938,1,0,0:0:0:0:
288,192,79122,1,0,0:0:0:70:pedal.wav
480,192,79122,1,0,0:0:0:0:
96,192,79307,1,0,0:0:0:70:kick.wav
224,192,79307,1,0,0:0:0:0:
416,192,79491,1,0,0:0:0:70:pedal.wav
160,192,79675,1,0,0:0:0:70:kick.wav
352,192,79675,1,0,0:0:0:0:
416,192,79767,1,0,0:0:0:0:
224,192,79859,1,0,0:0:0:70:pedal.wav
352,192,79859,1,0,0:0:0:0:
288,192,79951,1,0,0:0:0:0:
160,192,80043,1,0,0:0:0:70:kick.wav
352,192,80043,1,0,0:0:0:0:
480,192,80043,1,0,0:0:0:0:
224,192,80227,1,0,0:0:0:70:pedal.wav
416,192,80227,1,0,0:0:0:0:
96,192,80411,1,0,0:0:0:70:kick.wav
288,192,80411,1,0,0:0:0:0:
480,192,80411,1,0,0:0:0:0:
160,192,80595,1,0,0:0:0:70:pedal.wav
352,192,80595,1,0,0:0:0:0:
96,192,80779,1,0,0:0:0:70:kick.wav
416,192,80779,1,0,0:0:0:0:
224,192,80840,1,0,0:0:0:0:
352,192,80902,1,0,0:0:0:0:
96,192,80963,1,0,0:0:0:70:kick.wav
160,192,80963,1,0,0:0:0:70:pedal.wav
416,192,80963,1,0,0:0:0:0:
96,192,81147,1,0,0:0:0:70:kick.wav
32,192,81147,1,0,0:0:0:0:
224,192,81147,1,0,0:0:0:0:
352,192,81147,1,0,0:0:0:0:
160,192,81331,1,0,0:0:0:0:
288,192,81331,1,0,0:0:0:0:
96,192,81515,1,0,0:0:0:70:pedal-2.wav
352,192,81515,1,0,0:0:0:0:
224,192,81607,1,0,0:0:0:0:
96,192,81699,1,0,0:0:0:0:
416,192,81699,1,0,0:0:0:0:
224,192,81791,1,0,0:0:0:0:
96,192,81883,1,0,0:0:0:70:pedal-2.wav
352,192,81883,1,0,0:0:0:0:
224,192,81975,1,0,0:0:0:0:
96,192,82067,1,0,0:0:0:0:
416,192,82067,1,0,0:0:0:0:
224,192,82159,1,0,0:0:0:0:
96,192,82251,1,0,0:0:0:70:pedal-2.wav
480,192,82251,1,0,0:0:0:0:
160,192,82313,1,0,0:0:0:0:
224,192,82374,1,0,0:0:0:0:
288,192,82435,1,0,0:0:0:0:
352,192,82497,1,0,0:0:0:0:
416,192,82558,1,0,0:0:0:0:
96,192,82619,1,0,0:0:0:70:crash-1.wav
480,192,82619,1,0,0:0:0:70:pedal-2.wav
160,192,82681,1,0,0:0:0:0:
224,192,82742,1,0,0:0:0:0:
288,192,82803,1,0,0:0:0:0:
352,192,82865,1,0,0:0:0:0:
416,192,82926,1,0,0:0:0:0:
32,192,82987,1,0,0:0:0:70:crash-2.wav
96,192,82987,1,0,0:0:0:70:kick.wav
480,192,82987,1,0,0:0:0:0:
416,192,83080,1,0,0:0:0:0:
224,192,83172,1,0,0:0:0:70:pedal.wav
352,192,83172,1,0,0:0:0:0:
416,192,83264,1,0,0:0:0:0:
96,192,83356,1,0,0:0:0:70:kick.wav
480,192,83356,1,0,0:0:0:0:
224,192,83540,1,0,0:0:0:70:pedal.wav
416,192,83540,1,0,0:0:0:0:
352,192,83632,1,0,0:0:0:0:
96,192,83724,1,0,0:0:0:70:kick.wav
288,192,83724,1,0,0:0:0:0:
352,192,83816,1,0,0:0:0:0:
224,192,83908,1,0,0:0:0:70:pedal.wav
416,192,83908,1,0,0:0:0:0:
352,192,84000,1,0,0:0:0:0:
96,192,84092,1,0,0:0:0:70:kick.wav
480,192,84092,1,0,0:0:0:0:
416,192,84184,1,0,0:0:0:0:
160,192,84276,1,0,0:0:0:70:pedal.wav
352,192,84276,1,0,0:0:0:0:
288,192,84368,1,0,0:0:0:0:
96,192,84460,1,0,0:0:0:70:kick.wav
416,192,84460,1,0,0:0:0:0:
352,192,84552,1,0,0:0:0:0:
160,192,84644,1,0,0:0:0:70:pedal.wav
288,192,84644,1,0,0:0:0:0:
224,192,84736,1,0,0:0:0:0:
96,192,84828,1,0,0:0:0:70:kick.wav
352,192,84828,1,0,0:0:0:0:
288,192,84920,1,0,0:0:0:0:
224,192,85012,1,0,0:0:0:70:pedal.wav
416,192,85012,1,0,0:0:0:0:
160,192,85104,1,0,0:0:0:0:
96,192,85196,1,0,0:0:0:70:kick.wav
288,192,85196,1,0,0:0:0:0:
224,192,85257,1,0,0:0:0:0:
160,192,85319,1,0,0:0:0:0:
96,192,85380,1,0,0:0:0:70:pedal.wav
352,192,85380,1,0,0:0:0:0:
160,192,85441,1,0,0:0:0:0:
224,192,85503,1,0,0:0:0:0:
288,192,85564,1,0,0:0:0:70:kick.wav
480,192,85564,1,0,0:0:0:0:
416,192,85626,1,0,0:0:0:0:
352,192,85687,1,0,0:0:0:0:
96,192,85748,1,0,0:0:0:70:pedal.wav
288,192,85748,1,0,0:0:0:0:
224,192,85810,1,0,0:0:0:0:
160,192,85871,1,0,0:0:0:0:
96,192,85932,1,0,0:0:0:70:kick.wav
352,192,85932,1,0,0:0:0:0:
480,192,85932,1,0,0:0:0:0:
160,192,86116,1,0,0:0:0:70:pedal.wav
352,192,86116,1,0,0:0:0:0:
96,192,86300,1,0,0:0:0:70:kick.wav
288,192,86300,1,0,0:0:0:0:
480,192,86300,1,0,0:0:0:0:
224,192,86484,1,0,0:0:0:70:pedal.wav
416,192,86484,1,0,0:0:0:0:
96,192,86668,1,0,0:0:0:70:kick.wav
224,192,86668,1,0,0:0:0:0:
352,192,86668,1,0,0:0:0:0:
416,192,86730,1,0,0:0:0:0:
352,192,86791,1,0,0:0:0:0:
160,192,86853,1,0,0:0:0:70:pedal.wav
288,192,86853,1,0,0:0:0:0:
224,192,86945,1,0,0:0:0:0:
32,192,87037,1,0,0:0:0:70:crash-2.wav
160,192,87037,1,0,0:0:0:70:kick.wav
352,192,87037,1,0,0:0:0:0:
480,192,87037,1,0,0:0:0:0:
288,192,87221,1,0,0:0:0:70:pedal.wav
96,192,87405,1,0,0:0:0:70:kick.wav
224,192,87405,1,0,0:0:0:0:
352,192,87589,1,0,0:0:0:70:pedal.wav
96,192,87773,1,0,0:0:0:70:kick.wav
224,192,87773,1,0,0:0:0:0:
160,192,87957,1,0,0:0:0:70:pedal.wav
352,192,87957,1,0,0:0:0:0:
416,192,88049,1,0,0:0:0:0:
224,192,88141,1,0,0:0:0:70:kick.wav
480,192,88141,1,0,0:0:0:0:
416,192,88233,1,0,0:0:0:0:
160,192,88325,1,0,0:0:0:70:pedal.wav
352,192,88325,1,0,0:0:0:0:
288,192,88417,1,0,0:0:0:0:
32,192,88509,1,0,0:0:0:70:crash-1.wav
96,192,88509,1,0,0:0:0:70:kick.wav
224,192,88509,1,0,0:0:0:0:
352,192,88509,1,0,0:0:0:0:
288,192,88601,1,0,0:0:0:0:
224,192,88693,1,0,0:0:0:70:pedal.wav
416,192,88693,1,0,0:0:0:0:
160,192,88785,1,0,0:0:0:0:
32,192,88877,1,0,0:0:0:70:crash-2.wav
96,192,88877,1,0,0:0:0:70:kick.wav
288,192,88877,1,0,0:0:0:0:
352,192,88877,1,0,0:0:0:0:
160,192,89061,1,0,0:0:0:70:pedal.wav
224,192,89061,1,0,0:0:0:0:
416,192,89153,1,0,0:0:0:0:
96,192,89245,1,0,0:0:0:70:kick.wav
352,192,89245,1,0,0:0:0:0:
224,192,89429,128,0,89981:0:0:0:70:pedal.wav
416,192,89429,1,0,0:0:0:0:
96,192,89613,1,0,0:0:0:70:kick.wav
480,192,89613,1,0,0:0:0:0:
416,192,89797,1,0,0:0:0:70:pedal.wav
96,192,89981,1,0,0:0:0:70:kick.wav
352,192,89981,1,0,0:0:0:0:
160,192,90165,1,0,0:0:0:70:pedal.wav
352,192,90165,128,0,90718:0:0:0:0:
96,192,90349,1,0,0:0:0:70:kick.wav
480,192,90349,1,0,0:0:0:0:
224,192,90533,1,0,0:0:0:70:pedal.wav
96,192,90718,1,0,0:0:0:70:kick.wav
288,192,90718,1,0,0:0:0:0:
224,192,90902,1,0,0:0:0:70:pedal.wav
480,192,90902,128,0,91454:0:0:0:0:
96,192,91086,1,0,0:0:0:70:kick.wav
352,192,91086,1,0,0:0:0:0:
288,192,91270,1,0,0:0:0:70:pedal.wav
96,192,91454,1,0,0:0:0:70:kick.wav
288,192,91454,1,0,0:0:0:0:
224,192,91638,1,0,0:0:0:70:pedal.wav
416,192,91638,1,0,0:0:0:0:
160,192,91730,1,0,0:0:0:0:
96,192,91822,1,0,0:0:0:70:kick.wav
288,192,91822,1,0,0:0:0:0:
480,192,91822,1,0,0:0:0:0:
160,192,92015,1,0,0:0:0:70:pedal.wav
352,192,92015,1,0,0:0:0:0:
96,192,92209,1,0,0:0:0:70:kick.wav
224,192,92209,1,0,0:0:0:0:
416,192,92209,1,0,0:0:0:0:
160,192,92420,1,0,0:0:0:70:kick.wav
352,192,92420,1,0,0:0:0:70:pedal.wav
96,192,92631,1,0,0:0:0:70:kick.wav
224,192,92631,1,0,0:0:0:0:
416,192,92631,1,0,0:0:0:0:
288,192,92705,1,0,0:0:0:0:
352,192,92779,1,0,0:0:0:0:
224,192,92853,1,0,0:0:0:70:pedal.wav
416,192,92853,1,0,0:0:0:0:
32,192,93109,1,0,0:0:0:70:crash-2.wav
96,192,93109,1,0,0:0:0:70:kick.wav
224,192,93109,1,0,0:0:0:0:
352,192,93109,1,0,0:0:0:0:
480,192,93109,1,0,0:0:0:0:
96,192,93717,1,0,0:0:0:0:
224,192,93785,1,0,0:0:0:0:
352,192,93853,1,0,0:0:0:0:
480,192,93920,1,0,0:0:0:0:
96,192,93988,1,0,0:0:0:0:
224,192,94056,1,0,0:0:0:0:
352,192,94123,1,0,0:0:0:0:
480,192,94191,1,0,0:0:0:0:
96,192,94259,1,0,0:0:0:0:
224,192,94326,1,0,0:0:0:0:
352,192,94394,1,0,0:0:0:0:
480,192,94462,1,0,0:0:0:0:
160,192,94529,1,0,0:0:0:0:
288,192,94597,1,0,0:0:0:0:
416,192,94665,1,0,0:0:0:0:
160,192,94732,1,0,0:0:0:0:
288,192,94800,1,0,0:0:0:0:
416,192,94868,1,0,0:0:0:0:
160,192,94935,1,0,0:0:0:0:
288,192,95003,1,0,0:0:0:0:
416,192,95071,1,0,0:0:0:0:
160,192,95138,1,0,0:0:0:0:
288,192,95206,1,0,0:0:0:0:
416,192,95274,1,0,0:0:0:0:
96,192,96356,1,0,0:0:0:0:
224,192,96356,1,0,0:0:0:0:
352,192,96356,1,0,0:0:0:0:
352,192,96965,1,0,0:0:0:0:
480,192,97033,1,0,0:0:0:0:
224,192,97100,1,0,0:0:0:0:
96,192,97168,1,0,0:0:0:0:
352,192,97236,1,0,0:0:0:0:
480,192,97303,1,0,0:0:0:0:
224,192,97371,1,0,0:0:0:0:
96,192,97439,1,0,0:0:0:0:
352,192,97506,1,0,0:0:0:0:
480,192,97574,1,0,0:0:0:0:
224,192,97642,1,0,0:0:0:0:
96,192,97709,1,0,0:0:0:0:
352,192,97777,1,0,0:0:0:0:
480,192,97845,1,0,0:0:0:0:
224,192,97912,1,0,0:0:0:0:
96,192,97980,1,0,0:0:0:0:
416,192,98048,1,0,0:0:0:0:
288,192,98115,1,0,0:0:0:0:
160,192,98183,1,0,0:0:0:0:
416,192,98251,1,0,0:0:0:0:
288,192,98318,1,0,0:0:0:0:
160,192,98386,1,0,0:0:0:0:
416,192,98454,1,0,0:0:0:0:
288,192,98521,1,0,0:0:0:0:
160,192,98589,1,0,0:0:0:0:
416,192,98657,1,0,0:0:0:0:
288,192,98724,1,0,0:0:0:0:
160,192,98792,1,0,0:0:0:0:
416,192,98860,1,0,0:0:0:0:
288,192,98927,1,0,0:0:0:0:
160,192,98995,1,0,0:0:0:0:
416,192,99062,1,0,0:0:0:0:
288,192,99130,1,0,0:0:0:0:
160,192,99198,1,0,0:0:0:0:
416,192,99265,1,0,0:0:0:0:
288,192,99333,1,0,0:0:0:0:
160,192,99401,1,0,0:0:0:0:
352,192,99468,128,0,101025:0:0:0:0:
224,192,99536,128,0,101025:0:0:0:0:
96,192,102596,1,0,0:0:0:0:
160,192,102688,1,0,0:0:0:0:
224,192,102780,1,0,0:0:0:0:
288,192,102872,1,0,0:0:0:0:
352,192,102964,1,0,0:0:0:0:
416,192,103056,1,0,0:0:0:0:
480,192,103102,1,0,0:0:0:0:
