osu file format v14

[General]
AudioFilename: audio.mp3
AudioLeadIn: 0
PreviewTime: 70840
Countdown: 0
SampleSet: Soft
StackLeniency: 0.7
Mode: 3
LetterboxInBreaks: 0
SpecialStyle: 1
WidescreenStoryboard: 1

[Editor]
Bookmarks: 9000,14889,20779,25918,37697,49476,61255,73785
DistanceSpacing: 1
BeatDivisor: 3
GridSize: 4
TimelineZoom: 2.839999

[Metadata]
Title:Fly far bounce
TitleUnicode:Fly far bounce
Artist:Nekomata Master
ArtistUnicode:猫叉Master
Creator:pocket-Gao
Version:4K Normal
Source:ノスタルジア
Tags:DanceDanceRevolution A DDR jubeat clan MÚSECA 1+1/2 MUSECA SOUND VOLTEX IV HEAVENLY HAVEN SDVX Video Game Electronic Instrumental BEMANI pop'n music うさぎと猫と少年の夢 Aionara [Crz]Charoi biemote
BeatmapID:2072159
BeatmapSetID:930775

[Difficulty]
HPDrainRate:7
CircleSize:4
OverallDifficulty:7
ApproachRate:5
SliderMultiplier:1.4
SliderTickRate:1

[Events]
//Background and Video events
0,0,"A.jpg",0,0
//Break Periods
//Storyboard Layer 0 (Background)
//Storyboard Layer 1 (Fail)
//Storyboard Layer 2 (Pass)
//Storyboard Layer 3 (Foreground)
//Storyboard Layer 4 (Overlay)
//Storyboard Sound Samples
Sample,29429,0,"pedal.wav",70
Sample,41576,0,"pedal.wav",70
Sample,41760,0,"tik.wav",70
Sample,47098,0,"pedal.wav",70
Sample,47282,0,"pedal-2.wav",70
Sample,52987,0,"pedal.wav",70
Sample,64951,0,"tik.wav",70
Sample,65319,0,"tik.wav",70
Sample,80963,0,"pedal.wav",70
Sample,82619,0,"pedal-2.wav",70
Sample,92420,0,"pedal.wav",70

[TimingPoints]
534,368.098159509202,4,2,1,50,1,0
82987,-100,4,2,1,50,0,1
88877,-100,4,2,1,50,0,0
91822,387.096774193548,4,2,1,50,1,0
91822,-95.1474785918173,4,2,1,50,0,0
92209,422.535211267606,4,2,1,50,1,0
92209,-86.9565217391304,4,2,1,50,0,0
92631,444.444444444444,4,2,1,50,1,0
92631,-82.6446280991736,4,2,1,50,0,0
92853,512.820512820513,4,2,1,50,1,0
92853,-71.9424460431655,4,2,1,50,0,0
93109,405.95399188092,4,2,1,50,1,0
93109,-90.9090909090909,4,2,1,50,0,0
102596,368.098159509202,4,2,1,50,1,0

[HitObjects]
64,192,165,5,0,0:0:0:0:
192,192,349,1,0,0:0:0:0:
320,192,534,1,0,0:0:0:0:
448,192,534,1,0,0:0:0:0:
64,192,1086,1,0,0:0:0:0:
192,192,1086,1,0,0:0:0:0:
320,192,1822,1,0,0:0:0:0:
448,192,1822,1,0,0:0:0:0:
192,192,2374,1,0,0:0:0:0:
64,192,2558,1,0,0:0:0:0:
320,192,2558,1,0,0:0:0:0:
64,192,3110,128,0,3478:0:0:0:0:
320,192,3478,1,0,0:0:0:0:
448,192,3478,1,0,0:0:0:0:
64,192,4030,1,0,0:0:0:0:
192,192,4030,1,0,0:0:0:0:
192,192,4399,1,0,0:0:0:0:
320,192,4583,1,0,0:0:0:0:
448,192,4583,1,0,0:0:0:0:
320,192,5135,1,0,0:0:0:0:
192,192,5319,1,0,0:0:0:0:
320,192,5503,1,0,0:0:0:0:
64,192,6055,128,0,6423:0:0:0:0:
320,192,6423,1,0,0:0:0:0:
448,192,6423,1,0,0:0:0:0:
192,192,6791,1,0,0:0:0:0:
320,192,6975,1,0,0:0:0:0:
448,192,6975,128,0,7527:0:0:0:0:
64,192,7527,1,0,0:0:0:0:
192,192,7711,1,0,0:0:0:0:
320,192,7711,1,0,0:0:0:0:
448,192,8264,1,0,0:0:0:0:
64,192,8448,128,0,9000:0:0:0:0:
192,192,8448,1,0,0:0:0:0:
448,192,9000,1,0,0:0:0:0:
320,192,9184,1,0,0:0:0:0:
64,192,9368,1,0,0:0:0:0:
448,192,9368,1,0,0:0:0:0:
320,192,9552,1,0,0:0:0:0:
192,192,9736,1,0,0:0:0:0:
64,192,9920,1,0,0:0:0:0:
448,192,9920,1,0,0:0:0:0:
320,192,10104,1,0,0:0:0:0:
448,192,10288,1,0,0:0:0:0:
64,192,10472,1,0,0:0:0:0:
192,192,10472,1,0,0:0:0:0:
320,192,10840,1,0,0:0:0:0:
320,192,11208,1,0,0:0:0:0:
64,192,11576,1,0,0:0:0:0:
320,192,11576,1,0,0:0:0:0:
192,192,11945,1,0,0:0:0:0:
448,192,11945,1,0,0:0:0:0:
320,192,12129,1,0,0:0:0:0:
64,192,12313,1,0,0:0:0:70:crash-1.wav
448,192,12313,1,0,0:0:0:0:
320,192,12681,1,0,0:0:0:0:
448,192,12681,1,0,0:0:0:0:
64,192,12865,1,0,0:0:0:0:
64,192,13417,1,0,0:0:0:0:
448,192,13417,1,0,0:0:0:0:
192,192,13601,1,0,0:0:0:0:
64,192,14153,1,0,0:0:0:0:
320,192,14153,1,0,0:0:0:0:
448,192,14337,1,0,0:0:0:0:
64,192,14889,1,0,0:0:0:0:
448,192,14889,1,0,0:0:0:0:
320,192,15073,1,0,0:0:0:0:
192,192,15257,1,0,0:0:0:0:
320,192,15441,1,0,0:0:0:0:
64,192,15626,1,0,0:0:0:0:
448,192,15626,1,0,0:0:0:0:
192,192,15810,1,0,0:0:0:0:
320,192,15994,1,0,0:0:0:0:
64,192,16178,1,0,0:0:0:0:
192,192,16178,1,0,0:0:0:0:
320,192,16362,1,0,0:0:0:0:
448,192,16362,1,0,0:0:0:0:
64,192,16730,1,0,0:0:0:0:
192,192,16914,1,0,0:0:0:0:
320,192,17098,1,0,0:0:0:0:
448,192,17282,1,0,0:0:0:0:
64,192,17466,1,0,0:0:0:0:
320,192,17650,1,0,0:0:0:0:
192,192,17834,1,0,0:0:0:0:
320,192,18018,1,0,0:0:0:0:
64,192,18202,1,0,0:0:0:70:crash-1.wav
448,192,18202,1,0,0:0:0:0:
192,192,18386,1,0,0:0:0:0:
320,192,18570,1,0,0:0:0:0:
448,192,18570,1,0,0:0:0:0:
64,192,18754,1,0,0:0:0:0:
64,192,19307,1,0,0:0:0:0:
448,192,19307,1,0,0:0:0:0:
192,192,19491,1,0,0:0:0:0:
64,192,20043,1,0,0:0:0:0:
192,192,20043,1,0,0:0:0:0:
448,192,20227,1,0,0:0:0:0:
64,192,20779,1,0,0:0:0:0:
448,192,20779,1,0,0:0:0:0:
320,192,20963,1,0,0:0:0:0:
192,192,21147,1,0,0:0:0:0:
64,192,21331,1,0,0:0:0:0:
192,192,21515,1,0,0:0:0:0:
448,192,21515,1,0,0:0:0:0:
320,192,21699,1,0,0:0:0:0:
192,192,21883,1,0,0:0:0:0:
64,192,22067,1,0,0:0:0:0:
448,192,22067,1,0,0:0:0:0:
192,192,22251,1,0,0:0:0:0:
320,192,22251,1,0,0:0:0:0:
64,192,22619,1,0,0:0:0:70:pedal-2.wav
64,192,22987,1,0,0:0:0:70:pedal-2.wav
64,192,23356,1,0,0:0:0:70:pedal-2.wav
320,192,23356,1,0,0:0:0:0:
192,192,23724,1,0,0:0:0:70:pedal-2.wav
448,192,23724,1,0,0:0:0:0:
64,192,24092,1,0,0:0:0:70:crash-2.wav
320,192,24092,128,0,24828:0:0:0:70:kick.wav
192,192,24460,1,0,0:0:0:70:kick.wav
64,192,24828,128,0,25564:0:0:0:70:kick.wav
448,192,24828,1,0,0:0:0:0:
192,192,25196,1,0,0:0:0:70:kick.wav
320,192,25564,1,0,0:0:0:70:kick.wav
448,192,25564,128,0,26300:0:0:0:0:
192,192,25932,1,0,0:0:0:70:kick.wav
64,192,26300,1,0,0:0:0:70:kick.wav
192,192,26300,128,0,26668:0:0:0:0:
320,192,26668,128,0,27037:0:0:0:70:kick.wav
448,192,26668,1,0,0:0:0:0:
64,192,27037,128,0,27405:0:0:0:70:kick.wav
192,192,27037,1,0,0:0:0:0:
192,192,27405,128,0,27773:0:0:0:70:kick.wav
320,192,27405,1,0,0:0:0:0:
320,192,27773,128,0,28141:0:0:0:70:kick.wav
448,192,27773,1,0,0:0:0:0:
192,192,28141,1,0,0:0:0:70:kick.wav
320,192,28325,1,0,0:0:0:70:pedal.wav
64,192,28509,128,0,28877:0:0:0:70:kick.wav
192,192,28509,1,0,0:0:0:0:
192,192,28877,128,0,29245:0:0:0:70:kick.wav
320,192,28877,1,0,0:0:0:0:
448,192,29245,1,0,0:0:0:70:kick.wav
64,192,29429,1,0,0:0:0:70:kick.wav
320,192,29613,1,0,0:0:0:70:crash-1.wav
448,192,29613,128,0,29981:0:0:0:70:kick.wav
64,192,29981,1,0,0:0:0:70:crash-2.wav
192,192,29981,1,0,0:0:0:70:kick.wav
320,192,30349,1,0,0:0:0:70:kick.wav
64,192,30718,1,0,0:0:0:70:kick.wav
448,192,30718,1,0,0:0:0:0:
192,192,31086,1,0,0:0:0:70:kick.wav
64,192,31454,1,0,0:0:0:70:kick.wav
320,192,31454,1,0,0:0:0:0:
192,192,31822,1,0,0:0:0:70:kick.wav
448,192,31822,1,0,0:0:0:0:
64,192,32190,1,0,0:0:0:70:kick.wav
320,192,32190,128,0,32558:0:0:0:0:
64,192,32558,128,0,32926:0:0:0:70:kick.wav
192,192,32558,1,0,0:0:0:0:
320,192,32926,1,0,0:0:0:70:kick.wav
448,192,32926,1,0,0:0:0:0:
64,192,33294,1,0,0:0:0:70:kick.wav
320,192,33294,1,0,0:0:0:0:
192,192,33478,1,0,0:0:0:70:pedal.wav
448,192,33662,1,0,0:0:0:70:kick.wav
64,192,33846,1,0,0:0:0:70:pedal.wav
320,192,34030,1,0,0:0:0:70:kick.wav
192,192,34214,1,0,0:0:0:70:pedal.wav
64,192,34399,1,0,0:0:0:70:kick.wav
448,192,34399,1,0,0:0:0:0:
320,192,34583,1,0,0:0:0:70:pedal.wav
64,192,34767,1,0,0:0:0:70:kick.wav
192,192,34767,1,0,0:0:0:0:
320,192,35135,128,0,35503:0:0:0:70:kick.wav
448,192,35135,1,0,0:0:0:0:
192,192,35503,128,0,35871:0:0:0:70:kick.wav
64,192,35871,1,0,0:0:0:70:kick.wav
448,192,35871,1,0,0:0:0:70:tik.wav
320,192,36239,1,0,0:0:0:70:tik.wav
192,192,36423,1,0,0:0:0:70:pedal.wav
320,192,36607,1,0,0:0:0:70:tik.wav
192,192,36791,1,0,0:0:0:70:pedal.wav
64,192,36975,1,0,0:0:0:70:tik.wav
64,192,37343,1,0,0:0:0:70:tik.wav
192,192,37527,1,0,0:0:0:70:pedal.wav
448,192,37711,1,0,0:0:0:70:tik.wav
320,192,37895,1,0,0:0:0:70:pedal.wav
448,192,38080,1,0,0:0:0:70:tik.wav
192,192,38264,1,0,0:0:0:70:pedal.wav
64,192,38448,1,0,0:0:0:70:tik.wav
192,192,38632,1,0,0:0:0:70:pedal.wav
320,192,38816,1,0,0:0:0:70:tik.wav
448,192,38816,1,0,0:0:0:0:
64,192,39184,1,0,0:0:0:70:tik.wav
448,192,39184,1,0,0:0:0:0:
320,192,39368,1,0,0:0:0:70:pedal.wav
192,192,39552,1,0,0:0:0:70:tik.wav
64,192,39736,1,0,0:0:0:70:pedal.wav
320,192,39920,1,0,0:0:0:70:tik.wav
448,192,40104,1,0,0:0:0:70:pedal.wav
192,192,40288,1,0,0:0:0:70:tik.wav
320,192,40288,1,0,0:0:0:0:
64,192,41024,128,0,41392:0:0:0:70:tik.wav
192,192,41024,1,0,0:0:0:0:
448,192,41392,128,0,41760:0:0:0:70:tik.wav
192,192,41576,1,0,0:0:0:70:kick.wav
64,192,41760,1,0,0:0:0:70:crash-1.wav
320,192,41760,1,0,0:0:0:70:kick.wav
320,192,42129,1,0,0:0:0:70:tik.wav
192,192,42313,1,0,0:0:0:70:pedal.wav
448,192,42497,1,0,0:0:0:70:tik.wav
320,192,42681,1,0,0:0:0:70:pedal.wav
192,192,42865,1,0,0:0:0:70:tik.wav
192,192,43417,1,0,0:0:0:70:pedal.wav
448,192,43601,1,0,0:0:0:70:tik.wav
320,192,43785,1,0,0:0:0:70:pedal.wav
448,192,43969,1,0,0:0:0:70:tik.wav
64,192,44153,1,0,0:0:0:70:pedal.wav
320,192,44337,1,0,0:0:0:70:tik.wav
192,192,44521,1,0,0:0:0:70:pedal.wav
320,192,44705,1,0,0:0:0:70:tik.wav
448,192,44705,128,0,45073:0:0:0:0:
64,192,45073,1,0,0:0:0:70:tik.wav
192,192,45073,128,0,45441:0:0:0:0:
320,192,45441,128,0,45810:0:0:0:70:tik.wav
448,192,45441,1,0,0:0:0:0:
64,192,45810,128,0,46178:0:0:0:70:tik.wav
192,192,45810,1,0,0:0:0:0:
320,192,46178,1,0,0:0:0:70:tik.wav
448,192,46178,1,0,0:0:0:70:pedal-2.wav
64,192,46546,1,0,0:0:0:70:tik.wav
320,192,46546,1,0,0:0:0:70:pedal-2.wav
192,192,46914,1,0,0:0:0:70:tik.wav
448,192,46914,1,0,0:0:0:70:pedal-2.wav
320,192,47098,1,0,0:0:0:70:kick.wav
64,192,47282,1,0,0:0:0:70:crash-1.wav
448,192,47282,1,0,0:0:0:70:tik.wav
192,192,47650,1,0,0:0:0:70:crash-2.wav
320,192,47650,1,0,0:0:0:70:kick.wav
448,192,48018,1,0,0:0:0:70:kick.wav
192,192,48202,1,0,0:0:0:70:pedal.wav
448,192,48386,1,0,0:0:0:70:kick.wav
320,192,48570,1,0,0:0:0:70:pedal.wav
64,192,48754,1,0,0:0:0:70:kick.wav
320,192,49122,1,0,0:0:0:70:kick.wav
192,192,49307,1,0,0:0:0:70:pedal.wav
448,192,49491,1,0,0:0:0:70:kick.wav
64,192,49675,1,0,0:0:0:70:pedal.wav
448,192,49859,1,0,0:0:0:70:kick.wav
192,192,50043,1,0,0:0:0:70:pedal.wav
320,192,50227,1,0,0:0:0:70:kick.wav
192,192,50411,1,0,0:0:0:70:pedal.wav
64,192,50595,1,0,0:0:0:70:kick.wav
320,192,50595,1,0,0:0:0:0:
192,192,50963,1,0,0:0:0:70:kick.wav
448,192,50963,1,0,0:0:0:0:
320,192,51147,1,0,0:0:0:70:pedal.wav
192,192,51331,1,0,0:0:0:70:kick.wav
64,192,51515,1,0,0:0:0:70:pedal.wav
320,192,51699,1,0,0:0:0:70:kick.wav
192,192,51883,1,0,0:0:0:70:pedal.wav
64,192,52067,1,0,0:0:0:70:kick.wav
448,192,52067,128,0,52803:0:0:0:0:
64,192,52435,1,0,0:0:0:70:kick.wav
64,192,52803,1,0,0:0:0:70:kick.wav
192,192,52803,1,0,0:0:0:0:
64,192,52987,1,0,0:0:0:70:kick.wav
448,192,53172,1,0,0:0:0:70:crash-1.wav
320,192,53172,1,0,0:0:0:70:kick.wav
64,192,53540,1,0,0:0:0:70:crash-2.wav
448,192,53540,1,0,0:0:0:70:kick.wav
192,192,53724,1,0,0:0:0:70:pedal.wav
320,192,53908,1,0,0:0:0:70:kick.wav
64,192,54092,1,0,0:0:0:70:pedal.wav
192,192,54276,1,0,0:0:0:70:kick.wav
448,192,54460,1,0,0:0:0:70:pedal.wav
320,192,54644,1,0,0:0:0:70:kick.wav
192,192,55012,1,0,0:0:0:70:kick.wav
448,192,55196,1,0,0:0:0:70:pedal.wav
64,192,55380,1,0,0:0:0:70:kick.wav
448,192,55564,1,0,0:0:0:70:pedal.wav
192,192,55748,1,0,0:0:0:70:kick.wav
320,192,55932,1,0,0:0:0:70:pedal.wav
448,192,56116,1,0,0:0:0:70:kick.wav
320,192,56300,1,0,0:0:0:70:pedal.wav
64,192,56484,1,0,0:0:0:70:kick.wav
192,192,56484,1,0,0:0:0:0:
192,192,56853,1,0,0:0:0:70:kick.wav
448,192,56853,1,0,0:0:0:0:
320,192,57037,1,0,0:0:0:70:pedal.wav
448,192,57221,1,0,0:0:0:70:kick.wav
192,192,57405,1,0,0:0:0:70:pedal.wav
320,192,57589,1,0,0:0:0:70:kick.wav
192,192,57773,1,0,0:0:0:70:pedal.wav
64,192,57957,128,0,58325:0:0:0:70:kick.wav
448,192,57957,1,0,0:0:0:0:
192,192,58325,1,0,0:0:0:70:kick.wav
320,192,58325,128,0,58693:0:0:0:0:
192,192,58693,128,0,59061:0:0:0:70:kick.wav
448,192,58693,1,0,0:0:0:0:
64,192,59061,1,0,0:0:0:70:crash-1.wav
448,192,59061,128,0,59429:0:0:0:70:kick.wav
192,192,59429,1,0,0:0:0:70:crash-2.wav
320,192,59429,1,0,0:0:0:70:tik.wav
64,192,59797,1,0,0:0:0:70:tik.wav
320,192,59981,1,0,0:0:0:0:
192,192,60165,1,0,0:0:0:70:tik.wav
448,192,60349,1,0,0:0:0:0:
448,192,60533,1,0,0:0:0:70:tik.wav
64,192,60718,1,0,0:0:0:0:
320,192,60902,1,0,0:0:0:70:tik.wav
192,192,61270,1,0,0:0:0:70:tik.wav
192,192,61454,1,0,0:0:0:0:
448,192,61638,1,0,0:0:0:70:tik.wav
192,192,61822,1,0,0:0:0:0:
192,192,62006,1,0,0:0:0:70:tik.wav
320,192,62190,1,0,0:0:0:0:
64,192,62374,1,0,0:0:0:70:kick.wav
448,192,62374,1,0,0:0:0:70:tik.wav
448,192,62742,1,0,0:0:0:70:tik.wav
448,192,62926,1,0,0:0:0:0:
192,192,63110,1,0,0:0:0:70:tik.wav
64,192,63294,1,0,0:0:0:0:
320,192,63478,1,0,0:0:0:70:tik.wav
192,192,63662,1,0,0:0:0:0:
320,192,63846,1,0,0:0:0:70:tik.wav
448,192,63846,1,0,0:0:0:0:
192,192,64214,1,0,0:0:0:70:tik.wav
192,192,64399,1,0,0:0:0:0:
320,192,64583,1,0,0:0:0:70:kick.wav
448,192,64583,1,0,0:0:0:70:tik.wav
64,192,64767,1,0,0:0:0:0:
64,192,64951,1,0,0:0:0:70:crash-1.wav
448,192,64951,128,0,65319:0:0:0:70:kick.wav
64,192,65319,1,0,0:0:0:70:crash-2.wav
192,192,65319,1,0,0:0:0:70:kick.wav
192,192,65687,1,0,0:0:0:70:tik.wav
320,192,65871,1,0,0:0:0:0:
192,192,66055,1,0,0:0:0:70:snare.wav
448,192,66055,1,0,0:0:0:70:tik.wav
64,192,66239,1,0,0:0:0:0:
64,192,66423,1,0,0:0:0:70:tik.wav
320,192,66607,1,0,0:0:0:0:
64,192,66791,1,0,0:0:0:70:kick.wav
192,192,66791,1,0,0:0:0:70:tik.wav
320,192,67159,1,0,0:0:0:70:tik.wav
320,192,67343,1,0,0:0:0:0:
64,192,67527,1,0,0:0:0:70:snare.wav
448,192,67527,1,0,0:0:0:70:tik.wav
192,192,67711,1,0,0:0:0:0:
192,192,67895,1,0,0:0:0:70:tik.wav
320,192,68080,1,0,0:0:0:0:
64,192,68264,1,0,0:0:0:70:kick.wav
448,192,68264,1,0,0:0:0:70:tik.wav
192,192,68632,1,0,0:0:0:70:tik.wav
320,192,68816,1,0,0:0:0:0:
64,192,69000,1,0,0:0:0:70:snare.wav
192,192,69000,1,0,0:0:0:70:tik.wav
448,192,69184,1,0,0:0:0:0:
448,192,69368,1,0,0:0:0:70:tik.wav
64,192,69736,1,0,0:0:0:70:kick.wav
192,192,69736,1,0,0:0:0:70:tik.wav
64,192,69920,1,0,0:0:0:0:
320,192,70104,1,0,0:0:0:70:snare.wav
448,192,70104,1,0,0:0:0:70:tik.wav
64,192,70288,1,0,0:0:0:70:kick.wav
448,192,70472,1,0,0:0:0:70:tik.wav
192,192,70656,1,0,0:0:0:70:crash-1.wav
320,192,70656,1,0,0:0:0:0:
64,192,70840,128,0,71208:0:0:0:0:
320,192,71208,1,0,0:0:0:70:crash-2.wav
448,192,71208,1,0,0:0:0:70:kick.wav
192,192,71576,1,0,0:0:0:70:kick.wav
448,192,71576,1,0,0:0:0:0:
320,192,71760,1,0,0:0:0:70:pedal.wav
448,192,72129,1,0,0:0:0:70:pedal.wav
64,192,72313,1,0,0:0:0:70:kick.wav
192,192,72313,1,0,0:0:0:0:
320,192,72497,1,0,0:0:0:70:pedal.wav
192,192,72865,1,0,0:0:0:70:pedal.wav
64,192,73049,1,0,0:0:0:70:kick.wav
320,192,73049,1,0,0:0:0:0:
448,192,73233,1,0,0:0:0:70:pedal.wav
320,192,73601,1,0,0:0:0:70:pedal.wav
64,192,73785,1,0,0:0:0:70:kick.wav
448,192,73785,1,0,0:0:0:0:
320,192,73969,1,0,0:0:0:70:pedal.wav
192,192,74153,1,0,0:0:0:70:kick.wav
320,192,74337,1,0,0:0:0:70:pedal.wav
64,192,74521,1,0,0:0:0:70:kick.wav
448,192,74521,1,0,0:0:0:0:
192,192,74705,1,0,0:0:0:70:pedal.wav
448,192,74889,1,0,0:0:0:70:kick.wav
320,192,75073,1,0,0:0:0:70:pedal.wav
64,192,75257,1,0,0:0:0:70:kick.wav
192,192,75257,1,0,0:0:0:0:
320,192,75626,1,0,0:0:0:70:kick.wav
64,192,75994,1,0,0:0:0:70:kick.wav
320,192,76178,1,0,0:0:0:70:pedal.wav
192,192,76362,1,0,0:0:0:70:kick.wav
320,192,76546,1,0,0:0:0:70:pedal.wav
64,192,76730,1,0,0:0:0:70:crash-1.wav
448,192,76730,1,0,0:0:0:70:kick.wav
192,192,76914,1,0,0:0:0:70:pedal.wav
64,192,77098,1,0,0:0:0:70:crash-2.wav
320,192,77098,1,0,0:0:0:70:kick.wav
64,192,77466,1,0,0:0:0:70:kick.wav
448,192,77466,1,0,0:0:0:0:
320,192,77650,1,0,0:0:0:70:pedal.wav
192,192,78202,1,0,0:0:0:70:kick.wav
320,192,78202,1,0,0:0:0:0:
448,192,78386,1,0,0:0:0:70:pedal.wav
64,192,78938,1,0,0:0:0:70:kick.wav
448,192,78938,1,0,0:0:0:0:
320,192,79122,1,0,0:0:0:70:pedal.wav
64,192,79675,1,0,0:0:0:70:kick.wav
448,192,79675,1,0,0:0:0:0:
192,192,79859,1,0,0:0:0:70:pedal.wav
320,192,80043,1,0,0:0:0:70:kick.wav
64,192,80227,1,0,0:0:0:70:pedal.wav
320,192,80411,1,0,0:0:0:70:kick.wav
192,192,80595,1,0,0:0:0:70:pedal.wav
448,192,80779,1,0,0:0:0:70:kick.wav
64,192,80963,1,0,0:0:0:70:kick.wav
320,192,81147,1,0,0:0:0:70:kick.wav
192,192,81147,1,0,0:0:0:0:
448,192,81515,1,0,0:0:0:70:pedal-2.wav
192,192,81699,1,0,0:0:0:0:
448,192,81883,1,0,0:0:0:70:pedal-2.wav
192,192,82067,1,0,0:0:0:0:
64,192,82251,128,0,82987:0:0:0:70:pedal-2.wav
320,192,82251,1,0,0:0:0:0:
192,192,82619,1,0,0:0:0:70:crash-1.wav
320,192,82987,1,0,0:0:0:70:crash-2.wav
448,192,82987,1,0,0:0:0:70:kick.wav
192,192,83172,1,0,0:0:0:70:pedal.wav
320,192,83356,1,0,0:0:0:70:kick.wav
64,192,83540,1,0,0:0:0:70:pedal.wav
320,192,83724,1,0,0:0:0:70:kick.wav
192,192,83908,1,0,0:0:0:70:pedal.wav
64,192,84092,128,0,84460:0:0:0:70:kick.wav
448,192,84276,1,0,0:0:0:70:pedal.wav
192,192,84460,128,0,84828:0:0:0:70:kick.wav
448,192,84644,1,0,0:0:0:70:pedal.wav
320,192,84828,128,0,85196:0:0:0:70:kick.wav
64,192,85012,1,0,0:0:0:70:pedal.wav
448,192,85196,128,0,85564:0:0:0:70:kick.wav
64,192,85380,1,0,0:0:0:70:pedal.wav
192,192,85564,128,0,85932:0:0:0:70:kick.wav
320,192,85748,1,0,0:0:0:70:pedal.wav
448,192,85932,1,0,0:0:0:70:kick.wav
64,192,86116,1,0,0:0:0:70:pedal.wav
320,192,86300,1,0,0:0:0:70:kick.wav
192,192,86484,1,0,0:0:0:70:pedal.wav
448,192,86668,1,0,0:0:0:70:kick.wav
320,192,86760,1,0,0:0:0:0:
192,192,86853,1,0,0:0:0:70:pedal.wav
64,192,86945,1,0,0:0:0:0:
448,192,87037,1,0,0:0:0:70:crash-2.wav
320,192,87037,1,0,0:0:0:70:kick.wav
192,192,87405,1,0,0:0:0:70:kick.wav
448,192,87773,1,0,0:0:0:70:kick.wav
192,192,87957,128,0,88141:0:0:0:70:pedal.wav
320,192,88141,128,0,88325:0:0:0:70:kick.wav
448,192,88325,128,0,88509:0:0:0:70:pedal.wav
192,192,88509,128,0,88693:0:0:0:70:crash-1.wav
64,192,88509,1,0,0:0:0:70:kick.wav
320,192,88693,128,0,88877:0:0:0:70:pedal.wav
448,192,88877,1,0,0:0:0:70:crash-2.wav
64,192,88877,1,0,0:0:0:70:kick.wav
320,192,89245,1,0,0:0:0:70:kick.wav
192,192,89429,128,0,90165:0:0:0:70:pedal.wav
448,192,89613,1,0,0:0:0:70:kick.wav
64,192,89981,1,0,0:0:0:70:kick.wav
320,192,90165,128,0,90902:0:0:0:70:pedal.wav
64,192,90349,1,0,0:0:0:70:kick.wav
192,192,90718,1,0,0:0:0:70:kick.wav
448,192,90902,128,0,91638:0:0:0:70:pedal.wav
64,192,91086,1,0,0:0:0:70:kick.wav
192,192,91454,1,0,0:0:0:70:kick.wav
320,192,91638,128,0,91822:0:0:0:70:pedal.wav
64,192,91822,128,0,92015:0:0:0:70:kick.wav
192,192,92015,128,0,92209:0:0:0:70:pedal.wav
448,192,92209,128,0,92420:0:0:0:70:kick.wav
320,192,92420,128,0,92631:0:0:0:70:kick.wav
64,192,92631,1,0,0:0:0:70:kick.wav
192,192,92742,1,0,0:0:0:0:
448,192,92853,1,0,0:0:0:70:pedal.wav
192,192,93109,1,0,0:0:0:70:crash-2.wav
320,192,93109,1,0,0:0:0:70:kick.wav
64,192,93717,1,0,0:0:0:0:
192,192,93853,1,0,0:0:0:0:
320,192,93988,1,0,0:0:0:0:
448,192,94123,1,0,0:0:0:0:
64,192,94259,1,0,0:0:0:0:
192,192,94394,1,0,0:0:0:0:
320,192,94529,1,0,0:0:0:0:
448,192,94665,1,0,0:0:0:0:
64,192,94800,1,0,0:0:0:0:
192,192,94935,1,0,0:0:0:0:
320,192,95071,1,0,0:0:0:0:
448,192,95206,1,0,0:0:0:0:
192,192,96356,1,0,0:0:0:0:
320,192,96356,1,0,0:0:0:0:
64,192,96965,1,0,0:0:0:0:
192,192,97100,1,0,0:0:0:0:
320,192,97236,1,0,0:0:0:0:
448,192,97371,1,0,0:0:0:0:
64,192,97506,1,0,0:0:0:0:
192,192,97642,1,0,0:0:0:0:
320,192,97777,1,0,0:0:0:0:
448,192,97912,1,0,0:0:0:0:
64,192,98048,1,0,0:0:0:0:
192,192,98183,1,0,0:0:0:0:
320,192,98318,1,0,0:0:0:0:
448,192,98454,1,0,0:0:0:0:
64,192,98589,1,0,0:0:0:0:
192,192,98724,1,0,0:0:0:0:
320,192,98860,1,0,0:0:0:0:
448,192,98995,1,0,0:0:0:0:
64,192,99130,1,0,0:0:0:0:
192,192,99265,1,0,0:0:0:0:
320,192,99401,1,0,0:0:0:0:
448,192,99536,128,0,101025:0:0:0:0:
64,192,102596,1,0,0:0:0:0:
192,192,102688,1,0,0:0:0:0:
320,192,102780,1,0,0:0:0:0:
448,192,102872,1,0,0:0:0:0:
192,192,102964,1,0,0:0:0:0:
320,192,103056,1,0,0:0:0:0:
