osu file format v14

[General]
AudioFilename: audio.mp3
AudioLeadIn: 0
PreviewTime: 70840
Countdown: 0
SampleSet: Soft
StackLeniency: 0.3
Mode: 0
LetterboxInBreaks: 0
WidescreenStoryboard: 1

[Editor]
Bookmarks: 6809,12331,24478,36257,42147,48036,59815,65337,70387,81533,92576,103067
DistanceSpacing: 1.2
BeatDivisor: 4
GridSize: 8
TimelineZoom: 2.6

[Metadata]
Title:Fly far bounce
TitleUnicode:Fly far bounce
Artist:Nekomata Master
ArtistUnicode:猫叉Master
Creator:Cubby
Version:Another
Source:ノスタルジア
Tags:DanceDanceRevolution A DDR jubeat clan MÚSECA 1+1/2 MUSECA pop'n music うさぎと猫と少年の夢 SOUND VOLTEX IV HEAVENLY HAVEN SDVX 4 seonah nostalgia BEMANI PIANO COLLECTION Naoyuki Satou 佐藤直之 milr_ 10nya cubby video game [ White Music ] [_White_Music_] Cubbby -_Frontier_- Frontier video game instrumental electronic
BeatmapID:2266550
BeatmapSetID:1083766

[Difficulty]
HPDrainRate:6
CircleSize:5
OverallDifficulty:8
ApproachRate:9.2
SliderMultiplier:1.75
SliderTickRate:1

[Events]
//Background and Video events
0,0,"Pixiv.Fantasia.full.1946038.jpg",0,0
//Break Periods
//Storyboard Layer 0 (Background)
//Storyboard Layer 1 (Fail)
//Storyboard Layer 2 (Pass)
//Storyboard Layer 3 (Foreground)
//Storyboard Layer 4 (Overlay)
//Storyboard Sound Samples

[TimingPoints]
166,368.098159509202,4,2,1,40,1,0
166,-133.333333333333,4,2,1,40,0,0
534,368.098159509202,4,2,1,40,1,0
534,-133.333333333333,4,2,1,40,0,0
4031,-133.333333333333,4,2,1,40,0,0
5135,-133.333333333333,4,2,1,40,0,0
6147,-133.333333333333,4,2,1,40,0,0
6423,-133.333333333333,4,2,1,40,0,0
6791,-133.333333333333,4,2,1,40,0,0
6975,-133.333333333333,4,2,1,40,0,0
8264,-133.333333333333,4,2,1,40,0,0
8448,-133.333333333333,4,2,1,40,0,0
8816,-133.333333333333,4,2,1,40,0,0
9000,-133.333333333333,4,2,1,40,0,0
9368,-133.333333333333,4,2,1,40,0,0
10165,-133.333333333333,4,2,1,40,0,0
10288,-133.333333333333,4,2,1,40,0,0
10564,-133.333333333333,4,2,1,5,0,0
11576,-133.333333333333,4,2,1,40,0,0
11945,-133.333333333333,4,2,1,40,0,0
12037,-133.333333333333,4,2,1,40,0,0
12313,-100,4,2,1,60,0,0
12589,-100,4,2,1,5,0,0
12681,-100,4,2,1,60,0,0
12727,-100,4,2,1,5,0,0
12865,-100,4,2,1,60,0,0
13141,-100,4,2,1,5,0,0
13233,-100,4,2,1,60,0,0
13877,-100,4,2,1,5,0,0
13969,-100,4,2,1,60,0,0
14015,-100,4,2,1,5,0,0
14153,-100,4,2,1,60,0,0
14613,-100,4,2,1,5,0,0
14705,-100,4,2,1,60,0,0
16055,-100,4,2,1,60,0,0
16178,-100,4,2,1,60,0,0
16362,-133.333333333333,4,2,1,60,0,0
16822,-133.333333333333,4,2,1,5,0,0
16914,-133.333333333333,4,2,1,40,0,0
17466,-133.333333333333,4,2,1,60,0,0
18202,-100,4,2,1,60,0,0
18386,-100,4,2,1,60,0,0
18570,-100,4,2,1,60,0,0
18662,-100,4,2,1,5,0,0
18754,-100,4,2,1,60,0,0
19030,-100,4,2,1,5,0,0
19123,-100,4,2,1,60,0,0
19767,-100,4,2,1,5,0,0
19860,-100,4,2,1,60,0,0
20503,-100,4,2,1,5,0,0
20595,-100,4,2,1,60,0,0
21331,-100,4,2,1,60,0,0
21515,-100,4,2,1,60,0,0
21883,-100,4,2,1,60,0,0
22067,-100,4,2,1,60,0,0
22251,-133.333333333333,4,2,1,60,0,0
22619,-133.333333333333,4,2,1,60,0,0
23310,-133.333333333333,4,2,1,5,0,0
23356,-105.263157894737,4,2,1,60,0,0
23678,-105.263157894737,4,2,1,5,0,0
23724,-86.9565217391303,4,2,1,60,0,0
24046,-86.9565217391303,4,2,1,5,0,0
24092,-83.3333333333333,4,2,1,70,0,0
27221,-166.666666666667,4,2,1,70,0,0
27405,-83.3333333333333,4,2,1,70,0,0
27589,-166.666666666667,4,2,1,70,0,0
27773,-83.3333333333333,4,2,1,70,0,0
27957,-166.666666666667,4,2,1,70,0,0
28693,-83.3333333333333,4,2,1,70,0,0
32190,-133.333333333333,4,2,1,70,0,0
33110,-83.3333333333333,4,2,1,70,0,0
35135,-133.333333333333,4,2,1,70,0,0
35871,-133.333333333333,4,2,1,60,0,0
36239,-133.333333333333,4,2,1,60,0,0
36423,-133.333333333333,4,2,1,60,0,0
36607,-133.333333333333,4,2,1,60,0,0
36791,-133.333333333333,4,2,1,60,0,0
36975,-133.333333333333,4,2,1,60,0,0
37159,-133.333333333333,4,2,1,60,0,0
37343,-133.333333333333,4,2,1,60,0,0
37527,-133.333333333333,4,2,1,60,0,0
37712,-133.333333333333,4,2,1,60,0,0
37896,-133.333333333333,4,2,1,60,0,0
38080,-133.333333333333,4,2,1,60,0,0
38264,-133.333333333333,4,2,1,60,0,0
38448,-133.333333333333,4,2,1,60,0,0
38632,-133.333333333333,4,2,1,60,0,0
38816,-133.333333333333,4,2,1,60,0,0
39368,-133.333333333333,4,2,1,60,0,0
39552,-133.333333333333,4,2,1,60,0,0
39736,-133.333333333333,4,2,1,60,0,0
39920,-133.333333333333,4,2,1,60,0,0
40104,-133.333333333333,4,2,1,60,0,0
40288,-133.333333333333,4,2,1,60,0,0
41300,-133.333333333333,4,2,1,60,0,0
41392,-100,4,2,1,60,0,0
41484,-100,4,2,1,5,0,0
41576,-100,4,2,1,60,0,0
41761,-100,4,2,1,60,0,0
42129,-133.333333333333,4,2,1,60,0,0
42313,-133.333333333333,4,2,1,60,0,0
42497,-133.333333333333,4,2,1,60,0,0
42681,-133.333333333333,4,2,1,60,0,0
42865,-133.333333333333,4,2,1,60,0,0
43049,-133.333333333333,4,2,1,60,0,0
43233,-133.333333333333,4,2,1,60,0,0
43417,-133.333333333333,4,2,1,60,0,0
43601,-133.333333333333,4,2,1,60,0,0
43785,-133.333333333333,4,2,1,60,0,0
43969,-133.333333333333,4,2,1,60,0,0
44153,-133.333333333333,4,2,1,60,0,0
44337,-133.333333333333,4,2,1,60,0,0
44521,-133.333333333333,4,2,1,60,0,0
44705,-133.333333333333,4,2,1,60,0,0
44889,-133.333333333333,4,2,1,60,0,0
45073,-133.333333333333,4,2,1,60,0,0
45257,-133.333333333333,4,2,1,60,0,0
45442,-133.333333333333,4,2,1,60,0,0
45626,-133.333333333333,4,2,1,60,0,0
45810,-133.333333333333,4,2,1,60,0,0
45994,-133.333333333333,4,2,1,60,0,0
46178,-133.333333333333,4,2,1,60,0,0
46454,-133.333333333333,4,2,1,5,0,0
46546,-133.333333333333,4,2,1,60,0,0
46822,-133.333333333333,4,2,1,5,0,0
46914,-133.333333333333,4,2,1,60,0,0
47282,-80,4,2,1,60,0,0
47558,-80,4,2,1,5,0,0
47650,-100,4,2,1,70,0,0
59429,-133.333333333333,4,2,1,70,0,0
69736,-100,4,2,1,70,0,0
71208,-68.9655172413793,4,2,1,80,0,0
71669,-68.9655172413793,4,2,1,80,0,0
71761,-68.9655172413793,4,2,1,80,0,0
72190,-68.9655172413793,4,2,1,80,0,0
72313,-68.9655172413793,4,2,1,80,0,0
72405,-68.9655172413793,4,2,1,80,0,0
72497,-68.9655172413793,4,2,1,80,0,0
72926,-68.9655172413793,4,2,1,80,0,0
73049,-68.9655172413793,4,2,1,80,0,0
73141,-68.9655172413793,4,2,1,80,0,0
73233,-68.9655172413793,4,2,1,80,0,0
73693,-68.9655172413793,4,2,1,80,0,0
73785,-68.9655172413793,4,2,1,80,0,0
74950,-68.9655172413793,4,2,1,80,0,0
75073,-68.9655172413793,4,2,1,80,0,0
75350,-68.9655172413793,4,2,1,80,0,0
75442,-133.333333333333,4,2,1,80,0,0
75534,-133.333333333333,4,2,1,80,0,0
75626,-68.9655172413793,4,2,1,80,0,0
75718,-68.9655172413793,4,2,1,80,0,0
75810,-133.333333333333,4,2,1,80,0,0
75902,-133.333333333333,4,2,1,80,0,0
75994,-68.9655172413793,4,2,1,80,0,0
76086,-68.9655172413793,4,2,1,80,0,0
76178,-68.9655172413793,4,2,1,80,0,0
76239,-68.9655172413793,4,2,1,80,0,0
76362,-68.9655172413793,4,2,1,80,0,0
77006,-68.9655172413793,4,2,1,80,0,0
77098,-68.9655172413793,4,2,1,80,0,0
77558,-68.9655172413793,4,2,1,80,0,0
77650,-68.9655172413793,4,2,1,80,0,0
78110,-68.9655172413793,4,2,1,80,0,0
78202,-68.9655172413793,4,2,1,80,0,0
78294,-68.9655172413793,4,2,1,80,0,0
78386,-68.9655172413793,4,2,1,80,0,0
78846,-68.9655172413793,4,2,1,80,0,0
78938,-68.9655172413793,4,2,1,80,0,0
79399,-68.9655172413793,4,2,1,80,0,0
79491,-68.9655172413793,4,2,1,80,0,0
80840,-68.9655172413793,4,2,1,80,0,0
80963,-68.9655172413793,4,2,1,80,0,0
81147,-68.9655172413793,4,2,1,80,0,0
81331,-68.9655172413793,4,2,1,80,0,0
81607,-68.9655172413793,4,2,1,80,0,0
81699,-68.9655172413793,4,2,1,80,0,0
81791,-68.9655172413793,4,2,1,80,0,0
81883,-68.9655172413793,4,2,1,80,0,0
81975,-68.9655172413793,4,2,1,80,0,0
82067,-68.9655172413793,4,2,1,80,0,0
82159,-68.9655172413793,4,2,1,80,0,0
82251,-68.9655172413793,4,2,1,80,0,0
82313,-68.9655172413793,4,2,1,80,0,0
82435,-68.9655172413793,4,2,1,80,0,0
82497,-68.9655172413793,4,2,1,80,0,0
82619,-68.9655172413793,4,2,1,80,0,0
82680,-68.9655172413793,4,2,1,80,0,0
82803,-68.9655172413793,4,2,1,80,0,0
82864,-68.9655172413793,4,2,1,80,0,0
82988,-68.9655172413793,4,2,1,80,0,0
83632,-68.9655172413793,4,2,1,80,0,0
83724,-68.9655172413793,4,2,1,80,0,0
83816,-68.9655172413793,4,2,1,80,0,0
83908,-68.9655172413793,4,2,1,80,0,0
85626,-68.9655172413793,4,2,1,80,0,0
85749,-68.9655172413793,4,2,1,80,0,0
86730,-68.9655172413793,4,2,1,80,0,0
86853,-68.9655172413793,4,2,1,80,0,0
86945,-68.9655172413793,4,2,1,80,0,0
87037,-68.9655172413793,4,2,1,80,0,0
87129,-68.9655172413793,4,2,1,80,0,0
87221,-133.333333333333,4,2,1,80,0,0
87313,-133.333333333333,4,2,1,80,0,0
87405,-68.9655172413793,4,2,1,80,0,0
87497,-68.9655172413793,4,2,1,80,0,0
87589,-133.333333333333,4,2,1,80,0,0
87681,-133.333333333333,4,2,1,80,0,0
87773,-68.9655172413793,4,2,1,80,0,0
87865,-68.9655172413793,4,2,1,80,0,0
87957,-68.9655172413793,4,2,1,80,0,0
88018,-68.9655172413793,4,2,1,80,0,0
88141,-68.9655172413793,4,2,1,80,0,0
89705,-68.9655172413793,4,2,1,80,0,0
89797,-68.9655172413793,4,2,1,80,0,0
89889,-68.9655172413793,4,2,1,80,0,0
89981,-68.9655172413793,4,2,1,80,0,0
91178,-68.9655172413793,4,2,1,80,0,0
91270,-68.9655172413793,4,2,1,80,0,0
91730,-68.9655172413793,4,2,1,80,0,0
91822,387.096774193548,4,2,1,80,1,0
91822,-68.9655172413793,4,2,1,80,0,0
92067,-68.9655172413793,4,2,1,80,0,0
92209,422.535211267606,4,2,1,80,1,0
92631,444.444444444444,4,2,1,80,1,0
92853,512.820512820513,4,2,1,80,1,0
93109,811.90798376184,4,2,1,80,1,0
93109,-66.6666666666667,4,2,1,80,0,0

[Colours]
Combo1 : 225,225,225
Combo2 : 0,255,0
Combo3 : 255,255,128
Combo4 : 0,255,128

[HitObjects]
84,77,166,5,0,0:0:0:0:
78,89,258,1,0,0:0:0:0:
75,101,350,1,0,0:0:0:0:
74,115,442,1,0,0:0:0:0:
138,112,534,5,4,0:0:0:0:
374,112,1086,1,2,0:0:0:0:
256,288,1822,5,2,0:0:0:0:
256,288,2374,1,2,0:0:0:0:
256,128,2558,1,2,0:0:0:0:
420,325,3110,5,2,0:0:0:0:
425,313,3202,1,2,0:0:0:0:
429,300,3294,1,2,0:0:0:0:
429,287,3386,1,2,0:0:0:0:
366,290,3478,5,6,0:0:0:0:
146,290,4031,1,2,0:0:0:0:
146,290,4399,1,2,0:0:0:0:
192,160,4583,1,2,0:0:0:0:
192,160,5135,5,0,0:0:0:0:
257,165,5319,1,0,0:0:0:0:
322,171,5503,1,0,0:0:0:0:
321,171,6055,5,2,0:0:0:0:
312,188,6147,1,2,0:0:0:0:
309,207,6239,1,2,0:0:0:0:
313,226,6331,1,2,0:0:0:0:
366,269,6423,6,0,P|303:258|258:303,1,131.25000500679,6|0,0:0|0:0,0:0:0:0:
250,374,6975,2,0,L|269:150,1,196.875007510186,2|2,0:0|0:0,0:0:0:0:
275,93,7712,1,2,0:0:0:0:
275,93,8264,1,0,0:0:0:0:
297,27,8448,6,0,P|341:72|331:134,1,131.25000500679,2|0,0:0|0:0,0:0:0:0:
275,93,9000,1,2,0:0:0:0:
257,177,9184,2,0,L|249:224,1,32.8125012516976,2|2,0:0|0:0,0:0:0:0:
184,303,9368,5,6,0:0:0:0:
270,277,9552,1,2,0:0:0:0:
352,315,9736,1,2,0:0:0:0:
182,315,9920,5,2,0:0:0:0:
191,219,10104,2,0,L|193:186,3,21.8750008344651,2|0|0|2,0:0|0:0|0:0|0:0,0:0:0:0:
201,80,10472,6,0,L|198:126,1,32.8125012516976,2|0,0:0|0:0,0:0:0:0:
22,81,11577,6,0,P|68:65|115:78,1,98.4375037550928
176,104,11945,5,0,1:0:0:0:
166,123,12037,1,0,0:0:0:0:
172,143,12129,1,0,0:0:0:0:
166,161,12221,1,0,0:0:0:0:
96,192,12313,6,0,L|239:179,1,131.25,6|0,0:2|0:0,0:0:0:0:
295,171,12681,2,0,L|292:204,1,21.875,10|0,0:0|0:0,0:0:0:0:
285,289,12865,6,0,L|428:276,1,131.25,2|0,0:0|0:0,0:0:0:0:
482,269,13233,1,0,0:0:0:0:
458,354,13417,1,10,0:0:0:0:
369,211,13601,6,0,L|512:198,1,131.25,2|0,0:0|0:0,0:0:0:0:
502,109,13969,2,0,L|499:142,1,21.875
430,128,14153,1,10,0:0:0:0:
511,0,14337,2,0,L|498:143,1,131.25,2|0,0:0|0:0,0:0:0:0:
494,199,14705,1,0,0:0:0:0:
430,128,14889,5,10,0:0:0:0:
394,103,14981,1,2,0:1:0:0:
351,94,15073,1,2,0:1:0:0:
309,104,15165,1,2,0:1:0:0:
274,129,15257,1,2,0:0:0:0:
218,12,15442,1,2,0:0:0:0:
144,118,15626,1,10,0:0:0:0:
215,80,15810,5,2,0:0:0:0:
218,12,15994,2,0,L|257:8,3,29.1666666666667,2|0|0|10,0:0|0:0|0:0|0:0,0:0:0:0:
144,118,16362,6,0,B|164:159|135:213|121:188|94:226|114:275,1,164.062506258488,2|0,0:0|0:0,0:0:0:0:
115,295,16914,1,2,0:0:0:0:
116,304,17006,1,2,0:0:0:0:
117,314,17098,1,0,0:0:0:0:
48,316,17282,1,2,0:0:0:0:
186,312,17466,5,2,0:0:0:0:
117,314,17650,1,2,0:0:0:0:
255,310,17834,5,2,0:0:0:0:
186,312,18018,1,2,0:0:0:0:
286,222,18202,5,6,0:2:0:0:
327,381,18386,1,2,0:0:0:0:
168,337,18570,2,0,L|172:281,1,43.75,10|0,0:0|0:0,0:0:0:0:
179,224,18754,6,0,P|118:203|64:236,1,131.25,2|0,0:0|0:0,0:0:0:0:
59,248,19123,1,0,0:0:0:0:
105,133,19307,6,0,L|100:77,1,43.75,10|0,0:0|0:0,0:0:0:0:
92,23,19491,2,0,P|152:2|206:35,1,131.25,2|0,0:0|0:0,0:0:0:0:
212,47,19860,1,0,0:0:0:0:
105,133,20043,6,0,L|160:137,1,43.75,10|0,0:0|0:0,0:0:0:0:
234,114,20227,2,0,L|221:257,1,131.25,2|0,0:0|0:0,0:0:0:0:
211,309,20595,1,0,0:0:0:0:
306,230,20779,5,8,0:0:0:0:
342,205,20871,1,2,0:1:0:0:
385,196,20963,1,2,0:1:0:0:
427,206,21055,1,2,0:1:0:0:
462,230,21147,5,2,0:0:0:0:
353,120,21331,1,2,0:0:0:0:
503,81,21515,1,10,0:0:0:0:
447,149,21699,5,2,0:0:0:0:
353,120,21883,2,0,L|349:81,3,29.1666666666667,2|0|0|10,0:0|0:0|0:0|0:0,0:0:0:0:
376,283,22251,6,0,B|386:320|416:340|416:340|398:312|408:274,2,131.25000500679,2|2|2,0:0|0:0|0:0,0:0:0:0:
476,181,23356,6,0,P|436:121|451:52,1,145.468746115565,2|0,0:1|0:0,0:0:0:0:
459,32,23724,6,0,P|389:80|308:55,1,176.093753358722,2|0,0:1|0:0,0:0:0:0:
296,32,24092,6,0,L|306:151,1,104.999996795654,4|8,1:2|0:0,0:0:0:0:
312,200,24368,1,8,0:0:0:0:
274,258,24460,2,0,P|324:268|367:241,1,104.999996795654,0|8,1:0|0:0,0:0:0:0:
227,94,24828,6,0,L|107:104,1,104.999996795654,2|8,1:0|0:0,0:0:0:0:
59,110,25104,1,8,0:0:0:0:
1,72,25196,2,0,P|-9:122|17:165,1,104.999996795654,0|8,1:0|0:0,0:0:0:0:
207,247,25564,6,0,P|156:236|113:263,1,104.999996795654,2|8,1:0|0:0,0:0:0:0:
169,304,25840,1,8,0:0:0:0:
132,361,25932,2,0,P|182:371|225:344,1,104.999996795654,0|8,1:0|0:0,0:0:0:0:
346,249,26300,6,0,L|340:312,1,52.4999983978272,2|0,1:0|0:0,0:0:0:0:
331,363,26485,1,8,0:0:0:0:
440,234,26669,6,0,L|434:297,1,52.4999983978272,2|0,1:0|0:0,0:0:0:0:
425,348,26854,1,8,0:0:0:0:
293,253,27037,6,0,L|356:247,1,52.4999983978272,2|0,1:0|0:0,0:0:0:0:
374,246,27221,2,0,L|371:277,1,26.2499991989136,8|8,0:0|0:0,0:0:0:0:
224,167,27405,6,0,L|160:161,1,52.4999983978272,2|0,1:0|0:0,0:0:0:0:
143,160,27589,2,0,L|145:191,1,26.2499991989136,8|8,0:0|0:0,0:0:0:0:
293,59,27773,6,0,L|356:53,1,52.4999983978272,2|0,1:0|0:0,0:0:0:0:
374,52,27957,1,8,0:0:0:0:
372,65,28049,1,8,0:0:0:0:
371,78,28141,1,2,1:0:0:0:
301,145,28325,5,8,0:0:0:0:
302,158,28417,1,8,0:0:0:0:
303,171,28509,1,2,1:0:0:0:
369,298,28693,6,0,L|374:234,1,52.4999983978272,8|8,0:0|0:0,0:0:0:0:
381,176,28877,1,2,1:0:0:0:
369,298,29061,5,8,0:0:0:0:
368,311,29153,1,8,0:0:0:0:
367,324,29245,1,2,1:0:0:0:
183,373,29429,1,2,1:0:0:0:
230,187,29613,1,2,1:0:0:0:
230,187,29981,6,0,L|110:176,1,104.999996795654,4|8,1:2|0:0,0:0:0:0:
82,225,30258,1,8,0:0:0:0:
125,177,30350,2,0,B|152:206|152:206|138:284,1,104.999996795654,0|0,1:0|0:0,0:0:0:0:
224,320,30718,6,0,L|343:309,1,104.999996795654,2|8,1:0|0:0,0:0:0:0:
383,256,30995,1,8,0:0:0:0:
328,310,31086,2,0,B|301:281|301:281|315:203,1,104.999996795654,0|8,1:0|0:0,0:0:0:0:
500,145,31454,6,0,P|520:70|473:8,1,157.499995193482,2|8,1:0|0:0,0:0:0:0:
393,26,31822,2,0,P|372:100|420:163,1,157.499995193482,2|0,1:0|0:0,0:0:0:0:
296,64,32190,6,0,L|184:73,1,98.4375037550928,2|8,1:0|0:0,0:0:0:0:
144,144,32558,2,0,L|32:134,1,98.4375037550928,2|0,1:0|0:0,0:0:0:0:
18,131,32926,5,2,1:0:0:0:
84,15,33110,2,0,L|88:70,1,52.4999983978272,8|0,0:0|0:0,0:0:0:0:
144,144,33294,5,2,1:0:0:0:
210,28,33478,2,0,L|214:83,1,52.4999983978272,8|0,0:0|0:0,0:0:0:0:
270,157,33662,5,2,1:0:0:0:
321,74,33846,1,8,0:0:0:0:
320,61,33938,1,8,0:0:0:0:
318,48,34030,1,2,1:0:0:0:
270,157,34215,1,8,0:0:0:0:
219,294,34399,6,0,P|226:269|219:244,1,52.4999983978272,2|0,1:0|0:0,0:0:0:0:
133,245,34583,2,0,P|125:269|133:294,1,52.4999983978272,8|8,0:0|0:0,0:0:0:0:
182,352,34767,6,0,L|293:361,1,104.999996795654,2|8,1:0|0:0,0:0:0:0:
301,365,35043,1,8,0:0:0:0:
360,336,35135,6,0,L|463:326,1,98.4375037550928,2|0,1:0|0:0,0:0:0:0:
487,367,35503,2,0,L|477:263,1,98.4375037550928,0|0,1:0|0:0,0:0:0:0:
466,173,35871,1,4,1:2:0:0:
466,173,36239,5,2,0:0:0:0:
384,232,36423,1,0,0:0:0:0:
400,233,36515,1,0,0:0:0:0:
416,234,36607,1,2,0:0:0:0:
466,173,36791,1,0,0:0:0:0:
449,30,36975,6,0,L|456:96,1,65.6250025033952,2|0,0:0|0:0,0:0:0:0:
466,173,37343,1,2,0:0:0:0:
455,95,37527,1,0,0:0:0:0:
466,173,37712,6,0,L|473:239,1,65.6250025033952,2|0,0:0|0:0,0:0:0:0:
414,283,38080,2,0,L|421:349,1,65.6250025033952,2|0,0:0|0:0,0:0:0:0:
340,339,38448,2,0,L|274:332,1,65.6250025033952,2|0,0:0|0:0,0:0:0:0:
183,358,38816,6,0,P|205:297|180:238,1,131.25000500679,2|2,0:0|0:0,0:0:0:0:
127,299,39368,1,0,0:0:0:0:
176,238,39552,1,2,0:0:0:0:
122,307,39736,1,0,0:0:0:0:
41,287,39920,1,2,0:0:0:0:
127,299,40104,1,0,0:0:0:0:
179,227,40288,6,0,L|192:75,1,131.25000500679,2|2,0:0|0:0,0:0:0:0:
267,157,41024,6,0,P|308:135|348:160,1,98.4375037550928,2|0,0:0|0:0,0:0:0:0:
416,232,41392,2,0,L|421:168,1,43.75,2|0,0:0|0:0,0:0:0:0:
424,120,41577,1,0,0:0:0:0:
409,301,41761,5,4,1:2:0:0:
409,301,42129,1,10,0:0:0:0:
345,327,42313,1,0,0:0:0:0:
344,343,42405,1,0,0:0:0:0:
343,359,42497,1,10,0:0:0:0:
280,304,42681,5,0,0:0:0:0:
137,312,42865,1,10,0:0:0:0:
212,338,43049,1,0,0:0:0:0:
141,246,43233,6,0,L|135:331,1,65.6250025033952,10|0,0:0|0:0,0:0:0:0:
47,362,43601,2,0,L|51:296,1,65.6250025033952,10|0,0:0|0:0,0:0:0:0:
143,103,43969,6,0,L|137:188,1,65.6250025033952,10|0,0:0|0:0,0:0:0:0:
49,219,44337,2,0,L|53:153,1,65.6250025033952,10|0,0:0|0:0,0:0:0:0:
56,48,44705,5,10,0:0:0:0:
56,48,44889,1,0,0:0:0:0:
143,103,45073,5,10,0:0:0:0:
143,103,45257,1,0,0:0:0:0:
232,48,45442,5,10,0:0:0:0:
232,48,45626,1,0,0:0:0:0:
304,104,45810,5,10,0:0:0:0:
376,48,45994,1,0,0:0:0:0:
376,41,46055,1,0,0:0:0:0:
377,34,46116,1,0,0:0:0:0:
377,28,46178,6,0,B|448:41|448:41|476:61,1,98.4375037550928,10|0,0:0|0:0,0:0:0:0:
488,120,46546,2,0,L|478:231,1,98.4375037550928,10|0,0:0|0:0,0:0:0:0:
471,291,46914,1,10,0:0:0:0:
488,120,47098,1,0,1:0:0:0:
392,330,47282,6,0,B|398:265|398:265|407:249|407:249|414:170,1,164.0625,10|0,0:0|0:0,0:0:0:0:
336,208,47650,6,0,B|306:180|306:180|212:197,1,131.25,4|0,1:2|0:0,0:0:0:0:
152,224,48018,1,2,1:0:0:0:
216,246,48202,5,8,0:0:0:0:
222,221,48294,1,8,0:0:0:0:
216,196,48386,1,2,1:0:0:0:
91,254,48570,1,8,0:0:0:0:
223,333,48754,2,0,L|212:213,1,87.5,2|8,1:0|0:0,0:0:0:0:
222,221,49031,1,8,0:0:0:0:
223,234,49123,1,0,1:2:0:0:
91,254,49307,1,8,0:0:0:0:
198,41,49491,6,0,L|205:128,1,87.5,2|8,1:0|0:0,0:0:0:0:
92,0,49859,2,0,L|99:87,1,87.5,2|8,1:0|0:0,0:0:0:0:
105,174,50227,1,2,1:0:0:0:
198,41,50411,1,8,0:0:0:0:
105,174,50595,6,0,P|146:186|186:171,1,87.5,2|8,1:0|0:0,0:0:0:0:
242,125,50871,1,8,0:0:0:0:
296,171,50963,2,0,P|336:186|377:173,1,87.5,2|8,1:0|0:0,0:0:0:0:
454,104,51331,1,2,1:0:0:0:
484,203,51515,1,8,0:0:0:0:
451,85,51699,5,2,1:0:0:0:
377,173,51883,1,8,0:0:0:0:
488,224,52067,6,0,L|478:335,1,87.5,2|8,1:0|0:0,0:0:0:0:
472,376,52343,1,8,0:0:0:0:
421,342,52435,2,0,L|309:351,1,87.5,0|8,1:0|0:0,0:0:0:0:
270,354,52712,1,8,0:0:0:0:
231,300,52804,2,0,L|187:303,1,43.75,2|0,1:0|0:0,0:0:0:0:
119,311,52988,1,0,1:0:0:0:
228,149,53172,6,0,P|215:190|230:230,1,87.5,2|8,1:0|0:0,0:0:0:0:
294,257,53448,1,8,0:0:0:0:
284,187,53540,1,4,1:2:0:0:
231,300,53724,1,8,0:0:0:0:
355,289,53908,1,2,1:0:0:0:
294,257,54092,5,8,0:0:0:0:
294,242,54153,1,0,0:0:0:0:
293,227,54214,1,0,0:0:0:0:
292,213,54276,1,2,1:0:0:0:
196,114,54460,1,8,0:0:0:0:
88,200,54644,2,0,L|200:209,1,87.5,2|8,1:0|0:0,0:0:0:0:
178,340,54920,5,0,0:0:0:0:
231,300,55012,2,0,P|244:341|229:381,1,87.5,2|8,1:0|0:0,0:0:0:0:
169,274,55380,5,2,1:0:0:0:
332,370,55564,1,8,0:0:0:0:
497,287,55748,5,2,1:0:0:0:
334,383,55932,1,8,0:0:0:0:
324,288,56116,5,2,1:0:0:0:
324,273,56177,1,0,0:0:0:0:
323,258,56238,1,0,0:0:0:0:
322,244,56300,1,8,0:0:0:0:
316,136,56485,5,2,1:0:0:0:
316,136,56669,2,0,L|319:180,1,43.75,8|0,0:0|0:0,0:0:0:0:
196,136,56853,5,2,1:0:0:0:
196,136,57037,2,0,L|193:180,1,43.75,8|0,0:0|0:0,0:0:0:0:
256,296,57221,5,2,1:0:0:0:
256,56,57405,1,8,0:0:0:0:
22,121,57589,5,2,1:0:0:0:
109,128,57773,1,8,0:0:0:0:
196,136,57957,5,2,1:0:0:0:
196,136,58141,2,0,L|193:180,1,43.75,8|0,0:0|0:0,0:0:0:0:
64,240,58325,5,2,1:0:0:0:
64,240,58509,2,0,L|67:284,1,43.75,8|0,0:0|0:0,0:0:0:0:
176,312,58693,5,2,1:0:0:0:
176,312,58877,2,0,L|173:356,1,43.75,8|8,0:0|0:0,0:0:0:0:
290,328,59061,6,0,L|420:339,1,131.25,2|0,1:0|0:0,0:0:0:0:
483,347,59429,5,4,1:2:0:0:
483,347,59797,1,0,0:0:0:0:
453,274,59981,1,0,1:0:0:0:
504,216,60165,2,0,L|495:120,1,65.6250025033952
488,56,60534,6,0,L|392:47,1,65.6250025033952,0|2,1:0|0:2,0:0:0:0:
400,48,60810,1,2,0:2:0:0:
381,46,60902,2,0,L|387:111,1,65.6250025033952,2|0,1:2|0:0,0:0:0:0:
393,180,61270,1,0,0:0:0:0:
329,221,61454,1,0,1:0:0:0:
267,181,61638,2,0,L|260:246,1,65.6250025033952,0|0,0:0|1:0,0:0:0:0:
250,322,62006,6,0,L|154:313,1,65.6250025033952,0|2,1:0|0:2,0:0:0:0:
162,314,62282,1,2,0:2:0:0:
143,312,62374,2,0,L|149:377,1,65.6250025033952,2|0,1:2|0:0,0:0:0:0:
250,322,62742,1,0,0:0:0:0:
205,249,62926,1,0,1:0:0:0:
143,312,63110,6,0,L|47:303,1,65.6250025033952
37,367,63478,1,0,1:0:0:0:
7,294,63662,1,0,0:0:0:0:
58,236,63846,2,0,L|49:140,1,65.6250025033952,0|0,1:0|0:0,0:0:0:0:
43,107,64123,1,0,0:0:0:0:
42,97,64215,2,0,L|33:1,1,65.6250025033952,0|0,0:0|1:0,0:0:0:0:
51,170,64583,5,8,0:0:0:0:
35,31,64767,1,0,0:0:0:0:
144,112,64951,5,0,1:0:0:0:
163,128,65043,1,2,0:2:0:0:
188,138,65135,1,2,0:2:0:0:
214,139,65227,1,2,0:2:0:0:
239,131,65319,2,0,P|287:114|332:137,1,98.4375037550928,6|0,1:2|0:0,0:0:0:0:
358,195,65687,5,0,0:0:0:0:
284,180,65871,1,0,1:0:0:0:
429,212,66055,2,0,L|426:244,1,32.8125012516976,8|0,0:0|0:0,0:0:0:0:
419,306,66239,1,0,0:0:0:0:
417,319,66331,1,0,0:0:0:0:
416,332,66423,1,0,1:0:0:0:
250,366,66607,5,2,0:0:0:0:
294,349,66699,1,2,0:0:0:0:
339,367,66791,2,0,L|348:261,1,98.4375037550928,2|0,1:2|0:0,0:0:0:0:
358,195,67159,1,0,0:0:0:0:
348,268,67343,1,0,1:0:0:0:
368,125,67527,6,0,L|377:19,1,98.4375037550928,8|0,0:0|0:0,0:0:0:0:
381,8,67896,1,0,1:0:0:0:
300,97,68080,5,2,0:0:0:0:
256,80,68172,1,2,0:0:0:0:
211,98,68264,2,0,L|105:88,1,98.4375037550928,2|0,1:2|0:0,0:0:0:0:
45,80,68632,1,0,0:0:0:0:
90,22,68816,1,0,1:0:0:0:
101,158,69000,6,0,L|-4:148,1,98.4375037550928,8|0,0:0|0:0,0:0:0:0:
45,80,69368,1,0,1:0:0:0:
96,228,69552,1,0,0:0:0:0:
45,80,69736,6,0,L|100:84,1,43.75,0|0,1:0|0:0,0:0:0:0:
192,88,69920,1,0,0:0:0:0:
190,70,70012,1,0,0:0:0:0:
188,53,70104,2,0,L|243:57,1,43.75,8|0,0:0|0:0,0:0:0:0:
492,81,70288,6,0,L|436:76,1,43.75,0|0,1:0|0:0,0:0:0:0:
345,73,70472,1,0,0:0:0:0:
347,91,70564,1,0,0:0:0:0:
349,108,70656,1,8,0:0:0:0:
32,40,70840,5,0,0:0:0:0:
33,56,70932,1,0,0:0:0:0:
34,72,71024,1,0,0:0:0:0:
36,89,71116,1,0,0:0:0:0:
37,105,71208,6,0,P|91:133|150:113,1,126.875003871918,4|8,1:2|0:0,0:0:0:0:
244,70,71485,1,8,0:0:0:0:
242,85,71577,2,0,L|235:156,1,63.4375019359589,2|0,1:0|0:0,0:0:0:0:
174,232,71761,2,0,L|325:218,1,126.875003871918,8|2,0:0|1:0,0:0:0:0:
460,43,72129,5,8,0:0:0:0:
458,56,72190,5,0,0:0:0:0:
457,69,72251,5,0,0:0:0:0:
456,81,72313,6,0,L|449:152,1,63.4375019359589,2|0,1:0|0:0,0:0:0:0:
367,213,72497,2,0,L|494:225,1,126.875003871918,8|2,0:0|1:0,0:0:0:0:
301,251,72865,5,8,0:0:0:0:
303,264,72926,5,0,0:0:0:0:
304,277,72987,5,0,0:0:0:0:
305,289,73049,6,0,L|312:360,1,63.4375019359589,2|0,1:0|0:0,0:0:0:0:
92,304,73233,2,0,L|219:316,1,126.875003871918,8|2,0:0|1:0,0:0:0:0:
37,359,73601,5,8,0:0:0:0:
17,301,73693,1,0,0:0:0:0:
45,246,73785,1,2,1:0:0:0:
98,199,73877,5,2,0:1:0:0:
120,168,73969,1,8,0:0:0:0:
125,131,74061,1,2,0:1:0:0:
113,95,74153,5,2,1:0:0:0:
45,246,74337,1,8,0:0:0:0:
209,229,74521,1,2,1:0:0:0:
120,168,74705,5,8,0:0:0:0:
120,168,74889,5,2,1:0:0:0:
121,184,74950,5,0,0:0:0:0:
123,201,75011,5,0,0:0:0:0:
124,218,75073,5,8,0:0:0:0:
136,320,75258,6,0,L|215:326,1,63.4375019359589,2|0,1:0|0:0,0:0:0:0:
270,334,75442,2,0,L|274:389,1,32.8125012516976,8|0,0:0|0:0,0:0:0:0:
209,229,75626,6,0,L|288:235,1,63.4375019359589,0|0,1:0|0:0,0:0:0:0:
343,243,75810,2,0,L|347:298,1,32.8125012516976,8|0,0:0|0:0,0:0:0:0:
282,138,75994,6,0,L|361:144,1,63.4375019359589,0|0,1:0|0:0,0:0:0:0:
418,151,76178,5,8,0:0:0:0:
419,167,76239,5,0,0:0:0:0:
421,184,76300,5,0,0:0:0:0:
422,201,76362,5,0,1:0:0:0:
429,338,76546,1,8,0:0:0:0:
484,240,76730,6,0,P|430:270|371:252,1,126.875003871918,0|8,1:0|0:0,0:0:0:0:
343,243,77006,1,0,0:0:0:0:
327,311,77098,2,0,P|267:292|214:323,1,126.875003871918,4|8,1:2|0:0,0:0:0:0:
140,369,77374,1,8,0:0:0:0:
141,356,77466,2,0,L|147:277,1,63.4375019359589,2|0,1:0|0:0,0:0:0:0:
36,208,77650,2,0,P|95:189|148:220,1,126.875003871918,8|2,0:0|1:0,0:0:0:0:
166,5,78018,5,8,0:0:0:0:
164,37,78110,1,0,0:0:0:0:
162,69,78202,2,0,L|156:148,1,63.4375019359589,2|0,1:0|0:0,0:0:0:0:
147,219,78386,2,0,L|298:205,1,126.875003871918,8|2,0:0|1:0,0:0:0:0:
210,343,78754,1,8,0:0:0:0:
212,318,78846,1,0,0:0:0:0:
215,293,78938,1,2,1:0:0:0:
421,342,79123,6,0,L|270:328,1,126.875003871918,8|2,0:0|1:0,0:0:0:0:
308,296,79399,1,0,0:0:0:0:
329,293,79491,1,8,0:0:0:0:
467,237,79675,5,2,1:0:0:0:
447,197,79767,1,2,0:1:0:0:
403,203,79859,1,8,0:0:0:0:
395,246,79951,1,2,0:1:0:0:
435,267,80043,5,2,1:0:0:0:
431,110,80227,1,8,0:0:0:0:
297,191,80411,1,2,1:0:0:0:
403,203,80595,5,8,0:0:0:0:
403,203,80779,5,2,1:0:0:0:
419,202,80840,5,0,0:0:0:0:
436,200,80901,5,0,0:0:0:0:
453,199,80963,5,8,0:0:0:0:
436,46,81147,6,0,L|428:133,2,63.4375019359589,0|0|0,0:0|0:0|1:0,0:0:0:0:
350,85,81515,5,8,0:0:0:0:
326,64,81607,1,0,0:0:0:0:
296,54,81699,1,0,1:0:0:0:
265,58,81791,1,0,0:0:0:0:
238,74,81883,6,0,L|231:145,1,63.4375019359589,10|0,0:0|0:0,0:0:0:0:
160,144,82067,2,0,L|153:215,1,63.4375019359589,2|0,1:2|0:0,0:0:0:0:
118,289,82251,1,10,0:0:0:0:
110,288,82313,6,0,L|54:284,4,42.291667957306,2|2|0|0|0,0:0|0:0|1:0|0:0|0:0,0:0:0:0:
155,360,82619,2,0,L|210:356,4,42.291667957306,10|2|2|0|0,0:0|0:0|0:0|1:0|0:0,0:0:0:0:
285,322,82988,5,4,1:2:0:0:
298,336,83080,1,2,0:1:0:0:
332,351,83172,1,2,0:1:0:0:
351,353,83264,1,2,0:1:0:0:
387,342,83356,1,2,1:0:0:0:
512,233,83540,5,8,0:0:0:0:
499,247,83632,1,0,0:0:0:0:
465,262,83724,1,2,1:0:0:0:
446,264,83816,1,0,0:0:0:0:
410,253,83908,1,8,0:0:0:0:
293,238,84092,5,2,1:0:0:0:
253,217,84184,1,2,0:1:0:0:
261,174,84276,1,8,0:0:0:0:
305,168,84368,1,2,0:1:0:0:
325,208,84460,5,2,1:0:0:0:
289,181,84552,1,2,0:1:0:0:
304,140,84644,1,8,0:0:0:0:
349,142,84736,1,2,0:1:0:0:
362,185,84828,5,2,1:0:0:0:
331,152,84920,1,2,0:1:0:0:
353,114,85012,1,8,0:0:0:0:
397,124,85104,1,2,0:1:0:0:
402,168,85196,6,0,L|411:271,2,84.5833359146119,2|0|0,1:0|0:0|0:0,0:0:0:0:
448,324,85565,5,2,1:0:0:0:
447,332,85626,1,0,0:0:0:0:
446,340,85687,1,0,0:0:0:0:
445,349,85749,1,8,0:0:0:0:
285,322,85932,5,2,1:0:0:0:
279,129,86116,1,8,0:0:0:0:
444,28,86300,1,2,1:0:0:0:
385,111,86485,1,8,0:0:0:0:
282,104,86669,5,2,1:0:0:0:
281,112,86730,1,0,0:0:0:0:
280,120,86791,1,0,0:0:0:0:
279,129,86853,1,8,0:0:0:0:
272,192,86945,1,0,0:0:0:0:
264,256,87037,6,0,L|176:263,1,63.4375019359589,2|0,1:0|0:0,0:0:0:0:
130,268,87221,2,0,L|124:329,1,32.8125012516976,8|0,0:0|0:0,0:0:0:0:
199,158,87405,6,0,L|111:165,1,63.4375019359589,2|0,1:0|0:0,0:0:0:0:
65,170,87589,2,0,L|59:231,1,32.8125012516976,8|0,0:0|0:0,0:0:0:0:
134,60,87773,6,0,L|46:67,1,63.4375019359589,2|0,1:0|0:0,0:0:0:0:
48,70,87957,1,10,0:0:0:0:
35,71,88018,1,2,0:0:0:0:
22,72,88079,1,2,0:0:0:0:
10,73,88141,5,2,1:2:0:0:
30,97,88233,1,2,0:2:0:0:
39,128,88325,1,10,0:2:0:0:
36,159,88417,1,2,0:2:0:0:
26,193,88509,5,2,1:2:0:0:
10,212,88601,1,2,0:2:0:0:
2,237,88693,1,10,0:2:0:0:
5,261,88785,1,2,0:2:0:0:
17,284,88877,6,0,P|71:314|130:296,1,126.875003871918,4|8,1:2|0:2,0:0:0:0:
235,184,89245,1,2,1:0:0:0:
168,368,89429,1,8,0:2:0:0:
270,270,89613,6,0,B|301:266|301:266|329:279,1,63.4375019359589,2|0,1:0|0:0,0:0:0:0:
385,317,89797,2,0,B|413:330|413:330|444:326,1,63.4375019359589,8|0,0:2|0:0,0:0:0:0:
512,319,89981,1,2,1:0:0:0:
512,319,90165,1,8,0:2:0:0:
494,120,90350,6,0,L|505:246,1,126.875003871918,2|0,1:0|0:0,0:0:0:0:
419,204,90718,1,2,1:0:0:0:
486,52,90902,1,8,0:2:0:0:
407,205,91086,6,0,L|335:198,2,63.4375019359589,2|0|8,1:0|0:0|0:2,0:0:0:0:
285,140,91454,6,0,B|262:194|262:194|290:256,1,126.875003871918,2|8,1:0|0:2,0:0:0:0:
320,313,91730,1,0,0:0:0:0:
320,313,91822,1,2,1:0:0:0:
285,140,92015,5,8,0:2:0:0:
152,113,92209,5,2,1:0:0:0:
59,247,92420,5,8,0:0:0:0:
59,247,92631,2,0,L|54:297,2,29.1666666666667,2|0|0,1:0|0:0|0:0,0:0:0:0:
67,182,92853,1,8,0:0:0:0:
112,328,93109,6,0,L|139:325,11,21.8750008344651,2|0|0|0|0|0|0|0|0|0|0|0,0:1|0:0|0:0|0:0|0:0|0:0|0:0|0:0|0:0|0:0|0:0|0:0,0:0:0:0:
216,256,93920,6,0,L|243:258,28,21.8750008344651
351,293,95950,6,0,L|356:229,1,43.7500016689301
363,184,96221,1,0,0:0:0:0:
375,112,96356,6,0,L|353:113,69,21.8750008344651,2|0|0|0|0|0|0|0|0|0|0|0|0|0|0|0|0|0|0|0|0|0|0|0|0|0|0|0|0|0|0|0|0|0|0|0|0|0|0|0|0|0|0|0|0|0|0|0|0|0|0|0|0|0|0|0|0|0|0|0|0|0|0|0|0|0|0|0|0|0,0:1|0:0|0:0|0:0|0:0|0:0|0:0|0:0|0:0|0:0|0:0|0:0|0:0|0:0|0:0|0:0|0:0|0:0|0:0|0:0|0:0|0:0|0:0|0:0|0:0|0:0|0:0|0:0|0:0|0:0|0:0|0:0|0:0|0:0|0:0|0:0|0:0|0:0|0:0|0:0|0:0|0:0|0:0|0:0|0:0|0:0|0:0|0:0|0:0|0:0|0:0|0:0|0:0|0:0|0:0|0:0|0:0|0:0|0:0|0:0|0:0|0:0|0:0|0:0|0:0|0:0|0:0|0:0|0:0|0:0,0:0:0:0:
