osu file format v14

[General]
AudioFilename: audio.mp3
AudioLeadIn: 0
PreviewTime: 70840
Countdown: 0
SampleSet: Soft
StackLeniency: 0.7
Mode: 0
LetterboxInBreaks: 0
WidescreenStoryboard: 1

[Editor]
Bookmarks: 6809,12331,24478,36257,42147,48036,59815,65337,81533,92576,103067
DistanceSpacing: 1.2
BeatDivisor: 4
GridSize: 16
TimelineZoom: 2.2

[Metadata]
Title:Fly far bounce
TitleUnicode:Fly far bounce
Artist:Nekomata Master
ArtistUnicode:猫叉Master
Creator:Cubby
Version:Advanced
Source:ノスタルジア
Tags:DanceDanceRevolution A DDR jubeat clan MÚSECA 1+1/2 MUSECA pop'n music うさぎと猫と少年の夢 SOUND VOLTEX IV HEAVENLY HAVEN SDVX 4 seonah nostalgia BEMANI PIANO COLLECTION Naoyuki Satou 佐藤直之 milr_ 10nya cubby video game [ White Music ] [_White_Music_] Cubbby -_Frontier_- Frontier video game instrumental electronic
BeatmapID:2266579
BeatmapSetID:1083766

[Difficulty]
HPDrainRate:3
CircleSize:3.6
OverallDifficulty:6
ApproachRate:8
SliderMultiplier:1.56
SliderTickRate:1

[Events]
//Background and Video events
0,0,"Pixiv.Fantasia.full.1946038.jpg",0,0
//Break Periods
2,59629,63833
//Storyboard Layer 0 (Background)
//Storyboard Layer 1 (Fail)
//Storyboard Layer 2 (Pass)
//Storyboard Layer 3 (Foreground)
//Storyboard Layer 4 (Overlay)
//Storyboard Sound Samples

[TimingPoints]
166,368.098159509202,4,2,1,40,1,0
534,368.098159509202,4,2,1,40,1,0
534,-133.333333333333,4,2,1,40,0,0
4030,-133.333333333333,4,2,1,40,0,0
5135,-133.333333333333,4,2,1,40,0,0
6147,-133.333333333333,4,2,1,40,0,0
6423,-133.333333333333,4,2,1,40,0,0
6791,-133.333333333333,4,2,1,40,0,0
6975,-133.333333333333,4,2,1,40,0,0
7343,-133.333333333333,4,2,1,40,0,0
7527,-133.333333333333,4,2,1,40,0,0
8264,-133.333333333333,4,2,1,40,0,0
8448,-133.333333333333,4,2,1,40,0,0
8816,-133.333333333333,4,2,1,40,0,0
9000,-133.333333333333,4,2,1,40,0,0
9368,-133.333333333333,4,2,1,40,0,0
10165,-133.333333333333,4,2,1,40,0,0
10288,-133.333333333333,4,2,1,40,0,0
11576,-133.333333333333,4,2,1,40,0,0
11945,-133.333333333333,4,2,1,40,0,0
12037,-100,4,2,1,40,0,0
12313,-100,4,2,1,60,0,0
12497,-100,4,2,1,60,0,0
12681,-100,4,2,1,60,0,0
13049,-100,4,2,1,60,0,0
13233,-100,4,2,1,60,0,0
16055,-100,4,2,1,60,0,0
16178,-100,4,2,1,60,0,0
16362,-100,4,2,1,60,0,0
16914,-100,4,2,1,40,0,0
17466,-100,4,2,1,60,0,0
18202,-100,4,2,1,60,0,0
18386,-100,4,2,1,60,0,0
18570,-100,4,2,1,60,0,0
18938,-100,4,2,1,60,0,0
19122,-100,4,2,1,60,0,0
19675,-100,4,2,1,60,0,0
19859,-100,4,2,1,60,0,0
20411,-100,4,2,1,60,0,0
20595,-100,4,2,1,60,0,0
21331,-100,4,2,1,60,0,0
21515,-100,4,2,1,60,0,0
21883,-100,4,2,1,60,0,0
22067,-100,4,2,1,60,0,0
22619,-100,4,2,1,60,0,0
23356,-100,4,2,1,60,0,0
23540,-100,4,2,1,60,0,0
23724,-100,4,2,1,60,0,0
23908,-100,4,2,1,60,0,0
24092,-90.9090909090909,4,2,1,70,0,0
35871,-133.333333333333,4,2,1,60,0,0
36055,-133.333333333333,4,2,1,60,0,0
36239,-133.333333333333,4,2,1,60,0,0
36423,-133.333333333333,4,2,1,60,0,0
36607,-133.333333333333,4,2,1,60,0,0
36791,-133.333333333333,4,2,1,60,0,0
36975,-133.333333333333,4,2,1,60,0,0
37159,-133.333333333333,4,2,1,60,0,0
37343,-133.333333333333,4,2,1,60,0,0
37527,-133.333333333333,4,2,1,60,0,0
37711,-133.333333333333,4,2,1,60,0,0
37895,-133.333333333333,4,2,1,60,0,0
38080,-133.333333333333,4,2,1,60,0,0
38264,-133.333333333333,4,2,1,60,0,0
38448,-133.333333333333,4,2,1,60,0,0
38632,-133.333333333333,4,2,1,60,0,0
38816,-133.333333333333,4,2,1,60,0,0
39000,-133.333333333333,4,2,1,60,0,0
39184,-133.333333333333,4,2,1,60,0,0
39368,-133.333333333333,4,2,1,60,0,0
39552,-133.333333333333,4,2,1,60,0,0
39736,-133.333333333333,4,2,1,60,0,0
39920,-133.333333333333,4,2,1,60,0,0
40104,-133.333333333333,4,2,1,60,0,0
40288,-133.333333333333,4,2,1,60,0,0
40840,-133.333333333333,4,2,1,60,0,0
41024,-133.333333333333,4,2,1,60,0,0
41208,-133.333333333333,4,2,1,60,0,0
41392,-133.333333333333,4,2,1,60,0,0
41576,-133.333333333333,4,2,1,60,0,0
41760,-133.333333333333,4,2,1,60,0,0
41944,-133.333333333333,4,2,1,60,0,0
42129,-133.333333333333,4,2,1,60,0,0
42313,-133.333333333333,4,2,1,60,0,0
42497,-133.333333333333,4,2,1,60,0,0
42681,-133.333333333333,4,2,1,60,0,0
42865,-133.333333333333,4,2,1,60,0,0
43049,-133.333333333333,4,2,1,60,0,0
43233,-133.333333333333,4,2,1,60,0,0
43417,-133.333333333333,4,2,1,60,0,0
43601,-133.333333333333,4,2,1,60,0,0
43785,-133.333333333333,4,2,1,60,0,0
43969,-133.333333333333,4,2,1,60,0,0
44153,-133.333333333333,4,2,1,60,0,0
44337,-133.333333333333,4,2,1,60,0,0
44521,-133.333333333333,4,2,1,60,0,0
44705,-133.333333333333,4,2,1,60,0,0
44889,-133.333333333333,4,2,1,60,0,0
45073,-133.333333333333,4,2,1,60,0,0
45257,-133.333333333333,4,2,1,60,0,0
45441,-133.333333333333,4,2,1,60,0,0
45625,-133.333333333333,4,2,1,60,0,0
45809,-133.333333333333,4,2,1,60,0,0
45993,-133.333333333333,4,2,1,60,0,0
46178,-133.333333333333,4,2,1,60,0,0
47282,-100,4,2,1,60,0,0
47466,-100,4,2,1,60,0,0
47650,-100,4,2,1,70,0,0
59429,-133.333333333333,4,2,1,70,0,0
69736,-105.263157894737,4,2,1,70,0,0
71208,-83.3333333333333,4,2,1,80,0,0
72190,-83.3333333333333,4,2,1,80,0,0
72313,-83.3333333333333,4,2,1,80,0,0
73693,-83.3333333333333,4,2,1,80,0,0
73785,-83.3333333333333,4,2,1,80,0,0
74950,-83.3333333333333,4,2,1,80,0,0
75073,-83.3333333333333,4,2,1,80,0,0
76239,-83.3333333333333,4,2,1,80,0,0
76362,-83.3333333333333,4,2,1,80,0,0
77006,-83.3333333333333,4,2,1,80,0,0
77098,-83.3333333333333,4,2,1,80,0,0
78110,-83.3333333333333,4,2,1,80,0,0
78202,-83.3333333333333,4,2,1,80,0,0
80840,-83.3333333333333,4,2,1,80,0,0
80963,-83.3333333333333,4,2,1,80,0,0
81147,-83.3333333333333,4,2,1,80,0,0
81331,-83.3333333333333,4,2,1,80,0,0
81607,-83.3333333333333,4,2,1,80,0,0
81699,-83.3333333333333,4,2,1,80,0,0
81791,-83.3333333333333,4,2,1,80,0,0
81883,-83.3333333333333,4,2,1,80,0,0
81975,-83.3333333333333,4,2,1,80,0,0
82067,-83.3333333333333,4,2,1,80,0,0
82159,-83.3333333333333,4,2,1,80,0,0
82251,-83.3333333333333,4,2,1,80,0,0
82312,-83.3333333333333,4,2,1,80,0,0
82435,-83.3333333333333,4,2,1,80,0,0
82496,-83.3333333333333,4,2,1,80,0,0
82619,-83.3333333333333,4,2,1,80,0,0
82680,-83.3333333333333,4,2,1,80,0,0
82803,-83.3333333333333,4,2,1,80,0,0
82864,-83.3333333333333,4,2,1,80,0,0
82987,-83.3333333333333,4,2,1,80,0,0
85625,-83.3333333333333,4,2,1,80,0,0
85748,-83.3333333333333,4,2,1,80,0,0
86729,-83.3333333333333,4,2,1,80,0,0
86852,-83.3333333333333,4,2,1,80,0,0
86913,-83.3333333333333,4,2,1,80,0,0
87037,-83.3333333333333,4,2,1,80,0,0
89889,-83.3333333333333,4,2,1,80,0,0
89981,-83.3333333333333,4,2,1,80,0,0
91730,-83.3333333333333,4,2,1,80,0,0
91822,387.096774193548,4,2,1,80,1,0
91822,-83.3333333333333,4,2,1,80,0,0
92209,422.535211267606,4,2,1,80,1,0
92466,-83.3333333333333,4,2,1,80,0,0
92631,444.444444444444,4,2,1,80,1,0
92853,512.820512820513,4,2,1,80,1,0
93109,811.90798376184,4,2,1,80,1,0
93110,-83.3333333333333,4,2,1,80,0,0
93172,-166.666666666667,4,2,1,80,0,0
93294,-166.666666666667,4,2,1,80,0,0
96153,-166.666666666667,4,2,1,5,0,0
96356,-166.666666666667,4,2,1,80,0,0
101025,-166.666666666667,4,2,1,80,0,0

[Colours]
Combo1 : 225,225,225
Combo2 : 0,255,0
Combo3 : 255,255,128
Combo4 : 0,255,128

[HitObjects]
75,47,166,6,0,L|28:43,3,39,0|0|0|0,0:0|0:0|0:0|0:0,0:0:0:0:
80,36,534,1,4,0:0:0:0:
267,220,1086,1,2,0:0:0:0:
29,359,1822,1,2,0:0:0:0:
261,278,2374,2,0,L|267:198,1,58.500002231598,2|2,0:0|0:0,0:0:0:0:
436,47,3110,6,0,L|483:43,3,29.250001115799,2|2|2|2,0:0|0:0|0:0|0:0,0:0:0:0:
432,36,3478,1,6,0:0:0:0:
281,251,4030,1,2,0:0:0:0:
430,343,4399,1,2,0:0:0:0:
468,264,4583,1,2,0:0:0:0:
468,264,5135,6,0,L|474:192,2,58.500002231598,0|0|0,0:0|0:0|0:0,0:0:0:0:
334,37,6055,6,0,L|304:39,3,29.250001115799,2|2|2|2,0:0|0:0|0:0|0:0,0:0:0:0:
348,38,6423,2,0,L|335:181,1,117.000004463196,6|0,0:0|0:0,0:0:0:0:
387,227,6975,2,0,L|243:239,1,117.000004463196,2|0,0:0|0:0,0:0:0:0:
183,246,7527,1,2,0:0:0:0:
239,313,7711,1,2,0:0:0:0:
239,313,8264,5,0,0:0:0:0:
183,246,8448,2,0,L|193:129,1,117.000004463196,2|0,0:0|0:0,0:0:0:0:
109,153,9000,2,0,L|79:155,3,29.250001115799,2|2|2|2,0:0|0:0|0:0|0:0,0:0:0:0:
112,128,9368,6,0,L|118:56,1,58.500002231598,6|2,0:0|0:0,0:0:0:0:
128,0,9736,1,2,0:0:0:0:
184,48,9920,1,2,0:0:0:0:
128,0,10104,2,0,L|97:2,3,19.500000743866,2|0|0|2,0:0|0:0|0:0|0:0,0:0:0:0:
32,8,10472,5,2,0:0:0:0:
256,88,11576,6,0,L|327:94,1,58.500002231598,0|0,0:0|0:0,0:0:0:0:
325,206,11945,2,0,L|323:176,3,29.250001115799,0|0|0|0,1:0|0:0|0:0|0:0,0:0:0:0:
317,218,12313,6,0,L|327:332,1,78,6|0,0:2|0:0,0:0:0:0:
211,262,12681,1,10,0:0:0:0:
238,148,12865,6,0,L|231:70,1,78,2|0,0:0|0:0,0:0:0:0:
134,136,13233,1,0,0:0:0:0:
51,76,13417,2,0,L|44:-2,1,78,10|2,0:0|0:0,0:0:0:0:
245,17,13969,5,0,0:0:0:0:
257,117,14153,2,0,L|264:195,1,78,10|2,0:0|0:0,0:0:0:0:
415,329,14705,5,0,0:0:0:0:
314,318,14889,2,0,L|266:313,3,39,10|2|2|2,0:0|0:1|0:1|0:1,0:0:0:0:
325,305,15257,2,0,L|318:227,1,78,2|2,0:0|0:0,0:0:0:0:
310,129,15626,1,10,0:0:0:0:
229,186,15810,1,2,0:0:0:0:
310,129,15994,6,0,L|308:98,3,26,2|0|0|10,0:0|0:0|0:0|0:0,0:0:0:0:
229,186,16362,2,0,P|160:152|87:175,1,156,2|0,0:0|0:0,0:0:0:0:
20,249,16914,2,0,L|16:288,2,39,2|2|0,0:0|0:0|0:0,0:0:0:0:
0,148,17282,1,2,0:0:0:0:
95,114,17466,6,0,L|104:10,1,78,2|2,0:0|0:0,0:0:0:0:
193,78,17834,2,0,L|199:0,1,78,2|2,0:0|0:0,0:0:0:0:
317,52,18202,6,0,L|311:130,1,78,6|2,0:2|0:0,0:0:0:0:
302,230,18570,1,10,0:0:0:0:
399,204,18754,2,0,L|393:282,1,78,2|0,0:0|0:0,0:0:0:0:
383,382,19122,1,0,0:0:0:0:
474,336,19307,2,0,L|469:390,2,39,10|0|2,0:0|0:0|0:0,0:0:0:0:
488,235,19675,6,0,L|494:157,1,78,0|0,0:0|0:0,0:0:0:0:
502,56,20043,1,10,0:0:0:0:
415,109,20227,2,0,L|421:31,1,78,2|0,0:0|0:0,0:0:0:0:
502,56,20595,1,0,0:0:0:0:
427,124,20779,2,0,L|363:118,3,39,8|2|2|2,0:0|0:1|0:1|0:1,0:0:0:0:
436,136,21147,6,0,P|455:171|456:214,1,78,2|2,0:0|0:0,0:0:0:0:
376,295,21515,1,10,0:0:0:0:
347,197,21699,1,2,0:0:0:0:
443,226,21883,2,0,L|487:221,3,26,2|0|0|10,0:0|0:0|0:0|0:0,0:0:0:0:
414,138,22251,6,0,P|345:104|272:127,1,156,2|0,0:0|0:0,0:0:0:0:
102,16,22987,1,0,0:0:0:0:
102,16,23356,2,0,L|109:103,1,78,2|0,0:1|0:0,0:0:0:0:
193,43,23724,2,0,L|280:50,1,78,2|0,0:1|0:0,0:0:0:0:
368,7,24092,6,0,L|358:115,1,85.8000026184083,4|8,1:2|0:0,0:0:0:0:
288,176,24460,2,0,L|297:284,1,85.8000026184083,0|8,1:0|0:0,0:0:0:0:
360,352,24828,6,0,L|274:344,1,85.8000026184083,2|8,1:0|0:0,0:0:0:0:
181,283,25196,2,0,L|95:275,1,85.8000026184083,0|8,1:0|0:0,0:0:0:0:
142,174,25564,1,2,1:0:0:0:
251,150,25748,2,0,L|246:205,2,42.9000013092041,8|8|0,0:0|0:0|1:0,0:0:0:0:
142,174,26116,1,8,0:0:0:0:
205,82,26300,6,0,P|192:41|204:0,1,85.8000026184083,2|8,1:0|0:0,0:0:0:0:
315,1,26668,2,0,P|327:41|315:82,1,85.8000026184083,2|8,1:0|0:0,0:0:0:0:
358,185,27037,6,0,L|469:175,1,85.8000026184083,2|8,1:0|0:0,0:0:0:0:
426,287,27405,2,0,L|537:277,1,85.8000026184083,2|8,1:0|0:0,0:0:0:0:
450,186,27773,1,2,1:0:0:0:
407,289,27957,2,0,L|352:294,2,42.9000013092041,8|8|2,0:0|0:0|1:0,0:0:0:0:
450,186,28325,1,8,0:0:0:0:
374,104,28509,6,0,L|364:215,1,85.8000026184083,2|8,1:0|0:0,0:0:0:0:
257,210,28877,2,0,L|247:321,1,85.8000026184083,2|8,1:0|0:0,0:0:0:0:
159,361,29245,1,2,1:0:0:0:
159,361,29429,1,2,1:0:0:0:
159,361,29613,2,0,P|118:349|77:362,1,85.8000026184083,2|0,1:0|0:0,0:0:0:0:
15,268,29981,6,0,P|2:227|14:186,1,85.8000026184083,4|8,1:2|0:0,0:0:0:0:
103,120,30349,2,0,P|116:79|104:38,1,85.8000026184083,0|8,1:0|0:0,0:0:0:0:
216,33,30718,6,0,P|257:46|298:34,1,85.8000026184083,2|8,1:0|0:0,0:0:0:0:
407,38,31086,2,0,P|396:79|409:120,1,85.8000026184083,0|8,1:0|0:0,0:0:0:0:
441,226,31454,6,0,P|360:199|280:224,2,171.600005236817,2|2|2,1:0|1:0|1:0,0:0:0:0:
511,47,32558,2,0,L|503:132,1,85.8000026184083,2|8,1:0|0:0,0:0:0:0:
441,226,32926,6,0,L|448:311,1,85.8000026184083,2|8,1:0|0:0,0:0:0:0:
340,341,33294,2,0,L|255:334,1,85.8000026184083,2|8,1:0|0:0,0:0:0:0:
143,320,33662,1,2,1:0:0:0:
225,245,33846,2,0,L|228:202,2,42.9000013092041,8|8|2,0:0|0:0|1:0,0:0:0:0:
143,320,34214,1,8,0:0:0:0:
81,226,34399,6,0,P|40:237|0:224,1,85.8000026184083,2|8,1:0|0:0,0:0:0:0:
3,112,34767,2,0,P|43:100|84:113,1,85.8000026184083,2|8,1:0|0:0,0:0:0:0:
186,158,35135,6,0,L|193:73,1,85.8000026184083,2|8,1:0|0:0,0:0:0:0:
294,118,35503,2,0,L|301:33,1,85.8000026184083,0|0,1:0|0:0,0:0:0:0:
376,40,35871,6,0,P|403:32|435:35,1,58.500002231598,4|0,1:2|0:0,0:0:0:0:
423,110,36239,2,0,P|443:130|456:158,1,58.500002231598,2|0,0:0|0:0,0:0:0:0:
392,197,36607,2,0,P|385:225|366:250,1,58.500002231598,2|0,0:0|0:0,0:0:0:0:
297,221,36975,2,0,P|269:228|238:226,1,58.500002231598,2|0,0:0|0:0,0:0:0:0:
165,211,37343,6,0,L|159:269,1,58.500002231598,2|0,0:0|0:0,0:0:0:0:
108,326,37711,2,0,L|102:384,1,58.500002231598,2|0,0:0|0:0,0:0:0:0:
26,380,38080,6,0,L|31:321,1,58.500002231598,2|0,0:0|0:0,0:0:0:0:
0,253,38448,2,0,L|5:194,1,58.500002231598,2|0,0:0|0:0,0:0:0:0:
3,118,38816,6,0,L|61:112,1,58.500002231598,2|0,0:0|0:0,0:0:0:0:
132,87,39184,2,0,L|126:145,2,58.500002231598,2|0|2,0:0|0:0|0:0,0:0:0:0:
137,11,39736,1,0,0:0:0:0:
202,48,39920,2,0,L|260:53,1,58.500002231598,2|0,0:0|0:0,0:0:0:0:
335,44,40288,6,0,P|328:94|434:97,1,175.500006694794,2|0,0:0|0:0,0:0:0:0:
461,177,41024,1,2,0:0:0:0:
448,310,41392,5,2,0:0:0:0:
383,264,41576,1,0,0:0:0:0:
354,334,41760,2,0,L|296:329,1,58.500002231598,4|0,1:2|0:0,0:0:0:0:
271,256,42129,2,0,L|213:251,1,58.500002231598,10|0,0:0|0:0,0:0:0:0:
184,180,42497,2,0,L|126:175,1,58.500002231598,10|0,0:0|0:0,0:0:0:0:
85,110,42865,2,0,L|27:105,1,58.500002231598,10|0,0:0|0:0,0:0:0:0:
22,180,43233,6,0,L|27:238,1,58.500002231598,10|0,0:0|0:0,0:0:0:0:
90,279,43601,2,0,L|95:337,1,58.500002231598,10|0,0:0|0:0,0:0:0:0:
170,330,43969,2,0,L|165:272,1,58.500002231598,10|0,0:0|0:0,0:0:0:0:
227,227,44337,2,0,L|222:169,1,58.500002231598,10|0,0:0|0:0,0:0:0:0:
196,97,44705,6,0,P|166:95|138:102,1,58.500002231598,10|0,0:0|0:0,0:0:0:0:
71,138,45073,2,0,P|69:167|76:195,1,58.500002231598,10|0,0:0|0:0,0:0:0:0:
102,266,45441,6,0,P|131:264|159:271,1,58.500002231598,10|0,0:0|0:0,0:0:0:0:
221,315,45809,2,0,P|222:344|215:372,1,58.500002231598,10|0,0:0|0:0,0:0:0:0:
291,374,46178,6,0,L|417:362,2,117.000004463196,10|10|10,0:0|0:0|0:0,0:0:0:0:
344,320,47098,1,0,1:0:0:0:
443,337,47282,1,10,0:0:0:0:
464,158,47650,6,0,L|368:166,1,78,4|8,1:2|0:0,0:0:0:0:
285,174,48018,1,2,1:0:0:0:
336,87,48202,2,0,L|288:91,2,39,8|8|2,0:0|0:0|0:1,0:0:0:0:
410,77,48570,1,8,0:0:0:0:
464,158,48754,2,0,L|455:253,1,78,2|8,1:0|0:0,0:0:0:0:
447,336,49122,5,0,1:2:0:0:
366,273,49307,1,8,0:0:0:0:
336,364,49491,2,0,L|240:355,1,78,2|8,1:0|0:0,0:0:0:0:
185,268,49859,2,0,L|280:259,1,78,2|8,1:0|0:0,0:0:0:0:
326,182,50227,1,2,1:0:0:0:
326,182,50411,1,8,0:0:0:0:
181,147,50595,6,0,L|187:67,1,78,2|8,1:0|0:0,0:0:0:0:
87,83,50963,2,0,L|93:3,1,78,2|8,1:0|0:0,0:0:0:0:
192,28,51331,2,0,L|269:34,1,78,2|8,1:0|0:0,0:0:0:0:
339,108,51699,2,0,L|416:101,1,78,2|8,1:0|0:0,0:0:0:0:
498,93,52067,5,2,1:0:0:0:
468,190,52251,2,0,L|463:237,2,39,8|8|0,0:0|0:0|1:0,0:0:0:0:
383,245,52619,2,0,L|378:292,2,39,8|8|2,0:0|0:0|1:0,0:0:0:0:
399,144,52987,1,0,1:0:0:0:
304,181,53172,6,0,L|208:189,1,78,2|8,1:0|0:0,0:0:0:0:
183,214,53448,1,8,0:0:0:0:
183,214,53540,2,0,L|87:222,1,78,4|8,1:2|0:0,0:0:0:0:
21,277,53908,1,2,1:0:0:0:
22,175,54092,2,0,L|19:149,3,26,8|0|0|2,0:0|0:0|0:0|1:0,0:0:0:0:
121,142,54460,1,8,0:0:0:0:
184,221,54644,2,0,L|176:317,1,78,2|8,1:0|0:0,0:0:0:0:
270,340,55012,6,0,P|312:338|358:353,1,78,2|8,1:0|0:0,0:0:0:0:
447,345,55380,2,0,P|424:309|414:262,1,78,2|8,1:0|0:0,0:0:0:0:
363,188,55748,2,0,P|343:225|307:257,1,78,2|8,1:0|0:0,0:0:0:0:
221,219,56116,2,0,L|195:221,3,26,2|0|0|8,1:0|0:0|0:0|0:0,0:0:0:0:
268,151,56484,6,0,L|276:55,1,78,2|8,1:0|0:0,0:0:0:0:
185,23,56853,2,0,L|178:100,1,78,2|8,1:0|0:0,0:0:0:0:
155,199,57221,6,0,L|59:190,1,78,2|8,1:0|0:0,0:0:0:0:
13,270,57589,1,2,1:0:0:0:
13,270,57773,1,8,0:0:0:0:
71,352,57957,6,0,L|167:343,1,78,2|8,1:0|0:0,0:0:0:0:
234,290,58325,2,0,L|330:299,1,78,2|8,1:0|0:0,0:0:0:0:
395,354,58693,2,0,L|491:345,1,78,2|8,1:0|0:0,0:0:0:0:
437,251,59061,6,0,P|420:195|442:142,1,117,2|0,1:0|0:0,0:0:0:0:
467,115,59429,1,4,1:2:0:0:
48,48,64583,5,8,0:0:0:0:
44,44,64951,2,0,L|39:91,3,29.250001115799,0|2|2|2,1:0|0:2|0:2|0:2,0:0:0:0:
32,160,65319,6,0,L|159:148,1,117.000004463196,6|0,1:2|0:0,0:0:0:0:
223,140,65871,1,0,1:0:0:0:
213,215,66055,2,0,L|340:203,1,117.000004463196,8|0,0:0|1:0,0:0:0:0:
405,196,66607,1,2,0:0:0:0:
422,230,66699,1,2,0:0:0:0:
415,263,66791,6,0,L|427:136,1,117.000004463196,2|0,1:2|0:0,0:0:0:0:
434,70,67343,1,0,1:0:0:0:
358,81,67527,2,0,L|231:93,1,117.000004463196,8|0,0:0|1:0,0:0:0:0:
165,98,68080,1,2,0:0:0:0:
148,132,68172,1,2,0:0:0:0:
155,165,68264,6,0,L|143:38,1,117.000004463196,2|0,1:2|0:0,0:0:0:0:
68,43,68816,1,0,1:0:0:0:
41,113,69000,2,0,P|72:162|63:219,1,117.000004463196,8|0,0:0|1:0,0:0:0:0:
19,281,69552,1,0,0:0:0:0:
99,333,69736,6,0,L|152:336,2,37.0499990106583,0|0|0,1:0|0:0|0:0,0:0:0:0:
19,281,70104,1,8,0:0:0:0:
111,253,70288,6,0,L|164:256,2,37.0499990106583,0|0|0,1:0|0:0|0:0,0:0:0:0:
30,200,70656,1,8,0:0:0:0:
30,200,71208,6,0,P|25:153|46:112,1,93.5999971435548,4|8,1:2|0:0,0:0:0:0:
172,112,71576,2,0,P|192:153|188:199,1,93.5999971435548,2|8,1:0|0:0,0:0:0:0:
98,291,71945,1,2,1:0:0:0:
104,192,72129,2,0,L|105:144,3,31.1999990478516,8|0|0|2,0:0|0:0|0:0|1:0,0:0:0:0:
184,232,72497,6,0,L|280:241,1,93.5999971435548,8|2,0:0|1:0,0:0:0:0:
374,167,72865,1,8,0:0:0:0:
372,144,72957,1,8,0:0:0:0:
370,121,73049,1,2,1:0:0:0:
295,24,73233,6,0,L|198:33,1,93.5999971435548,8|2,0:0|1:0,0:0:0:0:
86,72,73601,1,8,0:0:0:0:
84,95,73693,1,0,0:0:0:0:
82,118,73785,2,0,L|78:175,3,46.7999985717774,2|2|8|2,1:0|0:1|0:0|0:1,0:0:0:0:
72,225,74153,6,0,L|167:216,1,93.5999971435548,2|8,1:0|0:0,0:0:0:0:
212,328,74521,2,0,L|118:319,1,93.5999971435548,2|8,1:0|0:0,0:0:0:0:
4,359,74889,2,0,L|8:312,3,31.1999990478516,2|0|0|8,1:0|0:0|0:0|0:0,0:0:0:0:
71,224,75257,2,0,L|62:130,1,93.5999971435548,2|8,1:0|0:0,0:0:0:0:
184,129,75626,2,0,L|175:35,1,93.5999971435548,0|8,1:0|0:0,0:0:0:0:
55,56,75994,5,0,1:0:0:0:
69,193,76178,2,0,L|71:224,3,31.1999990478516,8|0|0|0,0:0|0:0|0:0|1:0,0:0:0:0:
81,336,76546,1,8,0:0:0:0:
188,278,76730,2,0,L|283:286,1,93.5999971435548,0|8,1:0|0:0,0:0:0:0:
325,328,77006,1,0,0:0:0:0:
339,329,77098,2,0,L|434:337,1,93.5999971435548,4|8,1:2|0:0,0:0:0:0:
396,220,77466,6,0,P|401:173|380:132,1,93.5999971435548,2|8,1:0|0:0,0:0:0:0:
466,46,77834,1,2,1:0:0:0:
344,58,78018,1,8,0:0:0:0:
320,61,78110,1,0,0:0:0:0:
297,63,78202,6,0,L|201:71,1,93.5999971435548,2|8,1:0|0:0,0:0:0:0:
116,155,78570,2,0,L|212:163,1,93.5999971435548,2|8,1:0|0:0,0:0:0:0:
330,150,78938,2,0,L|322:246,1,93.5999971435548,2|8,1:0|0:0,0:0:0:0:
313,365,79307,1,2,1:0:0:0:
313,365,79491,1,8,0:0:0:0:
409,290,79675,6,0,L|455:294,3,46.7999985717774,2|2|8|2,1:0|0:1|0:0|0:1,0:0:0:0:
407,256,80043,2,0,L|399:162,1,93.5999971435548,2|8,1:0|0:0,0:0:0:0:
302,88,80411,2,0,L|294:181,1,93.5999971435548,2|8,1:0|0:0,0:0:0:0:
199,257,80779,6,0,L|152:261,3,31.1999990478516,2|0|0|8,1:0|0:0|0:0|0:0,0:0:0:0:
288,244,81147,1,0,0:0:0:0:
288,244,81239,1,0,0:0:0:0:
288,244,81331,1,0,1:0:0:0:
204,155,81515,6,0,L|209:91,3,46.7999985717774,8|0|0|0,0:0|0:0|1:0|0:0,0:0:0:0:
213,47,81883,2,0,L|217:0,3,46.7999985717774,10|0|2|0,0:0|0:0|1:2|0:0,0:0:0:0:
270,28,82251,6,0,L|301:25,4,31.1999990478516,10|2|2|0|0,0:0|0:0|0:0|1:0|0:0,0:0:0:0:
348,48,82619,2,0,L|379:50,4,31.1999990478516,10|2|2|0|0,0:0|0:0|0:0|1:0|0:0,0:0:0:0:
391,82,82987,5,4,1:2:0:0:
393,109,83079,1,2,0:1:0:0:
395,137,83171,1,2,0:1:0:0:
461,239,83356,6,0,P|416:226|372:241,1,93.5999971435548,2|8,1:0|0:0,0:0:0:0:
374,362,83724,2,0,P|418:374|462:359,1,93.5999971435548,2|8,1:0|0:0,0:0:0:0:
357,304,84092,6,0,B|333:299|333:299|293:309,3,46.7999985717774,2|2|8|2,1:0|0:1|0:0|0:1,0:0:0:0:
361,275,84460,2,0,L|366:211,2,46.7999985717774,2|2|8,1:0|0:1|0:0,0:0:0:0:
262,203,84828,2,0,L|267:139,2,46.7999985717774,2|2|8,1:0|0:1|0:0,0:0:0:0:
162,132,85196,2,0,L|167:68,2,46.7999985717774,2|2|8,1:0|0:1|0:0,0:0:0:0:
49,207,85564,6,0,L|17:209,3,31.1999990478516,2|0|0|8,1:0|0:0|0:0|0:0,0:0:0:0:
92,305,85932,2,0,L|203:314,1,93.5999971435548,2|8,1:0|0:0,0:0:0:0:
305,328,86300,1,2,1:0:0:0:
239,226,86484,1,8,0:0:0:0:
329,144,86668,6,0,L|360:146,3,31.1999990478516,2|0|0|8,1:0|0:0|0:0|0:0,0:0:0:0:
248,128,87037,2,0,L|238:16,1,93.5999971435548,2|8,1:0|0:0,0:0:0:0:
140,104,87405,2,0,L|130:-7,1,93.5999971435548,2|8,1:0|0:0,0:0:0:0:
36,86,87773,6,0,L|27:179,1,93.5999971435548,2|10,1:0|0:0,0:0:0:0:
133,238,88141,1,2,1:2:0:0:
135,262,88233,1,2,0:2:0:0:
137,285,88325,1,10,0:2:0:0:
245,340,88509,6,0,L|308:334,3,46.7999985717774,2|2|10|2,1:2|0:2|0:2|0:2,0:0:0:0:
245,296,88877,2,0,P|267:254|256:203,1,93.5999971435548,4|8,1:2|0:2,0:0:0:0:
210,98,89245,2,0,P|188:56|199:5,1,93.5999971435548,2|8,1:0|0:2,0:0:0:0:
312,41,89613,1,2,1:0:0:0:
304,162,89797,1,8,0:2:0:0:
304,162,89889,1,0,0:0:0:0:
304,162,89981,2,0,L|415:152,1,93.5999971435548,2|8,1:0|0:2,0:0:0:0:
488,234,90349,6,0,L|478:345,1,93.5999971435548,2|8,1:0|0:2,0:0:0:0:
372,268,90718,2,0,L|362:379,1,93.5999971435548,2|8,1:0|0:2,0:0:0:0:
252,311,91086,1,2,1:0:0:0:
284,193,91270,2,0,L|275:99,1,93.5999971435548,8|2,0:2|1:0,0:0:0:0:
155,118,91638,5,8,0:2:0:0:
131,116,91730,1,0,0:0:0:0:
107,113,91822,2,0,P|81:152|90:206,1,93.5999971435548,2|8,1:0|0:2,0:0:0:0:
128,288,92209,2,0,L|24:279,1,78,2|8,1:0|0:0,0:0:0:0:
27,153,92631,6,0,L|22:105,3,26,2|0|0|8,1:0|0:0|0:0|0:0,0:0:0:0:
143,117,93110,1,2,0:1:0:0:
256,192,93311,12,0,96153,0:0:0:0:
256,192,96356,12,0,101025,0:0:0:0:
